osu file format v14

[General]
AudioFilename: I like turtles.mp3
AudioLeadIn: 0
PreviewTime: 49459
Countdown: 1
SampleSet: Normal
StackLeniency: 0.7
Mode: 0
LetterboxInBreaks: 0
WidescreenStoryboard: 1

[Editor]
DistanceSpacing: 1
BeatDivisor: 4
GridSize: 4
TimelineZoom: 1

[Metadata]
Title:Sis puella magica!
TitleUnicode:Sis puella magica!
Artist:Kajiura Yuki
ArtistUnicode:Kajiura Yuki
Creator:Lollipop860
Version:Easy
Source:Madoka Magica
Tags:
BeatmapID:965276
BeatmapSetID:418283

[Difficulty]
HPDrainRate:3
CircleSize:3
OverallDifficulty:3
ApproachRate:3
SliderMultiplier:1
SliderTickRate:1

[Events]
//Background and Video events
0,0,"Fuahh.jpg",0,0
//Break Periods
2,44388,48019
//Storyboard Layer 0 (Background)
//Storyboard Layer 1 (Fail)
//Storyboard Layer 2 (Pass)
//Storyboard Layer 3 (Foreground)
//Storyboard Sound Samples

[TimingPoints]
0,405.403265306122,4,1,0,55,1,0
49459,-66.6666666666667,4,1,0,55,0,1
90810,-100,4,1,0,55,0,0

[HitObjects]
112,84,3243,6,0,P|172:56|208:64,1,100
304,68,4054,1,0,0:0:0:0:
248,148,4459,2,0,P|216:188|152:204,1,100
171,204,5270,1,0,0:0:0:0:
244,284,5675,1,0,0:0:0:0:
244,284,6081,2,0,P|296:288|312:248,2,100
148,256,7297,2,0,P|120:208|124:160,1,100
192,96,8108,2,0,P|256:68|292:80,1,100
348,148,8918,6,0,P|376:204|352:256,2,100
276,76,10135,1,0,0:0:0:0:
236,168,10540,2,0,P|224:220|248:264,1,100
340,280,11351,2,0,P|312:324|264:332,1,100
176,288,12162,1,0,0:0:0:0:
176,288,12567,1,0,0:0:0:0:
148,192,12972,5,0,0:0:0:0:
148,192,13378,2,0,P|180:152|228:160,2,100
148,272,14594,2,0,P|200:288|260:292,1,100
340,260,15405,2,0,P|392:220|380:180,3,100
324,116,17026,1,0,0:0:0:0:
324,116,17432,1,0,0:0:0:0:
224,96,17837,6,0,P|240:164|228:204,1,100
140,152,18648,2,0,P|124:220|136:260,1,100
228,268,19459,2,0,P|296:296|316:284,1,100
412,208,21891,6,0,P|444:160|336:104,1,200
350,94,23107,1,0,0:0:0:0:
260,136,23513,2,0,P|200:152|156:132,2,100
344,188,24729,2,0,B|376:236|324:288,2,100
352,52,26756,6,0,P|416:72|424:112,2,100
252,64,27972,1,0,0:0:0:0:
52,52,28378,1,0,0:0:0:0:
52,52,28783,2,0,P|104:104|92:136,1,100
60,212,29594,2,0,P|44:272|80:304,1,100
164,280,30405,2,0,P|268:300|316:224,1,200
440,160,31621,2,0,P|452:224|436:224,2,100
440,160,32837,1,0,0:0:0:0:
260,76,33243,2,0,P|200:64|136:176,1,200
133,166,34459,1,0,0:0:0:0:
232,172,34864,5,0,0:0:0:0:
232,172,35270,1,0,0:0:0:0:
392,288,36080,1,0,0:0:0:0:
392,288,36486,1,0,0:0:0:0:
204,220,37297,1,0,0:0:0:0:
204,220,37702,1,0,0:0:0:0:
48,96,38513,6,0,P|116:120|152:104,2,100
60,196,39729,2,0,P|68:260|112:288,2,100
60,196,40945,1,0,0:0:0:0:
60,196,41351,1,0,0:0:0:0:
60,196,41756,1,0,0:0:0:0:
152,160,42161,6,0,P|216:152|248:112,2,100
152,160,43378,1,0,0:0:0:0:
152,160,43783,1,0,0:0:0:0:
152,160,44188,1,0,0:0:0:0:
292,96,49459,6,0,P|336:76|384:152,1,150.000005722046
385,146,50270,1,0,0:0:0:0:
320,280,50675,1,0,0:0:0:0:
248,256,51080,1,0,0:0:0:0:
188,212,51486,1,0,0:0:0:0:
112,256,52297,6,0,P|92:208|148:132,1,150.000005722046
288,100,53107,2,0,P|336:144|304:224,2,150.000005722046
