osu file format v14

[General]
AudioFilename: audio.mp3
AudioLeadIn: 0
PreviewTime: 65150
Countdown: 0
SampleSet: Soft
StackLeniency: 0
Mode: 0
LetterboxInBreaks: 0
WidescreenStoryboard: 0

[Editor]
DistanceSpacing: 1.9
BeatDivisor: 4
GridSize: 4
TimelineZoom: 1

[Metadata]
Title:Sis puella magica!
TitleUnicode:Sis puella magica!
Artist:Kajiura Yuki
ArtistUnicode:梶浦由記
Creator:Asonate
Version:Tea Party
Source:魔法少女まどか☆マギカ
Tags:Itoh Eri 伊東恵里 Mahou Shoujo Madoka Magica Puella magi Orchestral Vocals Calm Chill Main Theme Ayyri eiri-
BeatmapID:1523138
BeatmapSetID:721320

[Difficulty]
HPDrainRate:5
CircleSize:5
OverallDifficulty:7.7
ApproachRate:8.3
SliderMultiplier:2
SliderTickRate:1

[Events]
//Background and Video events
0,0,"BG.jpg",0,0
//Break Periods
//Storyboard Layer 0 (Background)
//Storyboard Layer 1 (Fail)
//Storyboard Layer 2 (Pass)
//Storyboard Layer 3 (Foreground)
//Storyboard Sound Samples

[TimingPoints]
3382,386.050701325441,3,2,1,30,1,0
5601,-100,3,2,1,5,0,0
5698,-100,3,2,1,30,0,0
7918,-100,3,2,1,5,0,0
8014,-100,3,2,1,30,0,0
10234,-100,3,2,1,5,0,0
10330,-100,3,2,1,30,0,0
14867,-100,3,2,1,5,0,0
14963,-100,3,2,1,30,0,0
17183,-100,3,2,1,5,0,0
17279,-100,3,2,1,30,0,0
19499,-100,3,2,1,5,0,0
19596,-100,3,2,1,30,0,0
22201,-100,3,2,1,5,0,0
22298,-100,3,2,1,30,0,0
23746,-100,3,2,1,5,0,0
23842,-100,3,2,1,30,0,0
24132,-100,3,2,1,5,0,0
24228,-100,3,2,1,30,0,0
26834,-100,3,2,1,5,0,0
26931,-100,3,2,1,30,0,0
28378,-100,3,2,1,5,0,0
28475,-100,3,2,1,30,0,0
28764,-100,3,2,1,5,0,0
28861,-100,3,2,1,30,0,0
31467,-100,3,2,1,5,0,0
31563,-100,3,2,1,30,0,0
42855,-100,3,2,1,15,0,0
43917,-100,3,2,1,10,0,0
45075,-100,3,2,1,5,0,0
47391,-83.3333333333333,3,2,1,45,0,0
48453,-83.3333333333333,3,2,1,5,0,0
48549,-83.3333333333333,3,2,1,45,0,0
49611,-83.3333333333333,3,2,1,5,0,0
49708,-83.3333333333333,3,2,1,45,0,0
49997,-83.3333333333333,3,2,1,5,0,0
50094,-83.3333333333333,3,2,1,45,0,0
53086,-83.3333333333333,3,2,1,5,0,0
53182,-83.3333333333333,3,2,1,45,0,0
57718,-83.3333333333333,3,2,1,5,0,0
57815,-83.3333333333333,3,2,1,45,0,0
58876,-83.3333333333333,3,2,1,5,0,0
58973,-83.3333333333333,3,2,1,45,0,0
59262,-83.3333333333333,3,2,1,5,0,0
59359,-83.3333333333333,3,2,1,45,0,0
62351,-83.3333333333333,3,2,1,5,0,0
62447,-83.3333333333333,3,2,1,45,0,0
67755,-83.3333333333333,3,2,1,5,0,0
67852,-83.3333333333333,3,2,1,45,0,0
68142,-83.3333333333333,3,2,1,5,0,0
68238,-83.3333333333333,3,2,1,45,0,0
68624,-125,3,2,1,45,0,0
70554,-83.3333333333333,3,2,1,45,0,0
72388,-83.3333333333333,3,2,1,5,0,0
72485,-83.3333333333333,3,2,1,45,0,0
72774,-83.3333333333333,3,2,1,5,0,0
72871,-83.3333333333333,3,2,1,45,0,0
76345,-125,3,2,1,45,0,0
76635,-125,3,2,1,5,0,0
76731,-125,3,2,1,45,0,0
77021,-125,3,2,1,5,0,0
77117,-125,3,2,1,45,0,0
77407,-125,3,2,1,5,0,0
77503,-125,3,2,1,45,0,0
84452,-166.666666666667,3,2,1,45,0,0
86768,-100,3,2,3,60,0,0
89374,-100,3,2,3,5,0,0
89471,-100,3,2,3,60,0,0
90146,-100,3,2,3,5,0,0
90243,-100,3,2,3,60,0,0
90532,-100,3,2,3,5,0,0
90629,-100,3,2,3,60,0,0
93621,-100,3,2,3,5,0,0
93717,-100,3,2,3,60,0,0
95937,-100,3,2,3,5,0,0
96034,-100,3,2,3,60,0,0
98640,-100,3,2,3,5,0,0
98736,-100,3,2,3,60,0,0
99412,-100,3,2,3,5,0,0
99508,-100,3,2,3,60,0,0
99798,-100,3,2,3,5,0,0
99894,-100,3,2,3,60,0,0
102886,-100,3,2,3,5,0,0
102983,-100,3,2,3,60,0,0
110221,-100,3,2,3,5,0,0
110318,-100,3,2,3,60,0,0
111765,-100,3,2,3,5,0,0
111862,-100,3,2,3,60,0,0
116398,-100,3,2,3,5,0,0
116494,-100,3,2,3,60,0,0
121417,-100,3,2,3,5,0,0
121513,-100,3,2,3,60,0,0
121706,-100,3,2,3,5,0,0
121803,-100,3,2,3,60,0,0
125277,-100,3,2,3,5,0,0
125374,-100,3,2,1,60,0,0
126146,-125,3,2,3,50,0,0
138306,-166.666666666667,3,2,3,50,0,0
138885,-125,3,2,3,50,0,0
139464,-166.666666666667,3,2,3,50,0,0
140043,-125,3,2,3,50,0,0
140623,-200,3,2,3,50,0,0
141202,-125,3,2,3,50,0,0
142360,-200,3,2,1,50,0,0
145834,-200,3,2,3,50,0,0
146606,-200,3,2,3,50,0,0
147571,-200,3,2,3,30,0,0
147764,-200,3,2,3,25,0,0
148151,-200,3,2,3,20,0,0
148537,-200,3,2,3,15,0,0
148923,-200,3,2,3,10,0,0
149309,-200,3,2,3,5,0,0
151625,-200,3,2,3,50,0,0

[Colours]
Combo1 : 182,117,255
Combo2 : 255,208,121
Combo3 : 151,151,255
Combo4 : 255,149,186
Combo5 : 78,156,156
Combo6 : 255,168,168

[HitObjects]
56,304,3382,6,0,P|156:324|172:240,1,200,2|0,0:0|0:0,0:0:0:0:
58,238,3961,1,0,0:0:0:0:
114,272,4154,1,0,0:0:0:0:
114,272,4540,2,0,P|176:248|208:188,1,100
243,171,4926,2,0,P|198:152|152:168,1,100
82,162,5312,2,0,B|35:75|35:75|80:101,1,150
79,100,5698,6,0,P|128:50|65:81,1,200,2|0,0:0|0:0,0:0:0:0:
209,168,6277,1,0,0:0:0:0:
210,105,6470,1,0,0:0:0:0:
210,105,6856,2,0,P|252:121|265:198,1,100
250,256,7242,2,0,P|242:211|303:161,1,100
359,147,7628,2,0,P|277:172|247:97,1,150
245,130,8014,6,0,B|263:200|263:200|249:257|249:257|314:336,1,200,2|0,0:0|0:0,0:0:0:0:
405,246,8593,1,0,0:0:0:0:
348,277,8786,1,0,0:0:0:0:
348,277,9172,2,0,P|300:300|284:369,1,100
353,349,9558,2,0,P|401:326|419:268,1,100
386,214,9944,2,0,P|312:215|250:255,1,150
250,255,10330,5,2,0:0:0:0:
195,222,10523,1,0,0:0:0:0:
130,220,10716,1,0,0:0:0:0:
130,220,11103,5,0,0:0:0:0:
186,188,11296,1,0,0:0:0:0:
220,133,11489,1,0,0:0:0:0:
250,255,11875,5,0,0:0:0:0:
219,197,12261,1,0,0:0:0:0:
130,220,12647,6,0,B|182:230|219:197|219:197|180:226|179:266|201:296,1,200,2|0,0:0|0:0,0:0:0:0:
305,287,13226,1,0,0:0:0:0:
250,255,13419,1,0,0:0:0:0:
250,255,13805,2,0,P|290:224|357:249,1,100
272,167,14191,2,0,P|279:216|250:255,1,100
336,230,14577,2,0,P|289:210|303:112,1,150
290,122,14963,6,0,P|264:55|264:133,1,200,2|0,0:0|0:0,0:0:0:0:
400,157,15542,1,0,0:0:0:0:
335,167,15735,1,0,0:0:0:0:
335,167,16121,2,0,B|300:229|300:229|251:258,1,100
355,272,16507,2,0,B|293:308|293:308|236:308,1,100
319,372,16893,2,0,B|247:372|247:372|167:326,1,150
179,333,17279,6,0,P|123:350|163:270,1,200,2|0,0:0|0:0,0:0:0:0:
264,308,17858,1,0,0:0:0:0:
221,258,18051,1,0,0:0:0:0:
221,258,18437,2,0,P|263:233|272:172,1,100
211,194,18824,2,0,P|176:159|176:111,1,100
236,134,19210,2,0,P|228:71|139:58,1,150
153,50,19596,5,2,0:0:0:0:
111,100,19789,1,0,0:0:0:0:
176,111,19982,1,0,0:0:0:0:
176,111,20368,5,0,0:0:0:0:
111,100,20561,1,0,0:0:0:0:
134,161,20754,1,0,0:0:0:0:
123,225,21140,5,2,0:0:0:0:
173,267,21333,1,0,0:0:0:0:
112,289,21526,1,2,0:0:0:0:
187,202,21719,1,0,0:0:0:0:
74,184,21912,6,0,P|152:204|247:181,1,150,2|0,0:0|0:0,0:0:0:0:
220,193,22298,2,0,P|287:258|221:308,1,200
112,289,22877,1,0,0:0:0:0:
173,267,23070,1,0,0:0:0:0:
161,330,23263,1,0,0:0:0:0:
124,226,23456,2,0,P|210:214|237:263,1,150
236,259,23842,2,0,P|281:204|348:225,1,150
348,225,24228,5,2,0:0:0:0:
299,266,24421,1,0,0:0:0:0:
236,259,24614,1,0,0:0:0:0:
236,259,25000,5,0,0:0:0:0:
296,281,25193,1,0,0:0:0:0:
321,339,25386,1,0,0:0:0:0:
321,339,25772,5,2,0:0:0:0:
310,276,25965,1,0,0:0:0:0:
347,225,26158,1,2,0:0:0:0:
321,339,26352,1,0,0:0:0:0:
236,259,26545,6,0,P|207:313|121:296,1,150,2|0,0:0|0:0,0:0:0:0:
128,304,26931,2,0,B|137:327|135:348|135:348|105:341|92:318|92:318|87:256|138:205,1,200
236,259,27510,1,0,0:0:0:0:
173,259,27703,1,0,0:0:0:0:
204,204,27896,1,0,0:0:0:0:
268,314,28089,2,0,P|208:317|239:259,1,150
236,259,28475,2,0,P|266:204|204:203,1,150
204,204,28861,5,2,0:0:0:0:
141,205,29054,1,0,0:0:0:0:
172,149,29247,1,0,0:0:0:0:
173,260,29633,5,0,0:0:0:0:
109,150,30019,1,0,0:0:0:0:
204,204,30405,5,2,0:0:0:0:
141,205,30598,1,0,0:0:0:0:
235,148,30791,1,2,0:0:0:0:
173,260,30984,1,0,0:0:0:0:
206,92,31177,6,0,P|176:37|141:89,1,150,2|0,0:0|0:0,0:0:0:0:
141,89,31563,2,0,B|170:112|203:94|203:94|245:67|305:102|297:156,1,200
235,148,32142,1,0,0:0:0:0:
355,130,32335,5,0,0:0:0:0:
355,130,32721,5,0,0:0:0:0:
355,130,33107,5,0,0:0:0:0:
355,130,33493,5,2,0:0:0:0:
392,185,33686,1,0,0:0:0:0:
384,71,33880,1,0,0:0:0:0:
392,185,34266,5,0,0:0:0:0:
400,299,34652,5,2,0:0:0:0:
429,240,34845,1,0,0:0:0:0:
334,303,35038,1,0,0:0:0:0:
429,240,35424,5,0,0:0:0:0:
327,190,35810,5,2,0:0:0:0:
363,244,36003,1,0,0:0:0:0:
263,195,36196,1,0,0:0:0:0:
363,244,36582,5,0,0:0:0:0:
270,306,36968,5,2,0:0:0:0:
299,248,37161,1,0,0:0:0:0:
305,359,37354,1,0,0:0:0:0:
299,248,37740,5,0,0:0:0:0:
289,136,38126,5,2,0:0:0:0:
263,195,38319,1,0,0:0:0:0:
299,248,38512,1,0,0:0:0:0:
263,195,38898,5,0,0:0:0:0:
299,248,39091,1,0,0:0:0:0:
273,307,39284,1,2,0:0:0:0:
299,248,39670,5,0,0:0:0:0:
309,360,40056,1,0,0:0:0:0:
209,311,40442,5,2,0:0:0:0:
145,315,40635,1,0,0:0:0:0:
109,261,40828,1,0,0:0:0:0:
145,315,41214,5,0,0:0:0:0:
109,261,41407,1,0,0:0:0:0:
138,203,41601,1,2,0:0:0:0:
109,261,41987,5,0,0:0:0:0:
138,203,42373,1,0,0:0:0:0:
45,265,42759,5,6,0:0:0:0:
256,192,42855,12,0,46233,0:0:0:0:
318,146,47391,6,0,P|282:254|170:278,1,239.999992675781,10|0,0:0|0:0,0:0:0:0:
38,222,47970,1,0,0:0:0:0:
106,343,48163,2,0,B|97:267|97:267|111:231|111:231|104:166,1,179.999994506836
108,137,48549,6,0,P|125:81|179:59,1,119.999996337891,2|0,0:0|0:0,0:0:0:0:
186,164,48935,2,0,P|158:113|183:56,1,119.999996337891
301,69,49322,2,0,B|351:93|351:93|228:108,1,179.999994506836,2|0,0:0|0:0,0:0:0:0:
250,129,49708,6,0,P|315:154|297:248,1,179.999994506836,10|0,0:0|0:0,0:0:0:0:
282,273,50094,1,0,0:0:0:0:
263,192,50287,1,0,0:0:0:0:
395,308,50480,2,0,P|460:293|480:240,1,119.999996337891
395,163,50866,5,2,0:0:0:0:
414,245,51059,1,0,0:0:0:0:
333,133,51252,5,2,0:0:0:0:
332,201,51445,1,0,0:0:0:0:
280,89,51638,5,2,0:0:0:0:
280,89,52024,6,0,B|225:106|184:78|184:78|148:100|148:100|98:75|50:111,1,239.999992675781,10|0,0:0|0:0,0:0:0:0:
107,175,52603,1,0,0:0:0:0:
47,235,52796,2,0,P|130:257|189:194,1,179.999994506836
184,166,53182,6,0,P|248:236|289:228,1,119.999996337891,2|0,0:0|0:0,0:0:0:0:
314,123,53568,1,0,0:0:0:0:
255,165,53761,1,0,0:0:0:0:
343,307,53954,2,0,P|278:236|237:244,1,119.999996337891,2|0,0:0|0:0,0:0:0:0:
213,350,54340,5,10,0:0:0:0:
272,308,54533,1,0,0:0:0:0:
142,351,54726,2,0,L|159:215,1,119.999996337891,2|0,0:0|0:0,0:0:0:0:
32,119,55112,2,0,L|46:238,1,119.999996337891
216,109,55498,5,2,0:0:0:0:
288,187,55691,1,0,0:0:0:0:
184,166,55884,5,2,0:0:0:0:
280,121,56077,1,0,0:0:0:0:
229,214,56270,5,2,0:0:0:0:
229,214,56656,6,0,P|108:237|23:160,1,239.999992675781,10|0,0:0|0:0,0:0:0:0:
98,26,57236,1,0,0:0:0:0:
89,112,57429,2,0,P|151:163|205:101,1,179.999994506836
188,77,57815,6,0,P|234:119|304:103,1,119.999996337891,2|0,0:0|0:0,0:0:0:0:
371,48,58201,2,0,P|311:66|290:135,1,119.999996337891
318,191,58587,2,0,P|287:113|205:129,1,179.999994506836,2|0,0:0|0:0,0:0:0:0:
190,155,58973,6,0,B|133:163|133:163|191:183|191:183|251:175,1,179.999994506836,10|0,0:0|0:0,0:0:0:0:
277,160,59359,1,0,0:0:0:0:
245,250,59552,1,0,0:0:0:0:
362,181,59745,2,0,P|355:118|309:79,1,119.999996337891,2|0,0:0|0:0,0:0:0:0:
149,67,60131,5,2,0:0:0:0:
248,99,60324,1,0,0:0:0:0:
190,155,60517,5,2,0:0:0:0:
277,160,60710,1,0,0:0:0:0:
251,227,60903,5,2,0:0:0:0:
251,227,61289,6,0,P|246:95|320:101,1,239.999992675781,10|0,0:0|0:0,0:0:0:0:
369,255,61868,1,0,0:0:0:0:
277,160,62061,2,0,B|206:164|206:164|174:181|174:181|81:153,1,179.999994506836
74,141,62447,6,0,P|117:179|120:238,1,119.999996337891,2|0,0:0|0:0,0:0:0:0:
33,288,62833,1,0,0:0:0:0:
51,212,63026,1,0,0:0:0:0:
229,253,63219,2,0,P|172:267|120:238,1,119.999996337891,2|0,0:0|0:0,0:0:0:0:
164,111,63605,5,10,0:0:0:0:
182,187,63798,1,0,0:0:0:0:
271,110,63991,2,0,B|310:90|350:97|382:125|382:125|413:144|445:151|471:137|491:106|487:73|468:46|439:38|409:43|382:60|371:91,1,359.999989013672,2|0,0:0|0:0,0:0:0:0:
315,201,64764,5,2,0:0:0:0:
315,201,65150,5,2,0:0:0:0:
432,221,65343,1,0,0:0:0:0:
402,288,65536,5,2,0:0:0:0:
344,133,65729,1,0,0:0:0:0:
243,184,65922,6,0,P|177:170|150:123,1,119.999996337891,10|0,0:0|0:0,0:0:0:0:
224,110,66308,2,0,B|232:176|173:200|173:200|125:221|115:275|138:309,1,239.999992675781
274,310,66887,1,2,0:0:0:0:
198,269,67080,1,4,0:0:0:0:
200,355,67273,1,0,0:0:0:0:
272,223,67466,6,0,P|229:185|200:270,1,179.999994506836,2|0,0:0|0:0,0:0:0:0:
227,268,67852,2,0,B|171:263|140:291|140:291|94:325|38:285,1,179.999994506836,2|0,0:0|0:0,0:0:0:0:
28,302,68238,2,0,P|88:269|85:198,1,119.999996337891,10|0,0:0|0:0,0:0:0:0:
57,109,68624,6,0,P|50:196|172:164,1,239.999992675781,2|0,0:0|0:0,0:0:0:0:
105,156,69396,5,6,0:0:0:0:
105,156,69782,5,2,0:0:0:0:
223,139,69975,1,0,0:0:0:0:
322,204,70168,5,2,0:0:0:0:
168,181,70361,1,0,0:0:0:0:
341,122,70554,6,0,P|376:72|353:15,1,119.999996337891,10|0,0:0|0:0,0:0:0:0:
312,65,70940,2,0,B|487:54|487:54|430:96,1,239.999992675781
409,235,71519,1,2,0:0:0:0:
477,209,71712,1,4,0:0:0:0:
422,164,71905,1,0,0:0:0:0:
464,280,72099,6,0,P|402:260|286:304,1,179.999994506836,2|0,0:0|0:0,0:0:0:0:
276,317,72485,2,0,P|194:351|108:331,1,179.999994506836,2|0,0:0|0:0,0:0:0:0:
80,343,72871,2,0,L|92:224,1,119.999996337891,10|0,0:0|0:0,0:0:0:0:
79,104,73257,5,2,0:0:0:0:
79,104,73643,5,2,0:0:0:0:
189,149,74029,5,6,0:0:0:0:
189,149,74415,5,2,0:0:0:0:
204,46,74608,1,0,0:0:0:0:
270,44,74801,5,2,0:0:0:0:
122,154,74994,1,0,0:0:0:0:
241,240,75187,6,0,P|194:208|189:148,1,119.999996337891,10|0,0:0|0:0,0:0:0:0:
253,173,75573,2,0,P|309:234|197:292,1,239.999992675781
139,238,76152,1,2,0:0:0:0:
118,327,76345,6,0,P|97:275|139:238,1,120,6|0,0:0|0:0,0:0:0:0:
157,248,76731,2,0,B|133:192|133:192|157:136,1,120,2|0,0:0|0:0,0:0:0:0:
138,145,77117,2,0,P|97:108|118:56,1,120,2|0,0:0|0:0,0:0:0:0:
132,41,77503,5,2,0:0:0:0:
206,89,77696,1,2,0:0:0:0:
294,93,77889,2,0,P|283:131|244:169,1,80,2|0,0:0|0:0,0:0:0:0:
180,173,78275,2,0,P|220:175|257:161,1,80,2|0,0:0|0:0,0:0:0:0:
206,89,78661,5,2,0:0:0:0:
120,108,78854,1,2,0:0:0:0:
94,192,79047,2,0,P|60:170|34:122,1,80,2|0,0:0|0:0,0:0:0:0:
180,173,79433,2,0,L|172:278,1,80,2|0,0:0|0:0,0:0:0:0:
97,296,79820,5,2,0:0:0:0:
173,339,80013,1,2,0:0:0:0:
250,296,80206,2,0,P|289:293|326:308,1,80,2|0,0:0|0:0,0:0:0:0:
402,320,80592,2,0,P|362:322|326:308,1,80,2|0,0:0|0:0,0:0:0:0:
375,236,80978,5,2,0:0:0:0:
348,151,81171,1,2,0:0:0:0:
462,255,81364,2,0,P|460:215|434:169,1,80,2|0,0:0|0:0,0:0:0:0:
261,132,81750,1,6,0:0:0:0:
261,132,82136,6,0,L|170:125,1,80,10|0,0:0|0:0,0:0:0:0:
143,50,82522,2,0,P|187:109|79:106,1,240,2|0,0:0|0:0,0:0:0:0:
40,41,83294,6,0,P|67:70|79:108,1,80,6|0,0:0|0:0,0:0:0:0:
148,155,83680,2,0,P|146:194|128:230,1,80,2|0,0:0|0:0,0:0:0:0:
144,312,84066,2,0,P|114:339|77:351,1,80,2|0,0:0|0:0,0:0:0:0:
207,257,84452,6,0,B|256:237|309:265|309:265|353:292|405:278|442:226|412:165,1,299.999990844727,10|0,0:0|0:0,0:0:0:0:
269,145,85610,6,0,P|275:115|292:91,1,59.9999981689454,10|0,0:0|0:0,0:0:0:0:
349,204,85996,2,0,P|339:175|343:146,1,59.9999981689454,2|0,0:0|0:0,0:0:0:0:
227,51,86382,2,0,P|247:29|275:18,1,59.9999981689454,6|0,0:0|0:0,0:0:0:0:
397,96,86768,6,0,P|484:148|416:241,1,200,6|0,0:0|0:0,0:0:0:0:
409,178,87348,1,2,0:0:0:0:
411,173,87444,1,0,0:0:0:0:
413,168,87541,2,0,P|370:164|326:115,1,100,2|0,0:0|0:0,0:0:0:0:
263,163,87927,6,0,L|152:152,1,100,10|0,0:0|0:0,0:0:0:0:
158,152,88216,1,0,0:0:0:0:
153,151,88313,1,2,0:0:0:0:
221,71,88506,1,0,0:0:0:0:
263,163,88699,2,0,P|245:212|171:255,1,100,2|0,0:0|0:0,0:0:0:0:
153,151,89085,6,0,B|136:111|93:104|93:104|46:96|29:45,1,150,6|0,0:0|0:0,0:0:0:0:
30,41,89471,1,2,0:0:0:0:
85,175,89664,1,2,0:0:0:0:
32,292,89857,2,0,P|79:256|20:246,1,150,2|0,0:0|0:0,0:0:0:0:
21,246,90243,6,0,B|56:265|92:252|92:252|142:237|191:293,1,150,10|0,0:0|0:0,0:0:0:0:
163,267,90629,5,2,0:0:0:0:
151,181,90822,1,0,0:0:0:0:
95,322,91015,5,2,0:0:0:0:
231,212,91208,1,0,0:0:0:0:
176,354,91401,6,0,B|240:347|240:347|271:322|271:322|378:335,1,200,6|0,0:0|0:0,0:0:0:0:
417,275,91980,1,2,0:0:0:0:
422,273,92077,1,0,0:0:0:0:
427,271,92173,2,0,P|421:208|376:167,1,100,2|0,0:0|0:0,0:0:0:0:
342,249,92559,6,0,L|200:231,1,100,10|0,0:0|0:0,0:0:0:0:
237,236,92849,1,0,0:0:0:0:
232,235,92945,1,2,0:0:0:0:
204,142,93138,1,0,0:0:0:0:
304,157,93331,2,0,L|135:182,1,150,2|0,0:0|0:0,0:0:0:0:
133,169,93717,5,6,0:0:0:0:
242,236,93910,1,0,0:0:0:0:
261,63,94103,2,0,P|223:95|204:141,1,100,2|0,0:0|0:0,0:0:0:0:
305,157,94489,6,0,L|409:147,1,100
242,236,94876,2,0,L|341:245,1,100,8|0,0:0|0:0,0:0:0:0:
304,333,95262,2,0,L|404:324,1,100
242,236,95648,6,0,P|217:288|270:265,1,150,2|0,0:0|0:0,0:0:0:0:
270,265,96034,6,0,B|222:249|174:277|174:277|124:304|46:269,1,200,6|0,0:0|0:0,0:0:0:0:
32,217,96613,1,2,0:0:0:0:
33,211,96709,1,0,0:0:0:0:
34,205,96806,2,0,P|44:141|90:114,1,100,2|0,0:0|0:0,0:0:0:0:
102,185,97192,6,0,L|226:176,1,100,10|0,0:0|0:0,0:0:0:0:
207,176,97481,1,0,0:0:0:0:
213,175,97578,1,2,0:0:0:0:
144,94,97771,1,0,0:0:0:0:
213,175,97964,2,0,P|269:192|307:173,1,100,2|0,0:0|0:0,0:0:0:0:
391,71,98350,6,0,P|319:57|258:98,1,150,6|0,0:0|0:0,0:0:0:0:
259,124,98736,1,2,0:0:0:0:
144,94,98929,1,0,0:0:0:0:
201,177,99122,2,0,P|179:240|126:199,1,150,2|0,0:0|0:0,0:0:0:0:
126,204,99508,6,0,B|132:264|132:264|116:291|116:291|148:361,1,150,10|0,0:0|0:0,0:0:0:0:
140,344,99894,5,2,0:0:0:0:
258,335,100087,1,0,0:0:0:0:
247,195,100280,5,2,0:0:0:0:
196,301,100473,1,0,0:0:0:0:
327,348,100666,6,0,P|281:268|195:301,1,200,6|0,0:0|0:0,0:0:0:0:
254,345,101245,1,2,0:0:0:0:
256,340,101342,1,0,0:0:0:0:
258,335,101438,2,0,L|140:344,1,100,2|0,0:0|0:0,0:0:0:0:
119,277,101824,5,10,0:0:0:0:
179,219,102017,1,0,0:0:0:0:
180,213,102114,1,0,0:0:0:0:
181,207,102210,1,2,0:0:0:0:
99,197,102404,1,0,0:0:0:0:
196,301,102597,2,0,L|207:143,1,150,2|0,0:0|0:0,0:0:0:0:
221,130,102983,5,6,0:0:0:0:
99,197,103176,1,2,0:0:0:0:
270,230,103369,2,0,L|409:219,1,100,2|0,0:0|0:0,0:0:0:0:
196,301,103755,2,0,L|57:290,1,100
259,241,104141,6,0,L|481:224,1,200,8|0,0:0|0:0,0:0:0:0:
426,130,104720,5,2,0:0:0:0:
360,205,104913,1,2,0:0:0:0:
458,225,105106,1,2,0:0:0:0:
328,110,105299,6,0,L|228:102,1,100,6|0,0:0|0:0,0:0:0:0:
172,36,105685,2,0,P|232:56|148:88,1,200,2|0,0:0|0:0,0:0:0:0:
68,44,106264,5,2,0:0:0:0:
100,167,106457,1,10,0:0:0:0:
191,77,106650,1,2,0:0:0:0:
41,145,106843,2,0,P|50:205|162:176,1,200,2|0,0:0|0:0,0:0:0:0:
130,61,107422,5,2,0:0:0:0:
100,167,107615,1,6,0:0:0:0:
207,140,107808,1,2,0:0:0:0:
130,61,108001,2,0,L|244:52,1,100,2|0,0:0|0:0,0:0:0:0:
306,147,108387,2,0,L|207:140,1,100
366,117,108773,2,0,P|340:204|252:185,1,200,8|0,0:0|0:0,0:0:0:0:
229,53,109352,5,2,0:0:0:0:
306,147,109545,1,2,0:0:0:0:
186,169,109738,1,2,0:0:0:0:
350,32,109931,6,0,P|348:92|396:48,1,150,6|0,0:0|0:0,0:0:0:0:
399,57,110318,2,0,B|393:144|393:144|409:184|409:184|377:272,1,200,2|0,0:0|0:0,0:0:0:0:
333,186,110897,5,2,0:0:0:0:
464,132,111090,1,10,0:0:0:0:
329,188,111283,1,2,0:0:0:0:
445,272,111476,2,0,P|391:313|321:248,1,150,2|0,0:0|0:0,0:0:0:0:
327,276,111862,2,0,L|201:285,1,100,2|0,0:0|0:0,0:0:0:0:
136,242,112248,5,6,0:0:0:0:
235,173,112441,1,2,0:0:0:0:
316,246,112634,2,0,P|275:274|227:283,1,100,2|0,0:0|0:0,0:0:0:0:
144,132,113020,1,2,0:0:0:0:
144,132,113406,5,8,0:0:0:0:
144,132,113792,6,0,P|93:141|42:185,1,100
136,242,114178,1,2,0:0:0:0:
195,56,114371,1,2,0:0:0:0:
296,201,114564,6,0,P|301:161|249:107,1,100,6|0,0:0|0:0,0:0:0:0:
235,173,114950,2,0,P|244:244|359:226,1,200,2|0,0:0|0:0,0:0:0:0:
417,103,115529,5,2,0:0:0:0:
267,114,115722,1,10,0:0:0:0:
410,186,115915,1,2,0:0:0:0:
416,187,116012,1,2,0:0:0:0:
422,188,116108,2,0,P|426:242|347:202,1,150,2|0,0:0|0:0,0:0:0:0:
350,239,116494,2,0,P|355:313|321:343,1,100,2|0,0:0|0:0,0:0:0:0:
197,260,116880,5,6,0:0:0:0:
295,280,117073,1,2,0:0:0:0:
99,240,117266,2,0,L|80:113,1,100,2|0,0:0|0:0,0:0:0:0:
38,278,117653,2,0,P|95:312|135:303,1,100
264,186,118039,5,10,0:0:0:0:
295,280,118232,1,2,0:0:0:0:
375,108,118425,2,0,L|356:234,1,100,2|0,0:0|0:0,0:0:0:0:
313,68,118811,2,0,P|370:34|410:43,1,100
453,170,119197,5,6,0:0:0:0:
438,268,119390,1,2,0:0:0:0:
264,186,119583,2,0,L|156:178,2,100,2|0|0,0:0|0:0|0:0,0:0:0:0:
375,108,120162,5,2,0:0:0:0:
295,280,120355,2,0,L|187:272,1,100,10|0,0:0|0:0,0:0:0:0:
192,277,120644,1,0,0:0:0:0:
189,282,120741,2,0,P|164:353|128:374,1,100,2|0,0:0|0:0,0:0:0:0:
57,306,121127,2,0,P|66:247|104:294,1,150,2|0,0:0|0:0,0:0:0:0:
104,294,121513,6,0,L|94:184,1,100,6|0,0:0|0:0,0:0:0:0:
98,189,121803,1,2,0:0:0:0:
101,184,121899,2,0,P|171:183|76:103,1,300,2|0,0:0|0:0,0:0:0:0:
135,130,122671,6,0,L|249:124,1,100,10|0,0:0|0:0,0:0:0:0:
311,232,123057,2,0,P|249:220|224:181,1,100
322,68,123443,2,0,L|286:176,1,100
260,258,123829,5,6,0:0:0:0:
260,258,124215,5,2,0:0:0:0:
430,227,124408,1,0,0:0:0:0:
315,322,124601,5,2,0:0:0:0:
356,254,124794,1,0,0:0:0:0:
430,227,124987,6,0,P|449:172|354:124,1,150,14|0,0:0|0:0,0:0:0:0:
388,116,125374,2,0,P|356:67|357:24,1,100,2|0,0:2|0:0,0:0:0:0:
155,27,125760,2,0,P|153:76|123:116,1,100,2|0,0:2|0:0,0:0:0:0:
256,192,126146,5,4,0:0:0:0:
56,137,127304,5,4,0:0:0:0:
372,263,128365,5,0,0:0:0:0:
374,259,128462,1,4,0:0:0:0:
170,306,129620,5,6,0:0:0:0:
197,206,130006,5,2,0:0:0:0:
197,206,130199,1,0,0:0:0:0:
97,233,130392,1,10,0:0:0:0:
97,233,130585,1,0,0:0:0:0:
270,279,130778,5,6,0:0:0:0:
325,79,131936,5,4,0:0:0:0:
170,306,133095,5,4,0:0:0:0:
43,180,133867,5,2,0:0:0:0:
115,106,134253,1,6,0:0:0:0:
143,205,134639,5,2,0:0:0:0:
143,205,134832,1,0,0:0:0:0:
43,180,135025,1,10,0:0:0:0:
43,180,135218,1,0,0:0:0:0:
215,132,135411,6,0,L|298:136,1,80,6|0,0:0|0:0,0:0:0:0:
383,97,135797,1,2,0:0:0:0:
383,97,135990,2,0,P|391:141|365:202,1,80,8|0,0:0|0:0,0:0:0:0:
311,234,136376,1,2,0:0:0:0:
311,234,136569,6,0,L|137:242,1,160,6|0,0:0|0:0,0:0:0:0:
153,166,137148,1,0,0:0:0:0:
153,166,137341,2,0,P|163:203|152:242,1,80,2|0,0:0|0:0,0:0:0:0:
13,194,137727,6,0,L|93:204,2,80,6|0|0,0:0|0:0|0:0,0:0:0:0:
152,242,138306,2,0,L|72:251,2,59.9999981689454,8|0|0,0:0|0:0|0:0,0:0:0:0:
217,126,138885,6,0,P|179:136|152:164,2,80,6|0|0,0:0|0:0|0:0,0:0:0:0:
274,202,139464,1,2,0:0:0:0:
274,202,139657,2,0,L|215:198,1,59.9999981689454,8|0,0:0|0:0,0:0:0:0:
301,134,140043,6,0,L|305:213,2,80,6|0|0,0:0|0:0|0:0,0:0:0:0:
202,74,140623,6,0,L|204:22,2,50,8|0|0,0:0|0:0|0:0,0:0:0:0:
219,134,141202,6,0,P|166:125|146:99,1,80,6|0,0:0|0:0,0:0:0:0:
139,34,141588,2,0,P|157:68|150:107,1,80,2|0,0:0|0:0,0:0:0:0:
92,153,141974,2,0,P|126:111|158:107,1,80,10|0,0:0|0:0,0:0:0:0:
216,260,142360,6,0,B|212:286|233:316|270:318|304:298|316:255|316:255|289:170|278:163|278:163|291:162|361:102|354:96|354:96|363:94|343:76|341:51|354:34|375:19|400:17|421:31|432:55|434:76|420:97|394:102|401:108|401:108|392:110|422:197|433:204|433:204|420:205|354:266|354:266|343:308|363:343|395:360|429:344|440:318,1,900,14|2,0:0|0:0,0:0:0:0:
439,319,146606,5,2,0:0:0:0:
216,260,146992,1,6,0:0:0:0:
256,192,147571,12,4,151625,0:0:0:0:
