osu file format v14

[General]
AudioFilename: audio.mp3
AudioLeadIn: 0
PreviewTime: 34335
Countdown: 0
SampleSet: None
StackLeniency: 0.7
Mode: 0
LetterboxInBreaks: 0
WidescreenStoryboard: 1

[Editor]
Bookmarks: 478,34335,53835,64335,78050
DistanceSpacing: 1.8
BeatDivisor: 4
GridSize: 8
TimelineZoom: 1.5

[Metadata]
Title:She is a witch
TitleUnicode:She is a witch
Artist:Kajiura Yuki
ArtistUnicode:Kajiura Yuki
Creator:simply_meh
Version:Witch
Source:Puella Magi Madoka Magica: The Movie OST
Tags:Kajiura Yuki , Wakana , Keiko , YURIKO KAIDA , Kaori ,
BeatmapID:1119279
BeatmapSetID:527589

[Difficulty]
HPDrainRate:7
CircleSize:3.5
OverallDifficulty:7
ApproachRate:7
SliderMultiplier:1.4
SliderTickRate:1

[Events]
//Background and Video events
0,0,"Have-A-Madoka-Halloween-mahou-shoujo-madoka-magica-26214725.jpg",0,0
//Break Periods
2,51678,53150
//Storyboard Layer 0 (Background)
//Storyboard Layer 1 (Fail)
//Storyboard Layer 2 (Pass)
//Storyboard Layer 3 (Foreground)
//Storyboard Sound Samples

[TimingPoints]
50,428.571428571429,4,1,0,100,1,0
478,-153.846153846153,4,2,0,100,0,0
34335,-100,4,2,0,30,0,1
51907,-100,4,2,0,5,0,0
53835,-100,4,2,0,30,0,0
74621,-100,4,2,0,5,0,0
78050,-100,4,2,0,5,0,0

[Colours]
Combo1 : 206,206,206
Combo2 : 255,128,0
Combo3 : 128,128,128
Combo4 : 213,0,0

[HitObjects]
56,248,34764,5,0,0:0:0:0:
48,184,34871,1,0,0:0:0:0:
72,136,34978,1,0,0:0:0:0:
120,104,35085,1,0,0:0:0:0:
176,112,35192,1,0,0:0:0:0:
224,184,35407,6,0,P|256:232|336:240,1,140
376,176,36050,1,0,0:0:0:0:
360,128,36157,1,0,0:0:0:0:
304,120,36264,1,0,0:0:0:0:
224,184,36478,2,0,P|120:216|88:216,1,140
32,336,37121,1,0,0:0:0:0:
88,312,37228,1,0,0:0:0:0:
144,288,37335,1,0,0:0:0:0:
232,312,37550,5,0,0:0:0:0:
288,288,37657,1,0,0:0:0:0:
312,240,37764,1,0,0:0:0:0:
432,216,38192,5,0,0:0:0:0:
432,96,38407,1,0,0:0:0:0:
336,56,38621,1,0,0:0:0:0:
240,80,39050,2,0,P|168:88|96:144,1,140,4|0,0:0|0:0,0:0:0:0:
88,160,39692,1,0,0:0:0:0:
104,288,39907,5,0,0:0:0:0:
144,256,40014,1,0,0:0:0:0:
200,264,40121,1,0,0:0:0:0:
264,336,40335,5,0,0:0:0:0:
328,344,40442,1,0,0:0:0:0:
368,304,40550,1,0,0:0:0:0:
464,264,40764,5,0,0:0:0:0:
392,144,41192,5,0,0:0:0:0:
272,96,41407,1,0,0:0:0:0:
152,80,41621,1,0,0:0:0:0:
96,184,41835,2,0,P|72:240|64:272,1,70
120,320,42264,5,0,0:0:0:0:
256,288,42478,1,0,0:0:0:0:
352,208,42692,1,0,0:0:0:0:
392,80,42907,1,0,0:0:0:0:
264,96,43121,2,0,P|224:112|200:160,1,70,0|4,0:0|0:0,0:0:0:0:
160,216,43550,1,0,0:0:0:0:
56,328,43764,5,0,0:0:0:0:
112,352,43871,1,0,0:0:0:0:
160,328,43978,1,0,0:0:0:0:
256,280,44192,5,0,0:0:0:0:
304,328,44300,1,0,0:0:0:0:
368,312,44407,1,0,0:0:0:0:
480,280,44621,2,0,P|488:224|424:160,2,140
264,296,45692,5,0,0:0:0:0:
208,320,45800,1,0,0:0:0:0:
168,344,45907,1,0,0:0:0:0:
64,304,46121,2,0,L|24:272,2,35
112,200,46550,1,0,0:0:0:0:
192,112,46764,5,0,0:0:0:0:
312,88,46978,1,0,0:0:0:0:
416,152,47192,1,0,0:0:0:0:
448,256,47407,2,0,P|432:312|408:320,1,70,0|4,0:0|0:0,0:0:0:0:
320,368,47835,1,0,0:0:0:0:
272,272,48050,5,0,0:0:0:0:
160,208,48264,1,0,0:0:0:0:
224,136,48478,1,0,0:0:0:0:
240,120,48585,1,0,0:0:0:0:
264,96,48692,1,0,0:0:0:0:
280,80,48800,1,0,0:0:0:0:
304,56,48907,5,0,0:0:0:0:
464,104,49121,2,0,P|512:160|512:176,1,70
464,248,49550,1,0,0:0:0:0:
376,304,49764,1,0,0:0:0:0:
376,304,49978,2,0,P|320:328|288:336,1,70
192,320,50407,5,0,0:0:0:0:
104,224,50621,1,0,0:0:0:0:
88,176,50728,1,0,0:0:0:0:
104,128,50835,1,0,0:0:0:0:
208,184,51050,2,0,L|264:168,4,35,0|0|0|0|4,0:0|0:0|0:0|0:0|0:0,0:0:0:0:
72,192,54050,6,0,P|112:144|208:120,1,140,4|0,0:0|0:0,0:0:0:0:
168,216,54692,1,0,0:0:0:0:
256,280,54907,1,0,0:0:0:0:
368,288,55121,1,0,0:0:0:0:
400,248,55228,1,0,0:0:0:0:
408,192,55335,1,0,0:0:0:0:
320,80,55550,5,0,0:0:0:0:
216,176,55764,1,0,0:0:0:0:
112,80,55978,1,0,0:0:0:0:
40,160,56192,2,0,P|24:200|72:304,1,140,0|4,0:0|0:0,0:0:0:0:
160,312,56835,1,0,0:0:0:0:
280,304,57050,1,0,0:0:0:0:
392,248,57264,5,0,0:0:0:0:
408,200,57371,1,0,0:0:0:0:
400,152,57478,1,0,0:0:0:0:
376,104,57585,1,0,0:0:0:0:
328,80,57692,1,0,0:0:0:0:
272,64,57800,1,0,0:0:0:0:
224,80,57907,5,0,0:0:0:0:
160,160,58121,2,0,P|120:216|8:168,1,210
32,72,59192,1,4,0:0:0:0:
128,320,59621,5,0,0:0:0:0:
168,288,59728,1,0,0:0:0:0:
208,248,59835,1,0,0:0:0:0:
320,296,60050,5,0,0:0:0:0:
360,256,60157,1,0,0:0:0:0:
400,216,60264,1,0,0:0:0:0:
464,136,60478,2,0,P|480:72|416:32,1,140
296,64,61335,5,0,0:0:0:0:
264,96,61442,1,0,0:0:0:0:
240,136,61550,1,0,0:0:0:0:
216,176,61657,1,0,0:0:0:0:
208,224,61764,1,4,0:0:0:0:
344,320,61978,5,0,0:0:0:0:
384,288,62085,1,0,0:0:0:0:
408,240,62192,1,0,0:0:0:0:
416,200,62300,1,0,0:0:0:0:
416,152,62407,1,0,0:0:0:0:
400,104,62514,1,0,0:0:0:0:
304,128,62621,6,0,B|264:176|264:176|160:168,1,140
120,176,63264,1,0,0:0:0:0:
88,208,63371,1,0,0:0:0:0:
88,256,63478,1,0,0:0:0:0:
104,304,63585,1,0,0:0:0:0:
152,336,63692,1,0,0:0:0:0:
208,328,63800,5,0,0:0:0:0:
280,264,63907,2,0,P|352:208|416:224,2,140,0|4|0,0:0|0:0|0:0,0:0:0:0:
184,336,64978,1,0,0:0:0:0:
128,256,65192,1,0,0:0:0:0:
24,152,65621,6,0,P|120:88|136:96,1,140
184,168,66264,1,0,0:0:0:0:
224,208,66371,1,0,0:0:0:0:
264,240,66478,1,0,0:0:0:0:
384,296,66907,6,0,P|432:232|416:176,2,140,4|0|0,0:0|0:0|0:0,0:0:0:0:
304,272,67978,1,0,0:0:0:0:
256,240,68085,1,0,0:0:0:0:
240,192,68192,1,0,0:0:0:0:
248,144,68300,1,0,0:0:0:0:
272,112,68407,1,0,0:0:0:0:
304,80,68514,5,0,0:0:0:0:
352,72,68621,1,0,0:0:0:0:
384,168,68835,2,0,P|376:224|416:280,2,105,0|0|4,0:0|0:0|0:0,0:0:0:0:
280,112,69692,1,0,0:0:0:0:
168,120,69907,1,0,0:0:0:0:
104,192,70121,6,0,P|88:256|48:272,2,105
160,320,70978,1,0,0:0:0:0:
280,304,71192,1,0,0:0:0:0:
360,224,71407,1,0,0:0:0:0:
264,216,71621,2,0,P|280:144|352:120,1,140
424,120,72264,1,0,0:0:0:0:
360,32,72478,5,0,0:0:0:0:
256,40,72692,2,0,P|216:88|192:88,1,70
144,176,73121,1,0,0:0:0:0:
120,224,73228,1,0,0:0:0:0:
96,264,73335,1,4,0:0:0:0:
224,304,73550,5,0,0:0:0:0:
272,288,73657,1,0,0:0:0:0:
304,256,73764,1,4,0:0:0:0:
320,216,73871,1,4,0:0:0:0:
320,168,73978,1,0,0:0:0:0:
304,120,74085,1,0,0:0:0:0:
272,80,74192,5,4,0:0:0:0:
256,192,74621,12,0,78050,0:0:0:0:
