osu file format v14

[General]
AudioFilename: audio.mp3
AudioLeadIn: 0
PreviewTime: 34335
Countdown: 0
SampleSet: None
StackLeniency: 0.7
Mode: 0
LetterboxInBreaks: 0
WidescreenStoryboard: 1

[Editor]
Bookmarks: 478,34335,53835,64335,78050
DistanceSpacing: 1.8
BeatDivisor: 4
GridSize: 8
TimelineZoom: 1

[Metadata]
Title:She is a witch
TitleUnicode:She is a witch
Artist:Kajiura Yuki
ArtistUnicode:Kajiura Yuki
Creator:simply_meh
Version:Normal
Source:Puella Magi Madoka Magica: The Movie OST
Tags:Kajiura Yuki , Wakana , Keiko , YURIKO KAIDA , Kaori ,
BeatmapID:1119278
BeatmapSetID:527589

[Difficulty]
HPDrainRate:3
CircleSize:2.5
OverallDifficulty:3
ApproachRate:3.5
SliderMultiplier:1.4
SliderTickRate:1

[Events]
//Background and Video events
0,0,"Have-A-Madoka-Halloween-mahou-shoujo-madoka-magica-26214725.jpg",0,0
//Break Periods
//Storyboard Layer 0 (Background)
//Storyboard Layer 1 (Fail)
//Storyboard Layer 2 (Pass)
//Storyboard Layer 3 (Foreground)
//Storyboard Sound Samples

[TimingPoints]
50,428.571428571429,4,1,0,100,1,0
478,-153.846153846153,4,2,0,100,0,0
34335,-133.333333333333,4,2,0,30,0,1
51907,-133.333333333333,4,2,0,5,0,0
54050,-133.333333333333,4,2,0,30,0,0
74621,-133.333333333333,4,2,0,5,0,0
78050,-133.333333333333,4,2,0,5,0,0

[Colours]
Combo1 : 206,206,206
Combo2 : 255,128,0
Combo3 : 128,128,128
Combo4 : 213,0,0

[HitObjects]
80,200,34764,6,0,P|104:128|224:128,1,210.000008010865,4|0,0:0|0:0,0:0:0:0:
304,176,35835,1,0,0:0:0:0:
392,128,36050,1,0,0:0:0:0:
440,216,36264,1,0,0:0:0:0:
368,296,36478,2,0,P|248:328|176:280,1,210.000008010865
184,288,37764,1,0,0:0:0:0:
80,240,38192,6,0,P|136:192|88:72,1,210.000008010865,0|4,0:0|0:0,0:0:0:0:
97,76,39478,1,0,0:0:0:0:
240,64,39907,1,0,0:0:0:0:
352,128,40335,2,0,P|424:176|440:208,2,105.000004005432
256,184,41621,1,0,0:0:0:0:
184,280,42050,5,0,0:0:0:0:
64,280,42478,2,0,P|40:224|128:112,1,210.000008010865,0|4,0:0|0:0,0:0:0:0:
232,96,43764,1,0,0:0:0:0:
288,208,44192,1,0,0:0:0:0:
272,320,44621,2,0,P|224:320|176:272,2,105.000004005432
392,280,45907,6,0,P|432:224|376:96,1,210.000008010865
304,144,47192,1,0,0:0:0:0:
208,104,47621,1,4,0:0:0:0:
128,168,48050,2,0,P|88:256|-8:232,1,210.000008010865
0,128,49335,5,0,0:0:0:0:
112,48,49764,1,0,0:0:0:0:
240,56,50192,2,0,P|336:40|424:112,1,210.000008010865,0|4,0:0|0:0,0:0:0:0:
296,184,51478,1,4,0:0:0:0:
432,216,54050,6,0,P|288:272|240:256,1,210.000008010865,4|0,0:0|0:0,0:0:0:0:
144,216,55335,1,0,0:0:0:0:
104,112,55764,1,0,0:0:0:0:
208,72,56192,2,0,P|280:32|320:32,1,105.000004005432,0|4,0:0|0:0,0:0:0:0:
336,136,57050,1,0,0:0:0:0:
392,240,57478,5,0,0:0:0:0:
304,296,57907,2,0,P|248:336|112:304,1,210.000008010865
56,240,59192,1,4,0:0:0:0:
120,136,59621,5,0,0:0:0:0:
232,96,60050,1,0,0:0:0:0:
248,208,60478,2,0,P|248:264|376:312,1,210.000008010865
464,264,61764,1,4,0:0:0:0:
464,152,62192,2,0,B|440:56|440:56|344:112|328:64,1,210.000008010865
232,120,63478,5,0,0:0:0:0:
96,120,63907,1,0,0:0:0:0:
8,200,64335,2,0,P|104:272|200:232,1,210.000008010865,4|0,0:0|0:0,0:0:0:0:
288,272,65621,1,0,0:0:0:0:
384,328,66050,1,0,0:0:0:0:
448,240,66478,1,0,0:0:0:0:
376,144,66907,6,0,P|336:72|208:56,1,210.000008010865,4|0,0:0|0:0,0:0:0:0:
144,144,68192,1,0,0:0:0:0:
48,248,68621,5,0,0:0:0:0:
120,336,68835,1,0,0:0:0:0:
216,280,69050,1,0,0:0:0:0:
328,240,69478,2,0,P|424:256|472:152,1,210.000008010865,4|0,0:0|0:0,0:0:0:0:
424,80,70764,1,0,0:0:0:0:
312,128,71192,6,0,P|224:176|112:144,1,210.000008010865
120,48,72478,1,0,0:0:0:0:
240,48,72907,1,0,0:0:0:0:
360,48,73335,2,4,P|400:32|456:56,1,105.000004005432
464,160,74192,1,4,0:0:0:0:
256,192,74621,12,0,78050,0:0:0:0:
