osu file format v14

[General]
AudioFilename: audio.mp3
AudioLeadIn: 0
PreviewTime: 34335
Countdown: 0
SampleSet: None
StackLeniency: 0.7
Mode: 0
LetterboxInBreaks: 0
WidescreenStoryboard: 1

[Editor]
Bookmarks: 478,34335,53835,64335,78050
DistanceSpacing: 1.8
BeatDivisor: 4
GridSize: 8
TimelineZoom: 1.5

[Metadata]
Title:She is a witch
TitleUnicode:She is a witch
Artist:Kajiura Yuki
ArtistUnicode:Kajiura Yuki
Creator:simply_meh
Version:Hard
Source:Puella Magi Madoka Magica: The Movie OST
Tags:Kajiura Yuki , Wakana , Keiko , YURIKO KAIDA , Kaori ,
BeatmapID:1119277
BeatmapSetID:527589

[Difficulty]
HPDrainRate:5
CircleSize:3
OverallDifficulty:5
ApproachRate:5
SliderMultiplier:1.4
SliderTickRate:1

[Events]
//Background and Video events
0,0,"Have-A-Madoka-Halloween-mahou-shoujo-madoka-magica-26214725.jpg",0,0
//Break Periods
//Storyboard Layer 0 (Background)
//Storyboard Layer 1 (Fail)
//Storyboard Layer 2 (Pass)
//Storyboard Layer 3 (Foreground)
//Storyboard Sound Samples

[TimingPoints]
50,428.571428571429,4,1,0,100,1,0
478,-153.846153846153,4,2,0,100,0,0
34335,-100,4,2,0,30,0,1
51907,-100,4,2,0,5,0,0
53835,-100,4,2,0,30,0,0
74621,-100,4,2,0,5,0,0
78050,-100,4,2,0,5,0,0

[Colours]
Combo1 : 206,206,206
Combo2 : 255,128,0
Combo3 : 128,128,128
Combo4 : 213,0,0

[HitObjects]
88,208,34764,6,0,P|112:152|200:120,1,140,4|0,0:0|0:0,0:0:0:0:
232,104,35407,1,0,0:0:0:0:
368,96,35621,1,0,0:0:0:0:
368,216,35835,5,0,0:0:0:0:
320,256,36050,1,0,0:0:0:0:
272,224,36264,1,0,0:0:0:0:
256,336,36478,2,0,P|208:312|128:344,1,140
256,336,37335,5,0,0:0:0:0:
32,192,37764,1,0,0:0:0:0:
256,24,38192,1,0,0:0:0:0:
480,184,38621,1,0,0:0:0:0:
384,208,39050,2,0,P|320:176|248:200,1,140,4|0,0:0|0:0,0:0:0:0:
224,224,39692,5,0,0:0:0:0:
192,264,39907,1,0,0:0:0:0:
80,288,40121,2,0,P|72:240|96:208,2,70
112,336,40764,1,0,0:0:0:0:
264,288,41192,5,0,0:0:0:0:
400,208,41621,1,0,0:0:0:0:
440,56,42050,1,0,0:0:0:0:
320,96,42478,2,0,P|264:128|160:112,1,140
40,248,43335,6,0,P|96:232|200:272,1,140,4|0,0:0|0:0,0:0:0:0:
216,280,43978,1,0,0:0:0:0:
264,320,44192,1,0,0:0:0:0:
384,248,44621,2,0,L|424:192,2,35
432,184,45050,2,0,L|464:144,4,35
488,112,45907,5,0,0:0:0:0:
416,192,46335,1,0,0:0:0:0:
312,280,46764,1,0,0:0:0:0:
264,256,46871,1,0,0:0:0:0:
224,224,46978,1,0,0:0:0:0:
200,136,47192,5,0,0:0:0:0:
200,136,47300,1,0,0:0:0:0:
200,136,47407,1,0,0:0:0:0:
176,320,47621,1,4,0:0:0:0:
176,320,48050,1,0,0:0:0:0:
48,320,48478,6,0,P|88:224|64:184,1,140
56,152,49121,1,0,0:0:0:0:
144,72,49335,1,0,0:0:0:0:
248,120,49764,2,0,P|288:160|376:136,1,140
328,64,50621,6,0,P|408:32|456:64,1,140,0|4,0:0|0:0,0:0:0:0:
456,168,51478,1,4,0:0:0:0:
152,72,54050,6,0,P|120:136|160:216,1,140,4|0,0:0|0:0,0:0:0:0:
240,216,54907,1,0,0:0:0:0:
376,96,55335,1,0,0:0:0:0:
504,216,55764,1,0,0:0:0:0:
416,272,56192,2,0,P|376:312|272:296,1,140,0|4,0:0|0:0,0:0:0:0:
240,296,57050,6,0,P|200:272|96:304,1,140
64,312,57907,1,0,0:0:0:0:
64,200,58335,6,0,P|80:144|176:96,1,140
152,184,59192,1,4,0:0:0:0:
248,256,59621,5,0,0:0:0:0:
344,240,60050,1,0,0:0:0:0:
384,152,60478,1,0,0:0:0:0:
280,160,60907,2,0,P|288:112|384:64,1,140
184,80,61764,2,0,P|136:144|72:104,1,140,4|0,0:0|0:0,0:0:0:0:
88,232,62621,1,0,0:0:0:0:
176,296,63050,5,0,0:0:0:0:
280,312,63478,2,0,P|304:264|408:256,1,140
456,184,64335,1,4,0:0:0:0:
400,96,64764,1,0,0:0:0:0:
304,144,65192,2,0,P|176:200|160:192,1,140
144,200,65835,5,0,0:0:0:0:
80,208,66050,1,0,0:0:0:0:
88,336,66478,2,0,P|136:288|224:304,1,140,0|4,0:0|0:0,0:0:0:0:
256,312,67335,1,0,0:0:0:0:
360,264,67764,1,0,0:0:0:0:
400,160,68192,1,0,0:0:0:0:
288,160,68621,2,0,P|240:200|160:184,2,140,0|0|4,0:0|0:0|0:0,0:0:0:0:
368,64,69907,5,0,0:0:0:0:
400,176,70335,1,0,0:0:0:0:
328,256,70764,2,0,P|240:240|176:256,1,140
96,280,71621,1,0,0:0:0:0:
224,328,72050,2,0,P|248:272|208:192,1,140
40,192,72907,5,0,0:0:0:0:
256,32,73335,5,4,0:0:0:0:
464,200,73764,5,4,0:0:0:0:
256,360,74192,5,4,0:0:0:0:
256,192,74621,12,0,78050,0:0:0:0:
