osu file format v14

[General]
AudioFilename: audio.mp3
AudioLeadIn: 0
PreviewTime: 62656
Countdown: 0
SampleSet: Soft
StackLeniency: 0.6
Mode: 0
LetterboxInBreaks: 0
WidescreenStoryboard: 1

[Editor]
Bookmarks: 5108,33486,62656,91423,121012,153889,163752
DistanceSpacing: 1
BeatDivisor: 2
GridSize: 32
TimelineZoom: 2.400006

[Metadata]
Title:Holly Quintet
TitleUnicode:Holly Quintet
Artist:Kajiura Yuki
ArtistUnicode:梶浦 由記
Creator:Jennifer
Version:Normal
Source:劇場版 魔法少女まどか☆マギカ[新編]叛逆の物語
Tags:gekijouban mahou shoujo madoka*magica [shinpen] hangyaku no monogatari puella magi movie 3 the rebellion story instrumental anime Jennglebells Ascendance Lulu- Frostings Kibbleru Akitoshi Corinn -Laura- wajinshu collab
BeatmapID:2503314
BeatmapSetID:1201989

[Difficulty]
HPDrainRate:3
CircleSize:3.2
OverallDifficulty:2
ApproachRate:4.5
SliderMultiplier:1
SliderTickRate:1

[Events]
//Background and Video events
0,0,"Holy Quintet.jpg",0,0
//Break Periods
2,23964,32629
2,54436,61396
2,117924,119752
2,147513,149341
2,159431,161259
//Storyboard Layer 0 (Background)
//Storyboard Layer 1 (Fail)
//Storyboard Layer 2 (Pass)
//Storyboard Layer 3 (Foreground)
//Storyboard Layer 4 (Overlay)
//Storyboard Sound Samples

[TimingPoints]
5109,370.37037037037,3,2,1,40,1,0
17701,394.736842105263,4,2,1,40,1,0
18095,433.212996389892,4,2,1,40,1,0
18529,397.350993377483,4,2,1,40,1,0
18926,394.736842105263,4,2,1,30,1,0
19320,555.555555555555,4,2,1,20,1,0
33486,410.958904109589,4,2,1,60,1,0
33889,410.958904109589,4,2,1,60,1,0
33889,-90.9090909090909,4,2,1,60,0,0
76525,-90.9090909090909,4,2,1,65,0,0
83204,-90.9090909090909,4,2,1,50,0,0
104573,-90.9090909090909,4,2,1,60,0,0
114436,-90.9090909090909,4,2,1,50,0,0
121012,-100,4,2,1,50,0,0
147313,-100,4,2,1,45,0,0
153889,-90.9090909090909,4,2,1,70,0,1
159231,-90.9090909090909,4,2,1,60,0,1
159436,-90.9090909090909,4,2,1,60,0,0
162519,-90.9090909090909,4,2,1,70,0,1
163341,-90.9090909090909,4,2,1,70,0,0
163752,-90.9090909090909,4,2,1,60,0,0

[Colours]
Combo1 : 195,195,195
Combo2 : 245,202,120
Combo3 : 126,188,250
Combo4 : 245,88,112
Combo5 : 176,94,251
Combo6 : 252,167,173

[HitObjects]
24,329,5108,6,0,B|141:364|105:253|236:299,1,200,2|0,0:0|0:0,0:0:0:0:
302,329,6220,1,0,0:0:0:0:
392,287,6590,2,0,P|410:224|400:129,1,150,2|2,0:0|0:0,0:0:0:0:
360,115,7331,70,0,P|310:124|245:124,2,100,2|2|0,0:0|0:0|0:0,0:0:0:0:
439,43,8442,1,2,0:0:0:0:
348,0,8812,2,0,P|298:1|248:10,1,100,2|2,0:0|0:0,0:0:0:0:
176,79,9553,6,0,P|88:76|24:178,1,200,4|0,0:0|0:0,0:0:0:0:
71,247,10664,1,2,0:0:0:0:
147,311,11034,2,0,P|221:302|304:316,1,150,2|2,0:0|0:0,0:0:0:0:
324,272,11775,70,0,P|373:270|423:261,2,100,2|2|0,0:0|0:0|0:0,0:0:0:0:
261,193,12886,2,0,P|226:138|216:81,1,100,2|2,0:0|0:0,0:0:0:0:
279,25,13627,1,2,0:0:0:0:
373,57,13997,6,0,P|475:88|473:196,1,200,4|0,0:0|0:0,0:0:0:0:
436,255,15108,1,2,0:0:0:0:
340,225,15479,2,0,P|245:222|196:287,1,150,2|2,0:0|0:0,0:0:0:0:
175,293,16220,70,0,P|125:302|60:302,2,100,2|2|0,0:0|0:0|0:0,0:0:0:0:
263,339,17331,1,2,0:0:0:0:
336,280,17701,6,0,P|351:228|339:175,1,100,2|2,0:0|0:0,0:0:0:0:
252,145,18529,70,0,B|201:160|201:160|138:163,1,100,2|2,0:0|0:0,0:0:0:0:
69,137,19320,5,2,0:0:0:0:
256,192,19875,12,0,23764,0:0:0:0:
417,116,33889,22,0,B|362:111|362:111|302:84,1,110.000003356934,4|4,0:3|0:3,0:0:0:0:
245,158,34710,1,4,0:3:0:0:
153,97,35121,2,0,L|78:84,1,55.0000016784668,0|0,1:0|0:0,0:0:0:0:
59,49,35532,37,4,0:3:0:0:
37,156,35943,2,0,L|50:231,1,55.0000016784668,4|8,0:3|0:3,0:0:0:0:
84,250,36354,2,0,L|71:325,1,55.0000016784668,4|8,0:3|0:3,0:0:0:0:
107,348,36765,1,12,0:3:0:0:
200,289,37176,38,0,B|252:272|252:272|337:274,1,110.000003356934,4|4,0:0|0:3,0:0:0:0:
402,328,37998,1,4,0:3:0:0:
474,245,38409,2,0,L|481:181,1,55.0000016784668,4|0,0:3|1:0,0:0:0:0:
463,142,38820,37,4,0:3:0:0:
463,142,39025,1,8,0:3:0:0:
358,165,39436,1,8,0:3:0:0:
358,165,39642,2,0,L|219:157,1,110.000003356934,8|8,0:3|0:3,0:0:0:0:
192,253,40464,38,0,B|135:272|135:272|39:281,1,110.000003356934,4|4,0:0|0:3,0:0:0:0:
37,249,41080,1,0,1:0:0:0:
37,249,41286,2,0,L|28:97,1,110.000003356934,6|0,0:3|1:0,0:0:0:0:
77,109,41902,38,0,B|134:128|134:128|230:137,1,110.000003356934,2|10,0:3|0:3,0:0:0:0:
280,80,42724,2,0,B|337:61|337:61|386:56,1,110.000003356934,10|2,0:3|0:3,0:0:0:0:
427,93,43341,2,0,L|415:190,1,55.0000016784668,6|0,0:3|0:0,0:0:0:0:
371,172,43752,38,0,L|377:226,1,55.0000016784668,4|0,0:0|0:0,0:0:0:0:
420,260,44162,2,0,L|413:314,1,55.0000016784668,6|0,0:3|0:0,0:0:0:0:
371,351,44573,1,0,1:0:0:0:
272,307,44984,38,0,L|121:318,1,110.000003356934,6|4,0:3|0:3,0:0:0:0:
88,172,46012,1,8,0:3:0:0:
88,172,46217,2,0,L|70:68,2,55.0000016784668,6|10|4,0:3|0:3|0:3,0:0:0:0:
138,194,46834,1,4,0:3:0:0:
182,161,47039,38,0,L|291:153,1,110.000003356934,4|4,0:0|0:3,0:0:0:0:
338,182,47656,2,0,L|324:268,1,55.0000016784668,2|6,0:3|0:3,0:0:0:0:
414,305,48272,1,4,0:3:0:0:
321,364,48683,38,0,L|212:356,1,110.000003356934,4|4,0:3|0:3,0:0:0:0:
184,307,49299,2,0,L|114:308,2,55.0000016784668,10|6|0,0:3|0:3|0:0,0:0:0:0:
212,259,49916,2,0,L|220:204,1,55.0000016784668,6|6,0:3|0:3,0:0:0:0:
274,200,50327,38,0,L|289:89,1,110.000003356934,6|4,0:3|0:3,0:0:0:0:
340,67,50943,1,2,0:3:0:0:
340,67,51149,2,0,B|396:75|396:75|464:54,1,110.000003356934,0|4,1:0|0:3,0:0:0:0:
510,149,51971,38,0,L|496:286,1,110.000003356934,4|4,0:3|0:3,0:0:0:0:
460,297,52587,2,0,L|474:382,2,55.0000016784668,2|4|6,0:3|0:3|0:3,0:0:0:0:
409,273,53204,2,0,L|395:188,2,55.0000016784668,6|2|2,0:3|0:3|0:0,0:0:0:0:
309,314,62656,22,0,L|168:328,2,110.000003356934,0|0|4,1:0|1:0|0:0,0:0:0:0:
386,236,63889,1,4,0:3:0:0:
299,167,64299,2,0,P|242:192|185:196,1,110.000003356934,4|4,0:3|0:3,0:0:0:0:
85,187,65121,54,0,B|69:137|69:137|71:46,1,110.000003356934,4|4,0:3|0:3,0:0:0:0:
121,48,65738,2,0,P|178:73|235:77,1,110.000003356934,4|0,0:3|0:0,0:0:0:0:
277,59,66354,1,0,1:0:0:0:
312,163,66765,22,0,L|453:177,2,110.000003356934,4|4|4,0:3|0:3|0:3,0:0:0:0:
231,238,67998,1,4,0:3:0:0:
312,312,68409,54,0,L|421:322,1,110.000003356934,4|4,0:3|0:3,0:0:0:0:
470,223,69231,2,0,P|488:160|477:102,1,110.000003356934,4|0,0:3|1:0,0:0:0:0:
384,68,70053,22,0,L|275:78,1,110.000003356934,4|4,0:3|0:3,0:0:0:0:
191,150,70875,1,4,0:3:0:0:
108,77,71286,1,4,0:3:0:0:
40,163,71697,54,0,P|35:217|52:269,1,110.000003356934,4|4,0:3|0:3,0:0:0:0:
94,304,72313,2,0,B|144:288|144:288|235:290,1,110.000003356934,4|0,0:3|0:0,0:0:0:0:
239,329,72930,1,0,1:0:0:0:
290,231,73341,22,0,L|313:92,2,110.000003356934,4|4|4,0:3|0:3|0:3,0:0:0:0:
353,320,74573,1,0,1:0:0:0:
461,301,74984,54,0,L|484:162,1,110.000003356934,4|4,0:3|0:3,0:0:0:0:
428,168,75601,2,0,L|451:29,1,110.000003356934,4|0,0:3|0:0,0:0:0:0:
409,17,76217,1,0,1:0:0:0:
316,77,76628,22,0,P|252:111|181:80,1,110.000003356934,4|4,0:0|0:3,0:0:0:0:
121,160,77450,2,0,L|146:315,1,110.000003356934,4|0,0:3|1:0,0:0:0:0:
37,313,78272,54,0,L|12:158,1,110.000003356934,4|4,0:3|0:3,0:0:0:0:
55,162,78889,2,0,B|105:146|105:146|196:148,1,110.000003356934,4|0,0:3|1:0,0:0:0:0:
204,184,79505,1,0,1:0:0:0:
304,138,79916,22,0,L|327:-1,2,110.000003356934,4|4|4,0:3|0:3|0:3,0:0:0:0:
372,224,81149,1,0,1:0:0:0:
300,307,81560,54,0,L|73:296,1,220.000006713867,4|4,0:3|0:3,0:0:0:0:
30,197,82793,1,8,0:3:0:0:
256,192,83204,12,2,86491,0:0:0:0:
68,266,87313,22,0,L|206:249,1,110.000003356934,2|0,0:0|0:0,0:0:0:0:
274,303,88135,2,0,B|324:287|324:287|415:289,1,110.000003356934,2|0,0:0|0:0,0:0:0:0:
468,220,88957,54,0,P|486:157|475:99,1,110.000003356934,2|0,0:0|0:0,0:0:0:0:
392,47,89779,1,0,0:0:0:0:
180,267,91423,54,0,L|58:282,2,110.000003356934,4|4|4,0:0|0:3|0:3,0:0:0:0:
256,187,92656,1,4,0:3:0:0:
332,107,93067,22,0,L|454:122,2,110.000003356934,4|12|4,0:3|0:3|0:3,0:0:0:0:
256,187,94299,1,4,0:3:0:0:
180,267,94710,54,0,P|94:282|39:264,1,110.000003356934,2|12,0:2|0:3,0:0:0:0:
47,228,95327,2,0,L|37:103,1,110.000003356934,2|4,0:2|0:3,0:0:0:0:
76,78,95943,1,12,0:3:0:0:
210,173,96560,22,0,B|268:157|268:157|372:168,1,165.000005035401,2|2,0:2|0:2,0:0:0:0:
442,252,97587,1,4,0:3:0:0:
503,160,97998,54,0,L|475:42,1,110.000003356934,2|8,0:3|0:3,0:0:0:0:
368,40,98820,2,0,L|393:147,1,110.000003356934,2|12,0:2|0:3,0:0:0:0:
362,252,99642,22,0,P|276:267|221:249,1,110.000003356934,2|12,0:2|0:3,0:0:0:0:
180,181,100464,2,0,P|94:166|39:184,1,110.000003356934,8|12,0:3|0:3,0:0:0:0:
32,207,101080,53,4,0:3:0:0:
32,207,101286,2,0,L|57:314,1,110.000003356934,2|12,0:2|0:3,0:0:0:0:
164,340,102108,2,0,L|139:233,1,110.000003356934,2|4,0:2|0:3,0:0:0:0:
192,136,102930,21,12,0:3:0:0:
192,136,103135,2,0,P|278:151|333:133,1,110.000003356934
341,111,103752,1,12,0:3:0:0:
435,166,104162,2,0,L|425:245,1,55.0000016784668,12|0,0:3|0:0,0:0:0:0:
473,252,104573,54,0,P|467:320|437:372,1,110.000003356934,4|4,0:0|0:3,0:0:0:0:
397,363,105190,1,0,0:0:0:0:
397,363,105395,2,0,L|287:354,1,110.000003356934,4|4,0:3|0:3,0:0:0:0:
221,265,106217,22,0,L|111:274,2,110.000003356934,4|4|4,0:3|0:3|0:3,0:0:0:0:
282,172,107450,1,4,0:3:0:0:
209,89,107861,54,0,L|99:98,1,110.000003356934,4|4,0:3|0:3,0:0:0:0:
60,136,108478,1,8,0:3:0:0:
60,136,108683,2,0,P|39:215|56:279,1,110.000003356934,12|12,0:3|0:3,0:0:0:0:
95,271,109299,21,0,0:0:0:0:
95,271,109505,1,8,0:3:0:0:
185,210,109916,1,12,0:3:0:0:
256,300,110327,1,4,0:3:0:0:
256,300,110532,2,0,L|366:291,1,110.000003356934,0|0,0:0|1:0,0:0:0:0:
416,312,111149,54,0,P|471:240|401:141,1,220.000006713867,4|4,0:0|0:3,0:0:0:0:
321,75,112382,1,4,0:3:0:0:
286,176,112793,22,0,B|226:222|226:222|84:198,1,220.000006713867,8|4,0:3|0:3,0:0:0:0:
23,105,114025,1,4,0:3:0:0:
101,27,114436,53,4,0:0:0:0:
256,192,114847,12,0,117724,0:0:0:0:
256,187,121012,6,0,P|286:141|294:67,2,100,4|2|0,0:0|0:3|1:0,0:0:0:0:
165,228,122245,1,6,0:3:0:0:
239,296,122656,2,0,P|319:324|416:249,1,200,4|0,0:3|1:0,0:0:0:0:
499,218,123889,1,6,0:3:0:0:
429,147,124299,6,0,L|298:136,2,100,4|2|0,0:3|0:3|1:0,0:0:0:0:
499,218,125532,1,2,0:3:0:0:
432,292,125943,1,4,0:3:0:0:
332,282,126354,2,0,L|247:273,1,50,6|4,0:3|0:3,0:0:0:0:
239,303,126765,2,0,P|170:322|106:288,1,100,0|6,1:0|0:3,0:0:0:0:
62,257,127587,70,0,L|46:113,2,100,4|2|0,0:0|0:3|1:0,0:0:0:0:
144,315,128820,1,2,0:3:0:0:
207,237,129231,2,0,L|191:93,1,100,4|2,0:3|0:3,0:0:0:0:
270,70,130053,2,0,P|326:55|387:63,1,100,0|2,1:0|0:3,0:0:0:0:
449,117,130875,5,4,0:3:0:0:
378,188,131286,1,2,0:3:0:0:
436,269,131697,2,0,L|414:376,1,100,0|2,1:0|0:3,0:0:0:0:
320,334,132519,2,0,P|244:274|132:286,1,200,4|0,0:3|1:0,0:0:0:0:
59,331,133752,1,2,0:3:0:0:
64,231,134162,70,0,L|45:120,2,100,4|2|0,0:0|0:3|1:0,0:0:0:0:
59,331,135395,1,2,0:3:0:0:
145,279,135806,2,0,P|205:203|193:91,1,200,4|0,0:3|1:0,0:0:0:0:
112,55,137039,1,2,0:3:0:0:
198,5,137450,6,0,L|307:13,1,100,4|2,0:3|0:3,0:0:0:0:
337,104,138272,2,0,L|436:96,1,100,0|2,1:0|0:3,0:0:0:0:
490,181,139094,1,4,0:3:0:0:
406,236,139505,2,0,L|423:321,1,50,6|4,0:3|0:3,0:0:0:0:
376,316,139916,2,0,L|276:308,1,100,0|2,1:0|0:3,0:0:0:0:
193,251,140738,70,0,P|126:284|63:283,2,100,4|2|0,0:0|0:3|1:0,0:0:0:0:
239,162,141971,1,2,0:3:0:0:
180,80,142382,2,0,P|113:47|50:48,1,100,4|2,0:3|0:3,0:0:0:0:
48,73,142998,1,0,0:0:0:0:
48,73,143204,2,0,L|56:173,1,100,0|4,1:0|0:3,0:0:0:0:
141,224,144025,6,0,L|149:324,2,100,4|2|0,0:0|0:3|1:0,0:0:0:0:
55,172,145258,1,2,0:3:0:0:
128,103,145669,2,0,L|228:95,1,100,4|2,0:3|0:3,0:0:0:0:
262,130,146286,1,4,0:3:0:0:
262,130,146491,2,0,P|329:163|392:162,1,100,0|6,1:0|0:3,0:0:0:0:
437,111,147313,69,4,0:0:0:0:
256,192,150601,12,4,153067,0:3:0:0:
125,238,153889,22,0,L|44:228,2,55.0000016784668,4|0|0,0:0|1:0|1:0,0:0:0:0:
152,286,154505,2,0,L|308:309,1,110.000003356934,4|4,0:3|0:3,0:0:0:0:
351,364,155327,5,4,0:0:0:0:
408,270,155738,1,4,0:3:0:0:
359,171,156149,2,0,L|250:154,1,110.000003356934,4|0,0:3|1:0,0:0:0:0:
196,143,156765,1,0,1:0:0:0:
90,174,157176,6,0,L|19:161,2,55.0000016784668,4|0|0,0:0|1:0|1:0,0:0:0:0:
96,229,157793,2,0,P|159:235|218:276,1,110.000003356934,4|4,0:3|0:3,0:0:0:0:
295,310,158615,6,0,B|352:318|352:318|404:293,1,110.000003356934,4|4,0:0|0:0,0:0:0:0:
444,264,159231,1,4,0:0:0:0:
256,187,162519,5,2,0:0:0:0:
256,187,162930,2,0,L|246:91,1,55.0000016784668,4|4,3:2|3:2,0:0:0:0:
286,90,163341,1,4,3:2:0:0:
