osu file format v14

[General]
AudioFilename: audio.mp3
AudioLeadIn: 0
PreviewTime: 62656
Countdown: 0
SampleSet: Soft
StackLeniency: 0.6
Mode: 0
LetterboxInBreaks: 0
WidescreenStoryboard: 1

[Editor]
Bookmarks: 5108,33486,62656,91423,121012,147313,150601,163752
DistanceSpacing: 2.3
BeatDivisor: 4
GridSize: 16
TimelineZoom: 2.400006

[Metadata]
Title:Holly Quintet
TitleUnicode:Holly Quintet
Artist:Kajiura Yuki
ArtistUnicode:梶浦 由記
Creator:Jennifer
Version:Holy Quintet
Source:劇場版 魔法少女まどか☆マギカ[新編]叛逆の物語
Tags:gekijouban mahou shoujo madoka*magica [shinpen] hangyaku no monogatari puella magi movie 3 the rebellion story instrumental anime Jennglebells Ascendance Lulu- Frostings Kibbleru Akitoshi Corinn -Laura- wajinshu collab
BeatmapID:2503313
BeatmapSetID:1201989

[Difficulty]
HPDrainRate:5
CircleSize:4
OverallDifficulty:7.6
ApproachRate:8.7
SliderMultiplier:1.4
SliderTickRate:1

[Events]
//Background and Video events
0,0,"Holy Quintet.jpg",0,0
//Break Periods
2,24520,32841
2,86691,90778
2,117923,120367
2,159431,161874
//Storyboard Layer 0 (Background)
//Storyboard Layer 1 (Fail)
//Storyboard Layer 2 (Pass)
//Storyboard Layer 3 (Foreground)
//Storyboard Layer 4 (Overlay)
//Storyboard Sound Samples

[TimingPoints]
5109,370.37037037037,3,2,1,40,1,0
17701,394.736842105263,4,2,1,40,1,0
18095,433.212996389892,4,2,1,40,1,0
18529,397.350993377483,4,2,1,35,1,0
18926,394.736842105263,4,2,1,30,1,0
19320,555.555555555555,4,2,1,20,1,0
19320,-166.666666666667,4,2,1,20,0,0
33486,410.958904109589,4,2,1,60,1,0
33486,-66.6666666666667,4,2,1,60,0,0
33889,410.958904109589,4,2,1,60,1,0
53615,-222.222222222222,4,2,1,60,0,0
59984,-100,4,2,1,40,0,0
63067,-90.9090909090909,4,2,1,60,0,0
63478,-83.3333333333333,4,2,1,60,0,0
76525,-83.3333333333333,4,2,1,65,0,0
76628,-74.0740740740741,4,2,1,65,0,0
77245,-83.3333333333333,4,2,1,65,0,0
83204,-125,4,2,1,50,0,0
91423,-83.3333333333333,4,2,1,50,0,0
104573,-76.9230769230769,4,2,1,60,0,0
114436,-125,4,2,1,50,0,0
121012,-100,4,2,1,50,0,0
147313,-100,4,2,1,45,0,0
153889,-76.9230769230769,4,2,1,70,0,1
155635,-76.9230769230769,4,2,1,60,0,1
155738,-76.9230769230769,4,2,1,70,0,1
159231,-76.9230769230769,4,2,1,60,0,0
162519,-76.9230769230769,4,2,1,70,0,1
163341,-76.9230769230769,4,2,1,70,0,0
163752,-76.9230769230769,4,2,1,60,0,0

[Colours]
Combo1 : 195,195,195
Combo2 : 245,202,120
Combo3 : 126,188,250
Combo4 : 245,88,112
Combo5 : 176,94,251
Combo6 : 252,167,173

[HitObjects]
86,214,5108,6,0,P|123:267|198:283,1,140,2|0,0:0|0:0,0:0:0:0:
260,205,5849,1,0,0:0:0:0:
344,265,6220,2,0,P|366:323|374:374,1,105
442,260,6590,2,0,P|455:212|468:185,1,70,2|2,0:0|0:0,0:0:0:0:
350,113,6960,2,0,P|363:145|371:179,1,70,2|2,0:0|0:0,0:0:0:0:
409,42,7331,69,2,0:0:0:0:
272,127,7701,2,0,P|228:155|171:150,1,105,2|0,0:0|0:0,0:0:0:0:
103,89,8071,2,0,P|82:48|76:13,1,70
176,152,8442,6,0,P|167:185|149:216,1,70,2|0,0:0|0:0,0:0:0:0:
89,283,8812,1,2,0:0:0:0:
58,198,8997,1,2,0:0:0:0:
63,361,9183,2,0,P|114:331|175:331,1,105,2|0,0:0|0:0,0:0:0:0:
257,313,9553,70,0,P|301:352|390:342,1,140,4|0,0:0|0:0,0:0:0:0:
455,295,10294,1,0,0:0:0:0:
386,230,10664,2,0,P|366:182|365:124,1,105,2|0,0:0|0:0,0:0:0:0:
412,52,11034,2,0,P|464:31|485:30,1,70,2|2,0:0|0:0,0:0:0:0:
364,129,11405,2,0,P|329:122|298:106,1,70,2|2,0:0|0:0,0:0:0:0:
183,46,11775,6,0,P|214:94|219:166,1,105,2|0,0:0|0:0,0:0:0:0:
215,232,12146,2,0,P|174:262|142:268,1,70,2|0,0:0|0:0,0:0:0:0:
85,140,12516,2,0,P|117:151|143:174,1,70
67,303,12886,70,0,L|77:205,1,70,2|0,0:0|0:0,0:0:0:0:
3,188,13257,1,2,0:0:0:0:
156,266,13442,1,2,0:0:0:0:
216,117,13627,2,0,P|275:78|330:79,1,105,2|0,0:0|0:0,0:0:0:0:
386,123,13997,6,0,P|396:158|404:201,1,70,4|0,0:0|0:0,0:0:0:0:
297,306,14368,2,0,P|303:271|313:238,1,70
216,117,14738,2,0,P|226:152|234:195,1,70
182,249,15108,69,2,0:0:0:0:
301,139,15294,1,0,0:0:0:0:
163,52,15479,2,0,P|122:37|78:35,1,70,2|2,0:0|0:0,0:0:0:0:
117,136,15849,2,0,P|77:154|44:184,1,70,2|2,0:0|0:0,0:0:0:0:
21,259,16220,6,0,P|54:310|67:365,1,105,2|0,0:0|0:0,0:0:0:0:
138,272,16590,2,0,P|170:251|226:241,1,70,2|0,0:0|0:0,0:0:0:0:
266,313,16960,1,0,0:0:0:0:
216,157,17146,1,0,0:0:0:0:
288,213,17331,2,0,P|320:234|376:244,1,70,2|0,0:0|0:0,0:0:0:0:
485,126,17701,70,0,P|438:150|419:175,1,70,2|0,0:0|0:0,0:0:0:0:
482,314,18095,6,0,P|458:267|433:248,1,70,2|0,0:0|0:0,0:0:0:0:
341,157,18529,69,2,0:0:0:0:
364,71,18926,5,2,0:0:0:0:
270,93,19320,70,0,B|187:106|194:38|117:39|117:39|178:312|178:312|127:406|-38:363|55:207|168:278,1,755.999976928712,2|0,0:0|0:0,0:0:0:0:
256,192,33486,38,2,L|249:164,6,26.2500010013581
352,252,33889,2,0,L|377:101,2,140,4|4|4,0:3|0:3|0:3,0:0:0:0:
432,316,34916,1,0,0:0:0:0:
256,192,35121,2,0,P|201:212|161:212,1,70,0|0,1:0|0:0,0:0:0:0:
112,160,35532,37,4,0:3:0:0:
10,264,35738,1,0,0:0:0:0:
152,300,35943,1,4,0:3:0:0:
316,168,36149,2,0,P|370:188|410:188,1,70,8|4,0:3|0:3,0:0:0:0:
456,128,36560,1,8,0:3:0:0:
192,244,36765,2,0,P|137:264|97:264,1,70,12|0,0:3|0:0,0:0:0:0:
4,104,37176,38,0,P|69:149|144:152,1,140,4|4,0:0|0:3,0:0:0:0:
196,76,37793,1,0,0:0:0:0:
143,333,37998,2,0,P|127:270|119:247,1,70,4|0,0:3|0:0,0:0:0:0:
36,216,38409,1,4,0:3:0:0:
240,360,38615,1,0,1:0:0:0:
284,256,38820,37,4,0:3:0:0:
352,346,39025,1,8,0:3:0:0:
164,276,39231,1,8,0:3:0:0:
146,279,39333,1,8,0:3:0:0:
129,282,39436,1,8,0:3:0:0:
240,352,39642,1,8,0:3:0:0:
24,256,39847,2,0,L|35:324,1,70,0|8,0:0|0:3,0:0:0:0:
80,160,40258,1,0,0:0:0:0:
256,192,40464,37,4,0:0:0:0:
432,224,40669,1,2,0:3:0:0:
156,228,40875,37,4,0:3:0:0:
356,156,41080,1,0,1:0:0:0:
244,96,41286,37,6,0:3:0:0:
268,288,41491,1,6,0:3:0:0:
256,192,41697,37,0,1:0:0:0:
332,136,41902,2,0,B|400:115|400:156|469:136,1,140,2|10,0:3|0:3,0:0:0:0:
344,232,42519,1,4,0:3:0:0:
244,96,42724,2,0,P|187:64|96:78,1,140,10|2,0:3|0:3,0:0:0:0:
240,196,43341,2,0,P|251:251|250:287,1,70,6|0,0:3|0:0,0:0:0:0:
8,220,43752,38,0,P|36:164|52:148,1,70,4|0,0:0|0:0,0:0:0:0:
148,120,44162,1,6,0:3:0:0:
124,308,44368,1,0,0:0:0:0:
240,244,44573,2,0,P|300:264|328:264,1,70,0|2,1:0|0:3,0:0:0:0:
409,96,44984,2,0,B|271:32|284:183|146:119,1,280,6|4,0:3|0:3,0:0:0:0:
116,28,46012,1,8,0:3:0:0:
216,300,46217,2,0,P|226:261|228:224,1,70,6|10,0:3|0:3,0:0:0:0:
12,140,46628,2,0,P|1:178|0:216,1,70,4|4,0:3|0:3,0:0:0:0:
88,364,47039,38,0,P|108:244|108:204,1,140,4|4,0:0|0:3,0:0:0:0:
152,128,47656,1,2,0:3:0:0:
152,128,47758,1,0,0:0:0:0:
152,128,47861,2,0,P|64:128|16:84,1,140,6|4,0:3|0:3,0:0:0:0:
164,28,48478,1,8,0:3:0:0:
240,88,48683,2,0,P|248:144|248:176,1,70,4|0,0:3|1:0,0:0:0:0:
164,28,49094,1,4,0:3:0:0:
336,188,49299,1,10,0:3:0:0:
344,88,49505,2,0,P|408:108|432:108,1,70,6|0,0:3|0:0,0:0:0:0:
172,144,49916,2,0,P|108:164|84:164,1,70,6|6,0:3|0:3,0:0:0:0:
252,331,50327,38,0,L|256:192,1,140,6|4,0:3|0:3,0:0:0:0:
348,144,50943,1,2,0:3:0:0:
348,144,51046,1,2,0:3:0:0:
348,144,51149,2,0,L|356:232,1,70,0|0,1:0|0:0,0:0:0:0:
184,108,51560,2,0,L|146:188,1,70,4|0,0:3|1:0,0:0:0:0:
248,232,51971,2,0,L|232:319,1,70,4|8,0:3|0:3,0:0:0:0:
68,120,52382,2,0,L|-4:170,1,70,4|2,0:3|0:3,0:0:0:0:
177,135,52793,37,4,0:3:0:0:
199,270,52998,1,6,0:3:0:0:
312,113,53204,1,6,0:3:0:0:
334,248,53409,1,2,0:3:0:0:
234,34,53615,38,0,B|201:134|201:134|100:164|100:164|185:226|185:226|181:331|181:331|267:271|267:271|366:305|366:305|334:205|334:205|398:122|398:122|293:121,1,945,2|0,0:0|0:0,0:0:0:0:
260,196,59984,37,2,0:0:0:0:
260,196,60087,1,2,0:0:0:0:
260,196,60190,1,2,0:0:0:0:
328,272,60395,1,2,0:0:0:0:
184,112,60601,2,2,L|108:92,1,70,2|0,0:0|0:0,0:0:0:0:
328,112,61012,2,2,L|404:92,1,70,2|0,0:0|0:0,0:0:0:0:
184,272,61423,2,2,L|108:292,1,70,2|0,0:0|0:0,0:0:0:0:
328,272,61834,2,0,L|404:292,1,70,2|2,0:0|0:0,0:0:0:0:
256,192,62245,37,0,0:0:0:0:
346,103,62656,70,0,L|367:199,1,70,0|0,1:0|0:0,0:0:0:0:
196,220,62964,1,0,1:0:0:0:
183,234,63067,54,0,L|170:321,1,77.0000023498536,0|0,1:0|0:0,0:0:0:0:
399,281,63375,1,0,0:0:0:0:
415,268,63478,22,0,P|385:218|276:200,1,167.999994873047,4|4,0:0|0:3,0:0:0:0:
129,249,64094,1,0,0:0:0:0:
43,232,64299,2,0,P|32:191|20:151,1,83.9999974365235,4|0,0:3|0:0,0:0:0:0:
187,189,64710,2,0,P|156:218|128:249,1,83.9999974365235,4|0,0:3|0:0,0:0:0:0:
5,63,65121,54,0,B|102:63|63:103|164:105,1,167.999994873047,4|4,0:3|0:3,0:0:0:0:
371,104,65738,2,0,P|324:64|287:56,1,83.9999974365235,0|4,0:0|0:3,0:0:0:0:
193,180,66149,1,0,0:0:0:0:
299,249,66354,2,0,P|305:208|318:159,1,83.9999974365235,0|0,1:0|0:0,0:0:0:0:
489,228,66765,22,0,P|469:280|364:307,1,167.999994873047,4|4,0:3|0:3,0:0:0:0:
238,332,67382,1,0,0:0:0:0:
179,272,67587,2,0,L|166:185,1,83.9999974365235,4|0,0:3|0:0,0:0:0:0:
340,155,67998,2,0,L|327:238,1,83.9999974365235,4|0,0:3|0:0,0:0:0:0:
96,251,68409,54,0,B|159:239|159:239|194:210|194:210|265:199,1,167.999994873047,4|4,0:3|0:3,0:0:0:0:
417,126,69025,1,0,0:0:0:0:
346,228,69231,1,4,0:3:0:0:
328,94,69436,1,0,0:0:0:0:
433,213,69642,2,0,P|451:252|475:297,1,83.9999974365235,0|0,1:0|0:0,0:0:0:0:
143,251,70053,22,0,P|227:231|276:164,2,167.999994873047,4|4|4,0:3|0:3|0:3,0:0:0:0:
83,195,71080,1,0,0:0:0:0:
94,74,71286,2,0,P|127:100|149:157,1,83.9999974365235,4|0,0:3|0:0,0:0:0:0:
110,333,71697,54,0,L|193:357,1,83.9999974365235,4|0,0:3|0:0,0:0:0:0:
27,376,72108,1,4,0:3:0:0:
38,255,72313,2,0,B|98:245|98:245|133:222|133:222|201:213,1,167.999994873047
278,273,72930,2,0,P|316:239|333:181,1,83.9999974365235,0|0,1:0|0:0,0:0:0:0:
151,72,73341,22,0,P|143:154|199:214,1,167.999994873047,4|4,0:3|0:3,0:0:0:0:
283,141,73957,2,0,B|377:109|357:158|461:126,1,167.999994873047
336,333,74573,1,0,1:0:0:0:
384,231,74779,1,0,0:0:0:0:
505,336,74984,54,0,L|415:303,1,83.9999974365235,4|0,0:3|0:0,0:0:0:0:
236,269,75395,1,4,0:3:0:0:
187,341,75601,2,0,P|128:323|108:205,1,167.999994873047
384,66,76217,2,0,B|398:108|398:108|387:155,1,83.9999974365235,0|0,1:0|0:0,0:0:0:0:
321,302,76628,22,0,L|297:114,1,189.000000720978,4|4,0:0|0:3,0:0:0:0:
167,116,77245,1,0,0:0:0:0:
215,190,77450,2,0,L|206:273,1,83.9999974365235,4|0,0:3|0:0,0:0:0:0:
54,350,77861,2,0,L|45:266,1,83.9999974365235,0|0,1:0|0:0,0:0:0:0:
20,191,78169,1,2,0:0:0:0:
8,173,78272,54,0,L|105:191,1,83.9999974365235,4|0,0:3|0:0,0:0:0:0:
192,147,78683,1,4,0:3:0:0:
54,350,78889,2,0,P|93:299|218:289,1,167.999994873047,4|0,0:3|1:0,0:0:0:0:
358,244,79505,2,0,P|383:293|385:354,1,83.9999974365235,0|0,1:0|0:0,0:0:0:0:
287,371,79916,22,0,L|262:175,1,167.999994873047,4|4,0:3|0:3,0:0:0:0:
310,20,80532,1,0,0:0:0:0:
371,85,80738,2,0,P|353:123|341:163,1,83.9999974365235,4|0,0:3|0:0,0:0:0:0:
227,33,81149,2,0,P|268:29|309:19,1,83.9999974365235,0|0,1:0|0:0,0:0:0:0:
257,194,81560,54,0,P|221:134|110:113,1,167.999994873047,4|0,0:3|1:0,0:0:0:0:
45,194,82176,1,0,1:0:0:0:
37,213,82279,1,0,1:0:0:0:
29,232,82382,2,0,L|57:341,1,83.9999974365235,4|0,0:3|0:0,0:0:0:0:
128,357,82690,2,0,L|139:294,1,41.9999987182618,0|8,0:0|0:3,0:0:0:0:
223,311,82895,1,8,0:3:0:0:
228,331,82998,1,8,0:3:0:0:
386,329,83204,22,0,B|369:210|273:229|273:229|311:261|389:258|389:156|478:169|478:169|435:232|298:197|217:82|269:-13|450:-10|451:107|361:170|346:88,1,840,4|0,0:0|0:0,0:0:0:0:
465,275,86491,1,0,0:0:0:0:
54,82,91423,22,0,B|34:118|34:118|40:159,1,83.9999974365235,4|0,0:0|0:0,0:0:0:0:
67,187,91731,1,0,0:0:0:0:
67,187,91834,1,4,0:3:0:0:
303,111,92039,2,0,B|215:93|236:169|149:152,1,167.999994873047,2|0,0:2|0:0,0:0:0:0:
128,131,92553,1,4,0:3:0:0:
128,131,92656,2,0,L|142:48,1,83.9999974365235,4|2,0:3|0:2,0:0:0:0:
382,73,93067,22,0,P|394:111|382:150,1,83.9999974365235,4|0,0:3|0:0,0:0:0:0:
357,175,93375,1,0,0:0:0:0:
357,175,93478,1,12,0:3:0:0:
295,331,93683,2,0,B|368:291|368:291|451:303,1,167.999994873047,2|4,0:2|0:3,0:0:0:0:
476,279,94197,1,4,0:3:0:0:
476,279,94300,2,0,L|461:196,1,83.9999974365235,4|2,0:3|0:2,0:0:0:0:
212,279,94710,54,0,B|192:315|192:315|198:356,1,83.9999974365235,2|0,0:2|0:0,0:0:0:0:
225,384,95018,1,4,0:3:0:0:
225,384,95121,1,12,0:3:0:0:
357,175,95327,2,0,P|278:201|197:188,1,167.999994873047,2|4,0:2|0:3,0:0:0:0:
175,168,95841,1,4,0:3:0:0:
175,168,95944,2,0,L|92:182,1,83.9999974365235,12|2,0:3|0:2,0:0:0:0:
0,322,96354,21,4,0:3:0:0:
225,384,96560,2,0,P|237:345|225:306,1,83.9999974365235,2|4,0:2|0:3,0:0:0:0:
200,282,96868,1,4,0:3:0:0:
200,282,96971,1,4,0:3:0:0:
40,113,97176,2,0,B|10:168|10:168|19:229,2,125.999996154785,2|4|8,0:2|0:3|0:3,0:0:0:0:
240,16,97998,54,0,L|225:98,1,83.9999974365235,2|0,0:3|0:0,0:0:0:0:
222,135,98306,1,0,0:0:0:0:
222,135,98409,1,8,0:3:0:0:
306,219,98615,1,0,0:0:0:0:
306,219,98718,1,0,0:0:0:0:
306,219,98820,2,0,B|393:201|372:277|459:260,1,167.999994873047,2|12,0:2|0:3,0:0:0:0:
448,151,99436,1,4,0:3:0:0:
235,347,99642,22,0,L|220:265,1,83.9999974365235,2|0,0:2|0:0,0:0:0:0:
217,228,99950,1,0,0:0:0:0:
217,228,100053,1,12,0:3:0:0:
53,137,100259,1,0,0:0:0:0:
53,137,100362,1,0,0:0:0:0:
53,137,100464,2,0,P|92:150|132:143,1,83.9999974365235,8|4,0:3|0:3,0:0:0:0:
320,22,100875,2,0,P|280:9|240:15,1,83.9999974365235,12|4,0:3|0:3,0:0:0:0:
94,305,101286,54,0,B|111:204|111:204|84:165|84:165|101:65,1,251.999992309571,2|4,0:2|0:3,0:0:0:0:
126,40,102005,1,4,0:3:0:0:
126,40,102108,2,0,P|167:33|206:46,1,83.9999974365235,2|0,0:2|0:0,0:0:0:0:
325,165,102519,1,4,0:3:0:0:
320,22,102724,1,2,0:2:0:0:
193,242,102930,22,0,P|232:230|271:242,1,83.9999974365235,12|0,0:3|0:0,0:0:0:0:
295,267,103238,1,2,0:0:0:0:
295,267,103341,1,12,0:3:0:0:
451,162,103546,1,0,0:0:0:0:
395,338,103752,2,0,L|374:213,2,125.999996154785,12|4|0,0:3|0:3|0:0,0:0:0:0:
372,120,104573,54,0,P|327:112|283:120,1,90.9999958343508,4|0,0:0|0:0,0:0:0:0:
228,320,104984,2,0,P|256:285|272:243,1,90.9999958343508,4|0,0:3|0:0,0:0:0:0:
0,141,105395,2,0,P|82:177|172:171,1,181.999991668702,4|4,0:3|0:3,0:0:0:0:
180,49,106012,1,12,0:3:0:0:
90,277,106217,22,0,L|0:284,1,90.9999958343508,4|0,0:3|0:0,0:0:0:0:
272,242,106628,2,0,L|362:249,1,90.9999958343508,4|0,0:3|0:0,0:0:0:0:
392,279,106936,1,0,0:0:0:0:
392,279,107039,2,0,P|385:189|422:106,1,181.999991668702,4|4,0:3|0:3,0:0:0:0:
512,0,107656,1,4,0:3:0:0:
225,110,107861,54,0,P|284:142|352:144,2,136.499993751526,4|0|8,0:3|0:0|0:3,0:0:0:0:
512,316,108683,2,0,P|441:319|385:349,2,136.499993751526,12|4|0,0:3|0:3|0:0,0:0:0:0:
231,384,109505,22,0,B|224:313|271:326|265:256,1,136.499993751526,8|0,0:3|0:0,0:0:0:0:
240,229,109916,1,12,0:3:0:0:
55,140,110121,2,0,B|145:153|145:153|225:110,1,181.999991668702
125,35,110738,1,4,0:3:0:0:
240,229,110943,1,0,1:0:0:0:
78,384,111149,54,0,P|84:316|122:259,2,136.499993751526,4|0|0,0:0|0:0|0:0,0:0:0:0:
240,318,111971,2,0,P|249:273|240:228,1,90.9999958343508,4|0,0:3|0:0,0:0:0:0:
0,112,112382,2,0,P|-8:157|0:201,1,90.9999958343508,4|12,0:3|0:3,0:0:0:0:
214,141,112690,1,0,0:0:0:0:
214,141,112793,22,0,B|157:102|157:102|89:107,2,136.499993751526,8|4|8,0:3|0:3|0:3,0:0:0:0:
378,234,113615,2,0,B|446:239|446:239|502:200,2,136.499993751526,4|8|4,0:3|0:3|0:3,0:0:0:0:
370,383,114436,54,0,B|502:201|502:201|403:0|403:0|271:181|271:181|350:343|350:343|377:306,1,896,4|0,0:0|0:0,0:0:0:0:
220,169,121012,6,0,P|278:193|356:184,2,140,4|2|0,0:0|0:3|1:0,0:0:0:0:
171,98,122039,1,0,0:0:0:0:
304,282,122245,2,0,P|337:289|379:289,1,70,6|0,0:3|0:0,0:0:0:0:
440,234,122656,5,4,0:3:0:0:
225,331,122861,1,0,0:0:0:0:
169,253,123067,2,0,P|134:260|99:260,1,70,6|4,0:3|0:3,0:0:0:0:
29,106,123478,2,0,P|78:144|156:155,1,140,0|6,1:0|0:3,0:0:0:0:
224,93,124094,1,0,0:0:0:0:
169,253,124299,70,0,L|149:342,1,70,4|0,0:3|0:0,0:0:0:0:
322,208,124710,2,0,L|342:297,1,70,2|0,0:3|0:0,0:0:0:0:
120,144,125121,2,0,L|78:225,1,70,0|0,1:0|0:0,0:0:0:0:
349,69,125532,2,0,L|410:136,1,70,2|0,0:3|0:0,0:0:0:0:
460,229,125943,6,0,L|316:207,1,140,4|6,0:3|0:3,0:0:0:0:
223,255,126560,1,4,0:3:0:0:
281,128,126765,2,0,P|268:95|258:56,1,70,0|0,1:0|0:0,0:0:0:0:
387,302,127176,2,0,P|377:335|365:368,1,70,6|0,0:3|0:0,0:0:0:0:
84,276,127587,70,0,L|228:254,1,140,4|2,0:0|0:3,0:0:0:0:
297,194,128204,1,0,0:0:0:0:
448,345,128409,2,0,P|399:299|304:305,1,140,0|2,1:0|0:3,0:0:0:0:
251,362,129025,1,0,0:0:0:0:
202,161,129231,6,0,P|234:65|249:7,2,140,4|2|0,0:3|0:3|1:0,0:0:0:0:
107,195,130258,1,0,0:0:0:0:
300,134,130464,2,0,P|350:118|386:117,1,70,2|0,0:3|0:0,0:0:0:0:
219,281,130875,70,0,P|184:275|151:263,1,70,4|0,0:3|0:0,0:0:0:0:
367,116,131286,2,0,L|387:27,1,70,2|0,0:3|0:0,0:0:0:0:
214,161,131697,2,0,L|194:72,1,70,0|0,1:0|0:0,0:0:0:0:
416,225,132108,2,0,L|458:144,1,70,2|0,0:3|0:0,0:0:0:0:
151,263,132519,6,0,L|90:196,1,70,4|0,0:3|0:0,0:0:0:0:
26,166,132930,1,6,0:3:0:0:
237,249,133135,1,4,0:3:0:0:
94,330,133341,2,0,P|60:334|26:342,1,70,0|0,1:0|0:0,0:0:0:0:
237,249,133752,2,0,P|271:253|305:261,1,70,2|0,0:3|0:0,0:0:0:0:
483,92,134162,70,0,P|434:130|356:141,1,140,4|2,0:0|0:3,0:0:0:0:
277,78,134779,1,0,0:0:0:0:
166,189,134984,2,0,L|155:259,1,70,0|0,1:0|0:0,0:0:0:0:
354,285,135395,2,0,L|343:215,1,70,2|0,0:3|0:0,0:0:0:0:
93,108,135806,6,0,L|237:86,1,140,4|6,0:3|0:3,0:0:0:0:
304,16,136423,1,4,0:3:0:0:
481,236,136628,2,0,L|337:214,1,140,0|2,1:0|0:3,0:0:0:0:
255,299,137245,1,0,0:0:0:0:
413,126,137450,69,4,0:3:0:0:
413,126,137861,2,0,L|435:28,1,70,2|0,0:3|0:0,0:0:0:0:
245,175,138272,2,0,L|223:77,1,70,0|0,1:0|0:0,0:0:0:0:
467,245,138683,2,0,L|513:156,1,70,2|0,0:3|0:0,0:0:0:0:
175,287,139094,6,0,L|108:214,1,70,4|0,0:3|0:0,0:0:0:0:
145,154,139505,1,6,0:3:0:0:
160,376,139710,1,4,0:3:0:0:
387,343,139916,2,0,P|341:293|257:286,1,140,0|2,1:0|0:3,0:0:0:0:
160,376,140532,1,0,0:0:0:0:
312,193,140738,70,0,P|344:97|359:39,2,140,4|2|0,0:0|0:3|1:0,0:0:0:0:
211,233,141765,1,0,0:0:0:0:
416,180,141971,2,0,P|469:169|507:171,1,70,2|0,0:3|0:0,0:0:0:0:
224,131,142382,6,0,P|156:140|92:69,1,140,4|2,0:3|0:3,0:0:0:0:
59,215,142998,1,0,0:0:0:0:
198,287,143204,2,0,L|183:219,1,70,0|0,1:0|0:0,0:0:0:0:
329,265,143615,2,0,L|314:333,1,70,4|0,0:3|0:0,0:0:0:0:
418,189,144025,70,0,L|274:167,1,140,4|2,0:0|0:3,0:0:0:0:
205,96,144642,1,0,0:0:0:0:
86,329,144847,2,0,P|132:279|216:272,1,140,0|2,1:0|0:3,0:0:0:0:
313,333,145464,1,0,0:0:0:0:
398,253,145669,6,0,L|419:114,2,140,4|2|0,0:3|0:3|1:0,0:0:0:0:
469,315,146697,1,4,0:3:0:0:
312,172,146902,1,6,0:3:0:0:
501,109,147108,1,4,0:3:0:0:
331,281,147313,70,0,B|252:214|252:214|299:241|344:202|344:202|355:172|327:139|327:139|367:88|337:48|337:48|242:26|190:135|190:135|90:66|19:133|19:133|12:183|73:207|73:207|65:250|90:270|90:270|148:282|175:234|175:234|140:331,1,1120,4|4,0:0|0:3,0:0:0:0:
256,192,150704,12,4,153067,0:3:0:0:
136,103,153272,21,0,1:0:0:0:
0,258,153477,1,4,3:0:0:0:
241,219,153683,5,0,1:0:0:0:
241,219,153785,1,0,1:0:0:0:
241,219,153889,2,0,P|292:225|349:237,1,90.9999958343508,4|0,0:0|1:0,0:0:0:0:
330,232,154197,1,0,1:0:0:0:
330,232,154299,1,0,1:0:0:0:
339,19,154505,2,0,L|360:135,1,90.9999958343508,4|2,0:3|0:3,0:0:0:0:
418,277,154916,2,0,L|435:183,1,90.9999958343508,4|2,0:3|0:3,0:0:0:0:
252,123,155327,6,0,P|175:129|123:61,1,136.499993751526,4|0,0:0|0:0,0:0:0:0:
119,61,155738,1,4,0:3:0:0:
252,224,155943,1,0,1:0:0:0:
167,289,156149,2,0,L|147:401,1,90.9999958343508,4|4,0:3|0:3,0:0:0:0:
406,200,156560,1,0,1:0:0:0:
320,135,156766,2,0,L|300:23,1,90.9999958343508,0|0,1:0|1:0,0:0:0:0:
252,224,157176,6,0,P|212:209|159:199,1,90.9999958343508,4|0,0:0|1:0,0:0:0:0:
165,199,157484,1,0,1:0:0:0:
165,199,157587,1,0,1:0:0:0:
31,128,157793,2,0,P|72:113|124:103,1,90.9999958343508,4|2,0:3|0:3,0:0:0:0:
246,18,158204,2,0,L|226:130,1,90.9999958343508,4|2,0:3|0:3,0:0:0:0:
363,278,158615,6,0,P|305:223|215:244,1,136.499993751526,4|0,0:0|0:0,0:0:0:0:
217,245,159025,1,4,0:0:0:0:
246,18,159231,1,4,0:0:0:0:
175,261,162519,22,2,L|165:176,3,45.4999979171754
182,319,162930,5,4,3:2:0:0:
402,192,163135,5,4,3:2:0:0:
182,64,163341,5,4,3:2:0:0:
