osu file format v14

[General]
AudioFilename: audio.mp3
AudioLeadIn: 0
PreviewTime: -1
Countdown: 0
SampleSet: Normal
StackLeniency: 0.7
Mode: 1
LetterboxInBreaks: 0
WidescreenStoryboard: 1

[Editor]
DistanceSpacing: 1
BeatDivisor: 12
GridSize: 32
TimelineZoom: 1

[Metadata]
Title:Ziggurat (original Mix)
TitleUnicode:Ziggurat (original Mix)
Artist:KaixoMusic
ArtistUnicode:KaixoMusic
Creator:elpeorjugador
Version:MONSTERS UNDER THE BED!
Source:
Tags:KaixoMusic taiko challenge
BeatmapID:4542031
BeatmapSetID:2155031

[Difficulty]
HPDrainRate:3
CircleSize:5
OverallDifficulty:5
ApproachRate:5
SliderMultiplier:1.4
SliderTickRate:1

[Events]
//Background and Video events
0,0,"image_1689318789633_1024.jpg",0,0
//Break Periods
//Storyboard Layer 0 (Background)
//Storyboard Layer 1 (Fail)
//Storyboard Layer 2 (Pass)
//Storyboard Layer 3 (Foreground)
//Storyboard Layer 4 (Overlay)
//Storyboard Sound Samples

[TimingPoints]
0,472.44094488189,4,1,0,100,1,0
4881,-133.333333333333,4,1,0,100,0,0
5236,-100,4,1,0,100,0,0
7204,-50,4,1,0,100,0,0
7401,-100,4,1,0,100,0,0
8031,454.545454545455,4,1,0,100,1,1
9621,-66.6666666666667,4,1,0,100,0,1
9887,-100,4,1,0,100,0,1
11737,461.538461538462,4,1,0,100,1,1
14929,-50,4,1,0,100,0,1
15429,500,4,1,0,100,1,0
15512,-181.818181818181,4,1,0,100,0,0
17429,444.444444444444,4,1,0,100,1,0
18169,-66.6666666666667,4,1,0,100,0,0
19169,-181.818181818181,4,1,0,100,0,0
19275,468.75,4,1,0,100,1,0
22985,-100,4,1,0,100,0,0
23025,480,4,1,0,100,1,0
24945,444.444444444445,4,1,0,100,1,0
26722,480,4,1,0,100,1,0
30562,458.015267175573,4,1,0,100,1,0
37552,255.31914893617,4,1,0,100,1,0
38041,-100,4,1,0,100,0,0
38083,458.015267175573,4,1,0,100,1,0
38197,-66.6666666666667,4,1,0,100,0,0
38426,-100,4,1,0,100,0,0
38655,-66.6666666666667,4,1,0,100,0,0
38884,-100,4,1,0,100,0,0
39113,-66.6666666666667,4,1,0,100,0,0
39342,-100,4,1,0,100,0,0
39571,-66.6666666666667,4,1,0,100,0,0
39800,-100,4,1,0,100,0,0
40029,-66.6666666666667,4,1,0,100,0,0
40258,-100,4,1,0,100,0,0
40449,-66.6666666666667,4,1,0,100,0,0
40716,-100,4,1,0,100,0,0
40945,-66.6666666666667,4,1,0,100,0,0
41174,-100,4,1,0,100,0,0
41403,-66.6666666666667,4,1,0,100,0,0
41632,-100,4,1,0,100,0,0
41747,461.538461538462,4,1,0,100,1,0
43593,483.870967741935,4,1,0,100,1,0
44520,-50,4,1,0,100,0,0
44601,-133.333333333333,4,1,0,100,0,0
44722,-66.6666666666667,4,1,0,100,0,0
44843,-100,4,1,0,100,0,0
45447,-50,4,1,0,100,0,0
45528,461.538461538462,4,1,0,100,1,1
45912,-133.333333333333,4,1,0,100,0,1
46412,-50,4,1,0,100,0,1
47066,-100,4,1,0,100,0,1
49143,-50,4,1,0,100,0,1
49604,-100,4,1,0,100,0,1
50028,-50,4,1,0,100,0,1
50528,-100,4,1,0,100,0,1
52374,-50,4,1,0,100,0,1
52451,-100,4,1,0,100,0,0
53036,461.538461538462,4,1,0,100,1,1
53151,-200,4,1,0,100,0,1
53382,-100,4,1,0,100,0,1
60542,461.538461538462,4,1,0,100,1,1
68035,461.538461538462,4,1,0,100,1,1
73573,-100,4,1,0,100,0,0
75535,461.538461538462,4,1,0,100,1,1
75573,-50,4,1,0,100,0,1
75842,-100,4,1,0,100,0,1
77458,-50,4,1,0,100,0,1
77688,-100,4,1,0,100,0,1
79265,-50,4,1,0,100,0,1
79535,-100,4,1,0,100,0,1
82458,-100,4,1,0,100,0,0
83073,458.015267175573,4,1,0,100,1,1
83111,-50,4,1,0,100,0,1
83340,-100,4,1,0,100,0,1
84447,-50,4,1,0,100,0,1
84752,-100,4,1,0,100,0,1
86800,-50,4,1,0,100,0,1
87107,-100,4,1,0,100,0,1
89370,-11.1111111111111,4,1,0,100,0,1
90057,-100,4,1,0,100,0,0

[HitObjects]
232,176,472,5,0,0:0:0:0:
389,181,944,1,2,0:0:0:0:
111,274,1181,1,0,0:0:0:0:
225,185,1417,1,0,0:0:0:0:
326,168,1889,1,2,0:0:0:0:
326,168,2362,1,0,0:0:0:0:
326,168,2834,1,2,0:0:0:0:
217,246,3070,1,2,0:0:0:0:
326,168,3307,1,0,0:0:0:0:
326,168,3779,1,2,0:0:0:0:
217,172,4251,1,0,0:0:0:0:
270,165,4724,1,2,0:0:0:0:
363,244,4960,1,0,0:0:0:0:
270,165,5196,1,0,0:0:0:0:
270,165,5669,1,2,0:0:0:0:
270,165,6141,1,0,0:0:0:0:
270,165,6614,1,2,0:0:0:0:
270,165,7086,1,0,0:0:0:0:
254,209,7322,1,2,0:0:0:0:
374,282,7519,1,4,0:0:0:0:
308,126,7992,5,14,0:0:0:0:
355,277,8258,1,0,0:0:0:0:
143,140,8485,1,10,0:0:0:0:
308,126,8940,1,4,0:0:0:0:
248,227,9167,1,0,0:0:0:0:
143,140,9394,1,10,0:0:0:0:
334,212,9659,1,2,0:0:0:0:
308,126,9849,1,4,0:0:0:0:
254,209,10000,1,2,0:0:0:0:
193,136,10303,1,10,0:0:0:0:
308,126,10758,1,4,0:0:0:0:
341,209,10947,1,10,0:0:0:0:
193,136,11250,1,14,0:0:0:0:
308,126,11737,1,4,0:0:0:0:
312,241,11967,1,2,0:0:0:0:
193,136,12198,1,10,0:0:0:0:
183,238,12429,1,0,0:0:0:0:
308,126,12660,1,4,0:0:0:0:
193,136,13121,1,10,0:0:0:0:
480,312,13390,1,2,0:0:0:0:
308,126,13583,1,4,0:0:0:0:
437,206,13813,1,14,0:0:0:0:
193,136,14044,1,10,0:0:0:0:
343,215,14275,1,2,0:0:0:0:
343,215,14506,1,2,0:0:0:0:
343,215,14967,1,6,0:0:0:0:
250,232,15198,1,0,0:0:0:0:
312,128,15470,5,0,0:0:0:0:
195,136,15929,1,0,0:0:0:0:
386,200,16179,1,0,0:0:0:0:
299,173,16429,1,0,0:0:0:0:
195,136,16929,1,0,0:0:0:0:
481,137,17179,1,2,0:0:0:0:
195,136,17387,1,10,0:0:0:0:
303,189,17614,1,0,0:0:0:0:
43,152,17836,1,10,0:0:0:0:
422,242,18206,1,0,0:0:0:0:
277,206,18429,1,0,0:0:0:0:
144,164,18762,1,10,0:0:0:0:
329,169,19275,1,4,0:0:0:0:
122,155,19743,1,10,0:0:0:0:
435,128,19978,1,0,0:0:0:0:
377,220,20212,1,4,0:0:0:0:
122,155,20642,1,2,0:0:0:0:
383,90,20915,1,0,0:0:0:0:
263,158,21110,1,0,0:0:0:0:
122,155,21579,1,10,0:0:0:0:
325,140,21814,1,10,0:0:0:0:
219,171,22087,1,0,0:0:0:0:
122,155,22556,1,2,0:0:0:0:
383,88,22790,1,0,0:0:0:0:
219,171,23025,1,0,0:0:0:0:
154,133,23465,1,14,0:0:0:0:
383,88,23705,1,0,0:0:0:0:
91,51,23945,1,6,0:0:0:0:
91,51,24425,1,14,0:0:0:0:
288,162,24865,1,0,0:0:0:0:
275,68,25056,1,2,0:0:0:0:
275,68,25278,1,10,0:0:0:0:
374,88,25500,1,0,0:0:0:0:
93,234,25685,1,2,0:0:0:0:
152,135,25945,1,2,0:0:0:0:
359,155,26278,1,10,0:0:0:0:
207,135,26722,5,4,0:0:0:0:
380,205,27202,1,14,0:0:0:0:
334,142,27442,1,0,0:0:0:0:
343,54,27682,1,10,0:0:0:0:
439,197,28162,1,6,0:0:0:0:
207,135,28642,1,0,0:0:0:0:
432,108,28882,1,0,0:0:0:0:
299,175,29122,1,0,0:0:0:0:
226,136,29362,1,0,0:0:0:0:
245,52,29602,1,10,0:0:0:0:
184,209,30042,1,4,0:0:0:0:
279,136,30562,1,0,0:0:0:0:
432,108,30791,1,2,0:0:0:0:
279,136,31020,1,0,0:0:0:0:
432,108,31249,1,2,0:0:0:0:
279,136,31478,1,0,0:0:0:0:
432,108,31707,1,2,0:0:0:0:
279,136,31936,1,0,0:0:0:0:
388,217,32126,1,10,0:0:0:0:
279,136,32394,1,4,0:0:0:0:
254,58,32852,1,10,0:0:0:0:
456,151,33081,1,4,0:0:0:0:
254,58,33310,1,2,0:0:0:0:
456,151,33539,1,4,0:0:0:0:
270,79,33768,1,2,0:0:0:0:
314,198,33958,1,0,0:0:0:0:
270,79,34226,1,14,0:0:0:0:
211,203,34684,1,0,0:0:0:0:
424,146,34913,1,2,0:0:0:0:
211,203,35142,1,0,0:0:0:0:
424,146,35371,1,2,0:0:0:0:
211,203,35600,1,0,0:0:0:0:
510,234,35829,1,2,0:0:0:0:
211,203,36058,1,4,0:0:0:0:
270,79,36592,1,10,0:0:0:0:
396,142,36859,1,2,0:0:0:0:
270,79,37088,1,10,0:0:0:0:
270,79,37552,1,2,0:0:0:0:
356,172,37764,1,2,0:0:0:0:
227,183,38083,1,4,0:0:0:0:
294,68,38312,1,2,0:0:0:0:
227,183,38541,1,4,0:0:0:0:
294,68,38770,1,2,0:0:0:0:
227,183,38999,1,4,0:0:0:0:
294,68,39228,1,2,0:0:0:0:
227,183,39457,1,4,0:0:0:0:
294,68,39686,1,2,0:0:0:0:
227,183,39915,1,4,0:0:0:0:
294,68,40144,1,2,0:0:0:0:
227,183,40373,1,4,0:0:0:0:
294,68,40602,1,2,0:0:0:0:
227,183,40831,1,4,0:0:0:0:
294,68,41060,1,2,0:0:0:0:
227,183,41289,1,4,0:0:0:0:
294,68,41518,1,2,0:0:0:0:
118,272,41747,2,4,P|446:226|423:100,1,560
336,109,44560,1,2,0:0:0:0:
266,45,44681,1,10,0:0:0:0:
266,45,44802,1,0,0:0:0:0:
272,150,44963,1,2,0:0:0:0:
366,184,45246,1,2,0:0:0:0:
199,153,45528,5,14,0:0:0:0:
413,94,45758,1,0,0:0:0:0:
265,64,45989,1,14,0:0:0:0:
199,153,46451,1,14,0:0:0:0:
413,94,46681,1,4,0:0:0:0:
265,64,46912,1,14,0:0:0:0:
288,134,47143,1,2,0:0:0:0:
413,94,47258,1,0,0:0:0:0:
199,153,47374,1,4,0:0:0:0:
265,64,47835,1,14,0:0:0:0:
413,94,48181,1,0,0:0:0:0:
265,64,48297,1,6,0:0:0:0:
265,64,48758,1,14,0:0:0:0:
227,128,49258,1,14,0:0:0:0:
414,95,49451,1,4,0:0:0:0:
265,64,49720,1,4,0:0:0:0:
227,128,50181,1,14,0:0:0:0:
414,95,50374,1,4,0:0:0:0:
265,64,50643,1,2,0:0:0:0:
402,97,50912,1,10,0:0:0:0:
302,205,51104,1,14,0:0:0:0:
357,97,51297,1,0,0:0:0:0:
372,238,51566,1,10,0:0:0:0:
357,97,51835,1,0,0:0:0:0:
372,238,52028,1,4,0:0:0:0:
350,223,52489,1,10,0:0:0:0:
402,97,52758,1,10,0:0:0:0:
227,128,52989,5,2,0:0:0:0:
425,184,53266,1,4,0:0:0:0:
288,140,53497,1,10,0:0:0:0:
227,128,53959,1,14,0:0:0:0:
407,159,54189,1,4,0:0:0:0:
328,175,54420,1,10,0:0:0:0:
345,72,54612,1,2,0:0:0:0:
455,108,54766,1,2,0:0:0:0:
227,128,54882,1,4,0:0:0:0:
319,175,55382,1,10,0:0:0:0:
440,207,55574,1,2,0:0:0:0:
345,72,55766,1,2,0:0:0:0:
466,148,56036,1,4,0:0:0:0:
319,175,56266,1,10,0:0:0:0:
227,130,56728,1,14,0:0:0:0:
415,135,56959,1,0,0:0:0:0:
319,175,57189,1,10,0:0:0:0:
227,130,57651,1,14,0:0:0:0:
493,124,57882,1,0,0:0:0:0:
314,182,58112,1,14,0:0:0:0:
345,72,58343,1,2,0:0:0:0:
271,161,58574,1,0,0:0:0:0:
271,161,58805,1,0,0:0:0:0:
345,72,59112,1,10,0:0:0:0:
345,72,59382,1,2,0:0:0:0:
93,202,59612,2,0,L|202:174,1,105
227,129,60497,5,4,0:0:0:0:
434,133,60734,1,10,0:0:0:0:
288,155,60965,1,10,0:0:0:0:
227,129,61426,1,4,0:0:0:0:
398,188,61657,1,10,0:0:0:0:
313,158,61888,1,10,0:0:0:0:
386,98,62118,1,2,0:0:0:0:
398,188,62272,1,10,0:0:0:0:
230,133,62349,1,4,0:0:0:0:
313,158,62849,1,10,0:0:0:0:
355,215,63042,1,0,0:0:0:0:
386,98,63234,1,10,0:0:0:0:
386,98,63426,1,10,0:0:0:0:
313,158,63772,1,2,0:0:0:0:
230,133,64234,1,4,0:0:0:0:
356,215,64465,1,0,0:0:0:0:
313,158,64695,1,10,0:0:0:0:
230,133,65157,1,4,0:0:0:0:
356,215,65388,1,0,0:0:0:0:
296,141,65657,1,10,0:0:0:0:
386,98,65888,1,2,0:0:0:0:
230,133,66080,1,4,0:0:0:0:
425,188,66311,1,4,0:0:0:0:
371,217,66580,1,10,0:0:0:0:
296,141,67042,1,6,0:0:0:0:
417,233,67503,1,10,0:0:0:0:
417,233,67772,1,10,0:0:0:0:
231,134,68003,1,4,0:0:0:0:
358,235,68265,1,4,0:0:0:0:
312,82,68496,1,14,0:0:0:0:
212,88,68958,1,4,0:0:0:0:
508,238,69188,1,4,0:0:0:0:
290,78,69419,1,14,0:0:0:0:
279,183,69650,1,2,0:0:0:0:
134,218,69765,1,0,0:0:0:0:
269,150,69881,1,4,0:0:0:0:
290,78,70342,1,10,0:0:0:0:
317,218,70688,1,10,0:0:0:0:
226,91,70881,1,10,0:0:0:0:
226,91,71265,1,2,0:0:0:0:
269,150,71727,1,4,0:0:0:0:
226,91,72227,1,10,0:0:0:0:
269,150,72688,1,4,0:0:0:0:
226,91,73150,1,10,0:0:0:0:
240,198,73342,1,0,0:0:0:0:
269,150,73573,1,4,0:0:0:0:
321,148,75497,1,4,0:0:0:0:
210,204,75650,1,2,0:0:0:0:
293,235,75727,1,10,0:0:0:0:
231,24,75958,1,2,0:0:0:0:
321,148,76420,1,0,0:0:0:0:
231,24,76881,1,2,0:0:0:0:
321,148,77343,1,4,0:0:0:0:
440,225,77535,1,2,0:0:0:0:
440,225,77611,1,10,0:0:0:0:
230,71,77804,1,2,0:0:0:0:
273,147,78266,1,0,0:0:0:0:
230,71,78727,1,2,0:0:0:0:
273,147,79189,1,4,0:0:0:0:
336,197,79381,1,2,0:0:0:0:
266,215,79458,1,10,0:0:0:0:
230,71,79650,1,2,0:0:0:0:
273,147,80112,1,0,0:0:0:0:
230,71,80573,1,2,0:0:0:0:
273,147,81035,1,4,0:0:0:0:
230,71,81496,1,2,0:0:0:0:
361,205,81765,1,2,0:0:0:0:
178,197,81958,1,0,0:0:0:0:
175,58,82996,1,2,0:0:0:0:
359,190,83187,1,0,0:0:0:0:
359,190,83263,1,0,0:0:0:0:
241,146,83454,1,14,0:0:0:0:
175,58,83912,1,2,0:0:0:0:
241,146,84370,1,6,0:0:0:0:
266,229,84561,1,0,0:0:0:0:
266,229,84676,1,0,0:0:0:0:
175,58,84828,1,10,0:0:0:0:
241,146,85286,1,6,0:0:0:0:
175,58,85782,1,2,0:0:0:0:
241,146,86240,1,6,0:0:0:0:
175,58,86737,1,2,0:0:0:0:
366,186,86927,1,0,0:0:0:0:
366,186,87004,1,0,0:0:0:0:
241,146,87195,1,14,0:0:0:0:
175,58,87653,1,10,0:0:0:0:
241,146,88111,1,14,0:0:0:0:
175,58,88569,1,10,0:0:0:0:
241,146,89027,1,14,0:0:0:0:
315,80,89256,1,0,0:0:0:0:
256,192,89485,12,0,90057,0:0:0:0:
