osu file format v14

[General]
AudioFilename: audio.mp3
AudioLeadIn: 0
PreviewTime: -1
Countdown: 0
SampleSet: None
StackLeniency: 0.7
Mode: 1
LetterboxInBreaks: 0
WidescreenStoryboard: 0

[Editor]
DistanceSpacing: 1
BeatDivisor: 8
GridSize: 4
TimelineZoom: 1

[Metadata]
Title:Pyrolysisi (Original Mix)
TitleUnicode:Pyrolysisi (Original Mix)
Artist:KaixoMusic
ArtistUnicode:KaixoMusic
Creator:elpeorjugador
Version:Scape
Source:
Tags:Taiko Easy Electronic Old GDExtintion
BeatmapID:4537588
BeatmapSetID:2153514

[Difficulty]
HPDrainRate:6
CircleSize:5
OverallDifficulty:3
ApproachRate:5
SliderMultiplier:1.4
SliderTickRate:1

[Events]
//Background and Video events
0,0,"bluelava_cover.jpeg",0,0
//Break Periods
2,37700,39134
2,157717,162871
2,165217,167600
//Storyboard Layer 0 (Background)
//Storyboard Layer 1 (Fail)
//Storyboard Layer 2 (Pass)
//Storyboard Layer 3 (Foreground)
//Storyboard Layer 4 (Overlay)
//Storyboard Sound Samples

[TimingPoints]
0,500,4,1,0,100,1,0
22500,472.44094488189,4,1,0,100,1,0
45001,472.44094488189,4,1,0,100,1,0
52562,472.44094488189,4,1,0,100,1,0
60121,375,4,1,0,100,1,0
63871,300,4,1,0,100,1,0
65671,472.44094488189,4,1,0,100,1,0
68033,-100,4,1,0,100,0,1
74588,-100,4,1,0,100,0,0
75001,472.44094488189,4,1,0,100,1,1
82520,472.44094488189,4,1,0,100,1,1
89606,-100,4,1,0,100,0,0
90009,472.44094488189,4,1,0,100,1,1
93788,472.44094488189,4,1,0,100,1,0
94260,264.31718061674,4,1,0,100,1,0
94524,183.48623853211,4,1,0,100,1,0
94707,140.515222482436,4,1,0,100,1,0
94847,113.851992409867,4,1,0,100,1,0
94946,95.6937799043062,4,1,0,100,1,0
95041,82.5309491059147,4,1,0,100,1,0
95123,72.5513905683192,4,1,0,100,1,0
95195,64.7249190938511,4,1,0,100,1,0
95267,58.4225900681597,4,1,0,100,1,0
95332,53.2386867790594,4,1,0,100,1,0
95398,48.8997555012225,4,1,0,100,1,0
95459,45.2147701582517,4,1,0,100,1,0
95515,42.0462508759636,4,1,0,100,1,0
95567,39.2927308447937,4,1,0,100,1,0
95616,36.8776889981561,4,1,0,100,1,0
95657,34.7423277359583,4,1,0,100,1,0
95678,12,4,1,0,100,1,0
97052,472.44094488189,4,1,0,100,1,0
97996,-100,4,1,0,100,0,1
105489,472.44094488189,4,1,0,100,1,1
112973,472.44094488189,4,1,0,100,1,1
120478,472.44094488189,4,1,0,100,1,1
125674,-100,4,1,0,100,0,0
127965,472.44094488189,4,1,0,100,1,1
134579,-100,4,1,0,100,0,0
135007,472.44094488189,4,1,0,100,1,1
138314,-100,4,1,0,100,0,0
142510,472.44094488189,4,1,0,100,1,1
149596,-100,4,1,0,100,0,0
150009,472.44094488189,4,1,0,100,1,1
153758,472.44094488189,4,1,0,100,1,0
157517,540.540540540541,4,1,0,100,1,0
172554,500,4,1,0,100,1,0
187526,468.75,4,1,0,100,1,0
202511,472.44094488189,4,1,0,100,1,1
210008,472.44094488189,4,1,0,100,1,1
217507,472.44094488189,4,1,0,100,1,1
225019,472.44094488189,4,1,0,100,1,1
232578,-100,4,1,0,100,0,0

[HitObjects]
256,192,0,12,0,7000,0:0:0:0:
266,128,7500,5,0,0:0:0:0:
231,104,10312,1,2,0:0:0:0:
286,126,11250,1,0,0:0:0:0:
314,146,13125,1,2,0:0:0:0:
245,150,14062,1,2,0:0:0:0:
368,108,15000,1,0,0:0:0:0:
232,109,17812,1,2,0:0:0:0:
325,101,18750,1,0,0:0:0:0:
228,122,20625,1,2,0:0:0:0:
130,135,21562,1,0,0:0:0:0:
289,115,22500,1,4,0:0:0:0:
187,157,22736,1,2,0:0:0:0:
318,211,22972,1,0,0:0:0:0:
187,157,23444,1,2,0:0:0:0:
373,137,23917,1,0,0:0:0:0:
132,140,24389,1,2,0:0:0:0:
277,155,24862,1,0,0:0:0:0:
91,129,25334,1,2,0:0:0:0:
199,157,25807,1,0,0:0:0:0:
69,126,26279,1,2,0:0:0:0:
265,165,26751,1,0,0:0:0:0:
69,126,27224,1,2,0:0:0:0:
325,181,27696,1,0,0:0:0:0:
69,126,28110,1,2,0:0:0:0:
447,133,28641,1,0,0:0:0:0:
69,126,29114,1,2,0:0:0:0:
186,77,29527,1,0,0:0:0:0:
69,126,30000,1,2,0:0:0:0:
135,99,30472,5,0,0:0:0:0:
69,126,30944,1,2,0:0:0:0:
174,45,31417,1,0,0:0:0:0:
69,126,31889,1,2,0:0:0:0:
268,184,32362,1,0,0:0:0:0:
77,189,32834,1,2,0:0:0:0:
186,100,33307,1,0,0:0:0:0:
77,189,33779,1,2,0:0:0:0:
240,158,34251,1,0,0:0:0:0:
77,189,34724,1,2,0:0:0:0:
336,145,35196,1,0,0:0:0:0:
77,189,35669,1,2,0:0:0:0:
159,141,36141,1,0,0:0:0:0:
77,189,36614,1,2,0:0:0:0:
71,129,37086,1,0,0:0:0:0:
260,117,37500,1,4,0:0:0:0:
60,175,40334,5,0,0:0:0:0:
137,133,41279,1,0,0:0:0:0:
212,126,43169,5,0,0:0:0:0:
231,125,44055,1,2,0:0:0:0:
231,125,45001,1,4,0:0:0:0:
229,86,47835,1,0,0:0:0:0:
270,187,48780,1,2,0:0:0:0:
276,120,50611,1,0,0:0:0:0:
203,108,51556,1,2,0:0:0:0:
203,108,52501,1,6,0:0:0:0:
138,111,52975,1,4,0:0:0:0:
82,115,53447,1,4,0:0:0:0:
208,109,53920,1,4,0:0:0:0:
226,100,54392,1,4,0:0:0:0:
124,86,54865,1,4,0:0:0:0:
241,82,55337,1,0,0:0:0:0:
124,86,55810,1,4,0:0:0:0:
272,117,56282,1,0,0:0:0:0:
112,128,56754,1,4,0:0:0:0:
112,128,57227,1,4,0:0:0:0:
112,128,57699,1,4,0:0:0:0:
312,127,58172,1,0,0:0:0:0:
112,128,58644,1,4,0:0:0:0:
239,112,59117,1,0,0:0:0:0:
112,128,59589,1,4,0:0:0:0:
281,114,60002,1,0,0:0:0:0:
140,184,60261,1,0,0:0:0:0:
112,89,60496,1,0,0:0:0:0:
140,184,60730,1,0,0:0:0:0:
277,199,60964,1,0,0:0:0:0:
250,141,61199,1,0,0:0:0:0:
211,88,61433,1,0,0:0:0:0:
250,141,61667,1,0,0:0:0:0:
328,126,61902,1,0,0:0:0:0:
328,126,62136,1,0,0:0:0:0:
211,88,62371,1,0,0:0:0:0:
201,145,62605,1,0,0:0:0:0:
201,145,62839,1,0,0:0:0:0:
201,145,63074,1,0,0:0:0:0:
288,90,63308,1,0,0:0:0:0:
103,171,63542,1,0,0:0:0:0:
151,248,63777,1,0,0:0:0:0:
217,115,65221,1,0,0:0:0:0:
338,94,67560,1,0,0:0:0:0:
130,197,67737,1,2,0:0:0:0:
231,111,67974,1,6,0:0:0:0:
196,123,68446,1,2,0:0:0:0:
319,167,68919,1,0,0:0:0:0:
200,292,69155,1,10,0:0:0:0:
277,73,69391,1,4,0:0:0:0:
95,243,69509,1,10,0:0:0:0:
183,112,69863,1,0,0:0:0:0:
183,112,70336,1,0,0:0:0:0:
148,196,70572,1,10,0:0:0:0:
289,224,70808,1,2,0:0:0:0:
231,188,71281,1,10,0:0:0:0:
72,220,71517,1,2,0:0:0:0:
231,188,71753,1,0,0:0:0:0:
170,128,72226,5,8,0:0:0:0:
145,233,72403,1,2,0:0:0:0:
323,114,72698,1,0,0:0:0:0:
181,233,72816,1,10,0:0:0:0:
219,114,73171,1,2,0:0:0:0:
152,125,73643,1,0,0:0:0:0:
237,263,73820,1,10,0:0:0:0:
275,137,74115,1,0,0:0:0:0:
154,178,74588,1,0,0:0:0:0:
289,217,75001,1,4,0:0:0:0:
223,124,75473,1,10,0:0:0:0:
223,124,75945,1,10,0:0:0:0:
30,86,76418,1,0,0:0:0:0:
345,96,76654,1,10,0:0:0:0:
130,148,76890,1,0,0:0:0:0:
254,160,77363,1,8,0:0:0:0:
218,149,77835,1,8,0:0:0:0:
160,264,78308,2,0,L|283:174,1,140
156,95,79252,1,0,0:0:0:0:
222,206,79725,1,2,0:0:0:0:
309,149,80197,1,0,0:0:0:0:
225,143,80670,1,0,0:0:0:0:
256,192,80906,12,0,82087,0:0:0:0:
307,160,82520,5,6,0:0:0:0:
212,96,82756,1,0,0:0:0:0:
307,160,82992,1,10,0:0:0:0:
307,160,83464,1,0,0:0:0:0:
109,129,83937,1,10,0:0:0:0:
252,114,84173,1,10,0:0:0:0:
190,175,84409,1,2,0:0:0:0:
340,46,84882,1,0,0:0:0:0:
303,206,85118,1,8,0:0:0:0:
148,137,85354,1,10,0:0:0:0:
186,85,85590,1,2,0:0:0:0:
266,148,85827,1,2,0:0:0:0:
186,85,85945,1,10,0:0:0:0:
139,148,86299,1,10,0:0:0:0:
195,97,86535,1,2,0:0:0:0:
309,117,86771,1,0,0:0:0:0:
174,143,87244,1,0,0:0:0:0:
140,40,87480,1,10,0:0:0:0:
258,152,87716,1,10,0:0:0:0:
140,40,87834,1,0,0:0:0:0:
186,164,88130,1,10,0:0:0:0:
140,40,88366,1,2,0:0:0:0:
159,265,88602,1,0,0:0:0:0:
140,40,88838,1,10,0:0:0:0:
276,144,89075,1,0,0:0:0:0:
228,135,89606,1,6,0:0:0:0:
150,182,90009,1,4,0:0:0:0:
290,169,90481,1,0,0:0:0:0:
194,168,90953,1,0,0:0:0:0:
254,182,91426,1,0,0:0:0:0:
140,40,91662,1,10,0:0:0:0:
210,182,91898,1,0,0:0:0:0:
288,151,92371,1,10,0:0:0:0:
125,60,92607,1,10,0:0:0:0:
212,154,92843,1,0,0:0:0:0:
338,229,93316,1,2,0:0:0:0:
239,211,93729,1,0,0:0:0:0:
280,195,97052,5,4,0:0:0:0:
219,186,97996,1,0,0:0:0:0:
306,210,98469,1,0,0:0:0:0:
245,217,98941,1,2,0:0:0:0:
128,85,99177,1,2,0:0:0:0:
245,217,99414,1,0,0:0:0:0:
339,217,99886,1,2,0:0:0:0:
319,203,100300,1,0,0:0:0:0:
208,247,100772,1,2,0:0:0:0:
163,239,101244,1,0,0:0:0:0:
163,239,101717,1,0,0:0:0:0:
163,239,102189,1,2,0:0:0:0:
261,153,102662,1,0,0:0:0:0:
261,153,103134,1,0,0:0:0:0:
161,155,103607,1,2,0:0:0:0:
233,166,104079,1,0,0:0:0:0:
233,166,104552,1,0,0:0:0:0:
134,177,105024,1,2,0:0:0:0:
302,171,105489,1,6,0:0:0:0:
188,176,105961,1,0,0:0:0:0:
255,178,106433,1,4,0:0:0:0:
134,89,106670,1,2,0:0:0:0:
110,202,106847,1,0,0:0:0:0:
210,200,107319,1,4,0:0:0:0:
291,137,107792,1,0,0:0:0:0:
170,176,108264,1,2,0:0:0:0:
230,169,108737,1,6,0:0:0:0:
165,177,109209,1,2,0:0:0:0:
246,175,109681,1,6,0:0:0:0:
129,193,110154,1,2,0:0:0:0:
147,193,110626,1,6,0:0:0:0:
210,204,112973,5,0,0:0:0:0:
288,221,113445,1,0,0:0:0:0:
248,228,113917,1,2,0:0:0:0:
203,69,114154,1,2,0:0:0:0:
142,226,114390,1,0,0:0:0:0:
227,226,114862,1,2,0:0:0:0:
227,226,115335,1,0,0:0:0:0:
83,227,115807,1,2,0:0:0:0:
209,228,116280,1,0,0:0:0:0:
101,232,116752,1,0,0:0:0:0:
101,232,117224,1,0,0:0:0:0:
232,237,117638,1,2,0:0:0:0:
406,212,118110,1,0,0:0:0:0:
252,227,118583,1,2,0:0:0:0:
173,206,119055,1,0,0:0:0:0:
131,218,119528,1,2,0:0:0:0:
131,218,120000,1,0,0:0:0:0:
328,248,120478,1,6,0:0:0:0:
211,238,120950,1,0,0:0:0:0:
319,249,121422,1,0,0:0:0:0:
202,69,121659,1,2,0:0:0:0:
270,253,121895,1,2,0:0:0:0:
66,258,122367,1,2,0:0:0:0:
228,277,122840,1,0,0:0:0:0:
77,277,123312,1,0,0:0:0:0:
75,282,123785,1,0,0:0:0:0:
210,260,124257,1,0,0:0:0:0:
210,260,124670,1,0,0:0:0:0:
255,156,125143,1,0,0:0:0:0:
255,156,125615,1,2,0:0:0:0:
248,158,127965,5,2,0:0:0:0:
125,198,128437,1,6,0:0:0:0:
190,185,128909,1,2,0:0:0:0:
283,95,129146,1,0,0:0:0:0:
267,224,129382,1,2,0:0:0:0:
161,66,129618,1,2,0:0:0:0:
267,224,129854,1,0,0:0:0:0:
208,206,130327,1,2,0:0:0:0:
90,182,130799,1,0,0:0:0:0:
308,75,131035,1,6,0:0:0:0:
90,182,131272,1,2,0:0:0:0:
243,182,131744,1,2,0:0:0:0:
308,75,131980,1,2,0:0:0:0:
165,176,132216,1,0,0:0:0:0:
241,139,132689,1,2,0:0:0:0:
297,77,132925,1,2,0:0:0:0:
219,146,133161,1,0,0:0:0:0:
161,206,133634,1,2,0:0:0:0:
298,62,133870,1,2,0:0:0:0:
43,173,134106,1,2,0:0:0:0:
270,184,134579,1,6,0:0:0:0:
170,189,135007,5,0,0:0:0:0:
256,189,135479,1,0,0:0:0:0:
124,191,135951,1,4,0:0:0:0:
232,195,136424,1,0,0:0:0:0:
285,85,136660,1,2,0:0:0:0:
128,195,136896,1,2,0:0:0:0:
167,171,137369,1,2,0:0:0:0:
237,190,137841,1,0,0:0:0:0:
197,191,138314,1,0,0:0:0:0:
234,111,139318,1,0,0:0:0:0:
121,109,139731,1,0,0:0:0:0:
67,132,140203,1,0,0:0:0:0:
188,150,140676,1,2,0:0:0:0:
188,150,141148,1,0,0:0:0:0:
315,162,141562,1,0,0:0:0:0:
230,147,142034,1,2,0:0:0:0:
174,144,142510,1,4,0:0:0:0:
321,144,142982,1,6,0:0:0:0:
214,134,143454,1,0,0:0:0:0:
312,140,143927,1,0,0:0:0:0:
193,138,144399,1,2,0:0:0:0:
286,82,144635,1,2,0:0:0:0:
286,138,144872,1,0,0:0:0:0:
306,60,145108,1,2,0:0:0:0:
239,138,145344,1,2,0:0:0:0:
239,138,145817,1,0,0:0:0:0:
390,237,146053,1,2,0:0:0:0:
122,144,146289,1,2,0:0:0:0:
122,144,146761,1,2,0:0:0:0:
356,162,146998,1,6,0:0:0:0:
227,153,147234,1,2,0:0:0:0:
348,108,147470,1,0,0:0:0:0:
144,109,147706,1,0,0:0:0:0:
295,131,148179,1,0,0:0:0:0:
301,222,148415,1,0,0:0:0:0:
172,129,148651,1,0,0:0:0:0:
287,117,149124,1,2,0:0:0:0:
143,125,149596,1,4,0:0:0:0:
253,137,150009,5,6,0:0:0:0:
189,142,150481,1,0,0:0:0:0:
298,148,150953,1,2,0:0:0:0:
240,135,151426,1,2,0:0:0:0:
165,142,151898,1,0,0:0:0:0:
395,139,152134,1,2,0:0:0:0:
165,142,152371,1,2,0:0:0:0:
299,199,152607,1,0,0:0:0:0:
267,140,152843,1,0,0:0:0:0:
175,140,153316,1,2,0:0:0:0:
343,54,153758,1,6,0:0:0:0:
282,118,157517,1,4,0:0:0:0:
299,199,164071,5,0,0:0:0:0:
142,139,165017,1,2,0:0:0:0:
123,117,168800,5,2,0:0:0:0:
123,117,169746,1,2,0:0:0:0:
230,140,170625,1,0,0:0:0:0:
153,126,172554,5,0,0:0:0:0:
245,140,173241,1,0,0:0:0:0:
245,140,173741,1,0,0:0:0:0:
245,140,174179,1,0,0:0:0:0:
107,91,174616,1,0,0:0:0:0:
137,89,175116,1,0,0:0:0:0:
137,89,175616,1,0,0:0:0:0:
137,89,176054,1,0,0:0:0:0:
137,89,176554,1,0,0:0:0:0:
137,89,176991,1,0,0:0:0:0:
137,89,177491,1,0,0:0:0:0:
137,89,177929,5,0,0:0:0:0:
137,89,178429,1,0,0:0:0:0:
185,41,178866,1,2,0:0:0:0:
214,131,179054,5,4,0:0:0:0:
137,89,179491,1,0,0:0:0:0:
214,131,179991,1,6,0:0:0:0:
269,102,180741,1,0,0:0:0:0:
210,116,181241,1,0,0:0:0:0:
152,115,181679,1,0,0:0:0:0:
152,115,182179,1,0,0:0:0:0:
152,115,182616,1,0,0:0:0:0:
145,81,183116,1,0,0:0:0:0:
229,219,183741,1,0,0:0:0:0:
210,108,184679,1,0,0:0:0:0:
198,188,185679,1,0,0:0:0:0:
282,218,187526,1,4,0:0:0:0:
283,228,187994,1,2,0:0:0:0:
171,152,188463,1,0,0:0:0:0:
157,209,188932,1,2,0:0:0:0:
171,152,189401,1,0,0:0:0:0:
138,220,189869,1,2,0:0:0:0:
171,152,190338,1,0,0:0:0:0:
128,212,190807,1,2,0:0:0:0:
171,152,191276,1,0,0:0:0:0:
239,217,191744,1,2,0:0:0:0:
194,105,192213,1,0,0:0:0:0:
318,180,192682,1,2,0:0:0:0:
194,105,193151,1,0,0:0:0:0:
318,180,193619,1,2,0:0:0:0:
194,105,194088,1,0,0:0:0:0:
262,177,194557,1,2,0:0:0:0:
194,105,195026,1,0,0:0:0:0:
229,175,195494,1,2,0:0:0:0:
194,105,195963,1,0,0:0:0:0:
209,167,196432,1,2,0:0:0:0:
194,105,196901,1,0,0:0:0:0:
209,167,197369,1,2,0:0:0:0:
194,105,197838,1,0,0:0:0:0:
122,162,198307,1,2,0:0:0:0:
298,155,198776,1,6,0:0:0:0:
246,158,199244,1,0,0:0:0:0:
403,158,199713,1,0,0:0:0:0:
79,138,200182,1,0,0:0:0:0:
119,139,200651,1,0,0:0:0:0:
202,166,201119,1,0,0:0:0:0:
202,166,201588,1,0,0:0:0:0:
202,166,202057,1,0,0:0:0:0:
202,166,202511,1,4,0:0:0:0:
250,193,202983,1,6,0:0:0:0:
111,170,203455,1,0,0:0:0:0:
226,167,203928,1,6,0:0:0:0:
226,167,204400,1,0,0:0:0:0:
226,167,204873,1,4,0:0:0:0:
186,109,205345,1,2,0:0:0:0:
319,204,205818,5,0,0:0:0:0:
201,167,206290,1,0,0:0:0:0:
201,167,206762,1,6,0:0:0:0:
201,167,207176,1,2,0:0:0:0:
201,167,207648,1,0,0:0:0:0:
174,84,208121,1,4,0:0:0:0:
174,84,208593,1,0,0:0:0:0:
174,84,209066,1,6,0:0:0:0:
174,84,209538,1,0,0:0:0:0:
389,221,210008,1,4,0:0:0:0:
199,177,210480,1,0,0:0:0:0:
421,175,210952,1,4,0:0:0:0:
128,184,211425,1,6,0:0:0:0:
238,182,211897,1,6,0:0:0:0:
285,156,212370,1,0,0:0:0:0:
176,162,212842,1,2,0:0:0:0:
129,157,213315,1,0,0:0:0:0:
92,179,213787,1,0,0:0:0:0:
244,148,214259,1,4,0:0:0:0:
178,158,214673,1,6,0:0:0:0:
178,158,215204,1,2,0:0:0:0:
237,126,215677,1,0,0:0:0:0:
96,168,216149,1,6,0:0:0:0:
134,170,216622,1,0,0:0:0:0:
193,183,217094,1,0,0:0:0:0:
193,183,217507,1,4,0:0:0:0:
196,51,217743,1,0,0:0:0:0:
271,175,217979,1,6,0:0:0:0:
180,31,218215,1,2,0:0:0:0:
271,175,218451,1,4,0:0:0:0:
200,54,218688,1,2,0:0:0:0:
271,175,218924,1,6,0:0:0:0:
200,54,219160,1,0,0:0:0:0:
154,168,219396,5,4,0:0:0:0:
163,44,219632,1,6,0:0:0:0:
154,168,219869,1,0,0:0:0:0:
163,44,220105,1,2,0:0:0:0:
193,162,220341,1,0,0:0:0:0:
163,44,220577,1,0,0:0:0:0:
236,191,220814,1,0,0:0:0:0:
163,44,221050,1,2,0:0:0:0:
250,191,221286,1,6,0:0:0:0:
108,58,221463,1,2,0:0:0:0:
250,191,221699,1,2,0:0:0:0:
108,50,221936,1,2,0:0:0:0:
250,191,222172,1,2,0:0:0:0:
108,45,222408,1,0,0:0:0:0:
250,191,222644,1,2,0:0:0:0:
250,191,223117,1,6,0:0:0:0:
201,6,223235,1,0,0:0:0:0:
250,191,223589,1,2,0:0:0:0:
170,33,223884,1,0,0:0:0:0:
250,191,224062,1,6,0:0:0:0:
170,33,224180,1,0,0:0:0:0:
250,191,224534,1,2,0:0:0:0:
145,165,225019,1,4,0:0:0:0:
227,34,225255,1,0,0:0:0:0:
145,165,225491,1,6,0:0:0:0:
227,34,225727,1,2,0:0:0:0:
195,165,225963,1,0,0:0:0:0:
227,34,226200,1,0,0:0:0:0:
195,165,226436,1,6,0:0:0:0:
101,111,226672,1,2,0:0:0:0:
195,165,226908,1,0,0:0:0:0:
101,111,227144,1,2,0:0:0:0:
195,165,227381,1,6,0:0:0:0:
101,111,227558,1,0,0:0:0:0:
195,165,227794,1,0,0:0:0:0:
376,160,228030,1,2,0:0:0:0:
195,165,228267,1,6,0:0:0:0:
135,129,228503,1,2,0:0:0:0:
246,100,228739,1,4,0:0:0:0:
164,247,228975,5,0,0:0:0:0:
246,100,229211,1,2,0:0:0:0:
374,249,229448,1,0,0:0:0:0:
246,100,229684,1,4,0:0:0:0:
318,238,229920,1,2,0:0:0:0:
246,100,230156,1,2,0:0:0:0:
269,238,230393,1,0,0:0:0:0:
246,100,230629,1,4,0:0:0:0:
212,191,230747,1,2,0:0:0:0:
115,197,231101,1,6,0:0:0:0:
172,233,231337,1,0,0:0:0:0:
247,122,231574,1,4,0:0:0:0:
235,151,232519,1,14,0:0:0:0:
