osu file format v14

[General]
AudioFilename: audio.mp3
AudioLeadIn: 0
PreviewTime: 24002
Countdown: 0
SampleSet: None
StackLeniency: 0.3
Mode: 0
LetterboxInBreaks: 0
WidescreenStoryboard: 1

[Editor]
Bookmarks: 25611,51211,64011
DistanceSpacing: 0.8
BeatDivisor: 4
GridSize: 4
TimelineZoom: 3.099999

[Metadata]
Title:Ruby ft. Aori (Miraie Remix)
TitleUnicode:Ruby ft. Aori (Miraie Remix)
Artist:Kaivaan
ArtistUnicode:Kaivaan
Creator:Narukiko
Version:Remap (WIP)
Source:
Tags:kaivaan ruby miraie remix anime
BeatmapID:1920786
BeatmapSetID:919727

[Difficulty]
HPDrainRate:6
CircleSize:4
OverallDifficulty:8
ApproachRate:8.5
SliderMultiplier:1.4
SliderTickRate:1

[Events]
//Background and Video events
0,0,"68169682_p0.jpg",0,0
//Break Periods
2,51402,60127
//Storyboard Layer 0 (Background)
//Storyboard Layer 1 (Fail)
//Storyboard Layer 2 (Pass)
//Storyboard Layer 3 (Foreground)
//Storyboard Sound Samples

[TimingPoints]
2,400,4,1,0,100,1,0
38402,-100,4,1,0,100,0,1
51202,-100,4,1,0,100,0,0
76802,-133.333333333333,4,1,0,100,0,0
86002,-200,4,1,0,100,0,0
86402,-133.333333333333,4,1,0,100,0,0
89602,-100,4,1,0,100,0,1
102402,-100,4,1,0,100,0,0
140802,-100,4,1,0,100,0,1
153602,-100,4,1,0,100,0,0

[Colours]
Combo1 : 249,0,131
Combo2 : 255,128,255
Combo3 : 128,0,255

[HitObjects]
256,192,36802,12,0,38002,0:0:0:0:
96,187,38402,6,0,P|96:136|117:96,1,70
115,97,38702,1,0,0:0:0:0:
138,76,38802,1,0,0:0:0:0:
192,232,39002,1,0,0:0:0:0:
264,113,39202,5,0,0:0:0:0:
284,128,39302,1,0,0:0:0:0:
355,168,39602,1,0,0:0:0:0:
381,192,39702,1,0,0:0:0:0:
393,225,39802,1,0,0:0:0:0:
394,260,39902,1,0,0:0:0:0:
381,294,40002,1,0,0:0:0:0:
285,313,40202,5,0,0:0:0:0:
279,287,40302,1,0,0:0:0:0:
256,258,40402,1,0,0:0:0:0:
146,262,40602,2,0,B|190:258|197:226|208:199,1,70
224,183,40902,1,0,0:0:0:0:
181,55,41202,6,0,P|200:88|202:101,4,35
139,138,41802,1,0,0:0:0:0:
139,138,41902,1,0,0:0:0:0:
139,138,42002,1,0,0:0:0:0:
286,76,42202,1,0,0:0:0:0:
390,97,42402,5,0,0:0:0:0:
404,70,42502,1,0,0:0:0:0:
161,74,42802,5,0,0:0:0:0:
146,116,42902,1,0,0:0:0:0:
167,155,43002,1,0,0:0:0:0:
184,189,43102,1,0,0:0:0:0:
174,240,43202,1,0,0:0:0:0:
169,323,43502,5,0,0:0:0:0:
196,308,43602,1,0,0:0:0:0:
111,169,43802,1,0,0:0:0:0:
245,59,44002,1,0,0:0:0:0:
322,299,44302,5,0,0:0:0:0:
335,268,44402,1,0,0:0:0:0:
206,188,44602,1,0,0:0:0:0:
436,56,44802,6,0,B|454:82|416:92|435:109|429:129|406:141,1,70
420,138,45102,1,0,0:0:0:0:
411,161,45202,1,0,0:0:0:0:
280,63,45402,5,0,0:0:0:0:
325,300,45602,1,0,0:0:0:0:
331,301,45702,1,0,0:0:0:0:
230,193,46002,1,0,0:0:0:0:
219,296,46202,1,0,0:0:0:0:
126,219,46402,1,0,0:0:0:0:
172,54,46602,5,0,0:0:0:0:
210,61,46702,1,0,0:0:0:0:
247,55,46802,1,0,0:0:0:0:
373,82,47002,5,0,0:0:0:0:
471,160,47202,5,0,0:0:0:0:
486,173,47302,1,0,0:0:0:0:
385,278,47602,2,0,L|392:303,5,17.5
172,292,48002,5,0,0:0:0:0:
337,203,48202,1,0,0:0:0:0:
316,158,48302,1,0,0:0:0:0:
280,129,48402,1,0,0:0:0:0:
158,95,48602,1,0,0:0:0:0:
112,232,48802,5,0,0:0:0:0:
146,254,48902,1,0,0:0:0:0:
260,255,49202,6,0,P|280:214|276:199,1,35
350,237,49402,2,0,P|361:203|357:180,1,35
311,119,49602,1,0,0:0:0:0:
100,90,50002,5,0,0:0:0:0:
248,170,50402,1,0,0:0:0:0:
142,248,50702,5,0,0:0:0:0:
272,321,51002,6,0,P|314:315|312:281,1,70
256,192,60802,12,0,63602,0:0:0:0:
278,110,64002,5,0,0:0:0:0:
183,286,64402,2,0,B|234:280|224:247|277:236|311:211,1,140
303,317,65102,1,0,0:0:0:0:
155,145,65402,5,0,0:0:0:0:
355,212,65602,1,0,0:0:0:0:
396,143,66002,5,0,0:0:0:0:
326,78,66402,5,0,0:0:0:0:
365,228,66602,1,0,0:0:0:0:
231,110,66802,2,0,L|202:86,2,35
123,198,67202,5,0,0:0:0:0:
219,241,67602,1,0,0:0:0:0:
152,54,68002,1,0,0:0:0:0:
121,275,68402,5,0,0:0:0:0:
265,185,68602,2,0,B|302:178|307:146|316:119|338:109|352:95|352:74,1,140
458,196,69202,1,0,0:0:0:0:
368,234,69402,1,0,0:0:0:0:
267,205,69602,1,0,0:0:0:0:
186,272,69902,5,0,0:0:0:0:
161,262,70002,1,0,0:0:0:0:
90,208,70202,1,0,0:0:0:0:
36,153,70402,5,0,0:0:0:0:
89,306,70702,1,0,0:0:0:0:
98,294,70802,2,0,B|115:247|166:213|167:168,1,140
196,65,71502,1,0,0:0:0:0:
239,193,71802,5,0,0:0:0:0:
287,91,72002,1,0,0:0:0:0:
385,164,72302,1,0,0:0:0:0:
371,191,72402,2,0,B|394:218|343:238|311:314,1,140
290,323,73002,1,0,0:0:0:0:
232,231,73202,1,0,0:0:0:0:
225,192,73302,1,0,0:0:0:0:
219,156,73402,1,0,0:0:0:0:
114,278,73602,5,0,0:0:0:0:
320,212,74002,5,0,0:0:0:0:
143,92,74402,5,0,0:0:0:0:
201,302,74802,5,0,0:0:0:0:
228,133,75002,2,0,B|232:179|232:179|260:173|260:173|267:200|267:200|322:169,1,140
318,177,75602,1,0,0:0:0:0:
336,183,75802,1,0,0:0:0:0:
363,194,76002,1,0,0:0:0:0:
259,278,76302,5,0,0:0:0:0:
226,107,76602,5,0,0:0:0:0:
141,286,76802,1,0,0:0:0:0:
106,129,77202,5,0,0:0:0:0:
275,122,77602,2,0,L|183:184,1,105.000004005432
319,203,78402,2,0,B|362:169|363:152|402:122,1,105.000004005432
440,216,79202,1,0,0:0:0:0:
332,298,79602,1,0,0:0:0:0:
188,323,80002,6,0,L|161:216,1,105.000004005432
164,51,80802,2,0,L|220:152,1,105.000004005432
230,165,81302,1,0,0:0:0:0:
249,187,81402,1,0,0:0:0:0:
267,218,81502,1,0,0:0:0:0:
286,248,81602,1,0,0:0:0:0:
351,344,82002,5,0,0:0:0:0:
352,180,82402,1,0,0:0:0:0:
225,265,82802,1,0,0:0:0:0:
99,195,83202,5,0,0:0:0:0:
315,129,83602,1,0,0:0:0:0:
220,38,84002,2,0,B|216:22|221:57|180:42|192:50|176:53|155:64|176:71|162:64|151:72|146:88|117:106|131:95,1,105.000004005432
166,295,84802,5,0,0:0:0:0:
224,127,85202,1,0,0:0:0:0:
335,302,85602,5,0,0:0:0:0:
314,129,86002,2,0,L|318:144,5,8.75
150,137,86402,1,0,0:0:0:0:
132,201,86802,1,0,0:0:0:0:
121,264,87202,1,0,0:0:0:0:
146,300,87602,5,0,0:0:0:0:
184,314,87702,1,0,0:0:0:0:
220,302,87802,1,0,0:0:0:0:
245,275,87902,1,0,0:0:0:0:
281,248,88002,1,0,0:0:0:0:
322,237,88402,1,0,0:0:0:0:
325,115,88802,6,0,P|331:68|320:33,1,78.7500030040742
157,87,89402,5,0,0:0:0:0:
334,301,89602,1,0,0:0:0:0:
