osu file format v14

[General]
AudioFilename: audio.mp3
AudioLeadIn: 0
PreviewTime: 24002
Countdown: 0
SampleSet: None
StackLeniency: 0.3
Mode: 0
LetterboxInBreaks: 0
WidescreenStoryboard: 1

[Editor]
Bookmarks: 25611,51211,64011
DistanceSpacing: 0.8
BeatDivisor: 8
GridSize: 4
TimelineZoom: 1

[Metadata]
Title:Ruby ft. Aori (Miraie Remix)
TitleUnicode:Ruby ft. Aori (Miraie Remix)
Artist:Kaivaan
ArtistUnicode:Kaivaan
Creator:Narukiko
Version:Old Wonders
Source:
Tags:kaivaan ruby miraie remix anime
BeatmapID:1920785
BeatmapSetID:919727

[Difficulty]
HPDrainRate:6
CircleSize:4
OverallDifficulty:8
ApproachRate:9
SliderMultiplier:1.4
SliderTickRate:1

[Events]
//Background and Video events
0,0,"68169682_p0.jpg",0,0
//Break Periods
2,51411,63402
//Storyboard Layer 0 (Background)
//Storyboard Layer 1 (Fail)
//Storyboard Layer 2 (Pass)
//Storyboard Layer 3 (Foreground)
//Storyboard Sound Samples

[TimingPoints]
2,400,4,1,0,100,1,0
38402,-100,4,1,0,100,0,1
51202,-100,4,1,0,100,0,0
89602,-100,4,1,0,100,0,1
102402,-100,4,1,0,100,0,0
140802,-100,4,1,0,100,0,1
153602,-100,4,1,0,100,0,0

[Colours]
Combo1 : 249,0,131
Combo2 : 255,128,255
Combo3 : 128,0,255

[HitObjects]
64,328,2,5,0,0:0:0:0:
88,228,202,1,0,0:0:0:0:
68,144,402,1,0,0:0:0:0:
92,52,602,1,0,0:0:0:0:
172,92,802,2,0,P|212:92|228:124,1,70
196,208,1202,1,0,0:0:0:0:
220,316,1402,1,0,0:0:0:0:
308,316,1602,6,0,L|308:236,1,70
384,176,2002,1,0,0:0:0:0:
296,76,2202,1,0,0:0:0:0:
240,156,2402,5,0,0:0:0:0:
392,64,2602,1,0,0:0:0:0:
360,120,2802,6,0,P|352:160|380:184,1,70
312,264,3202,5,0,0:0:0:0:
240,152,3402,1,0,0:0:0:0:
208,272,3602,1,0,0:0:0:0:
332,180,3802,1,0,0:0:0:0:
420,168,4002,2,0,P|456:124|452:104,1,70
376,40,4402,1,0,0:0:0:0:
240,128,4602,1,0,0:0:0:0:
152,180,4802,5,0,0:0:0:0:
292,272,5002,1,0,0:0:0:0:
392,196,5202,1,0,0:0:0:0:
348,72,5402,1,0,0:0:0:0:
284,176,5602,5,0,0:0:0:0:
436,108,5802,1,0,0:0:0:0:
408,244,6002,1,0,0:0:0:0:
296,72,6202,1,0,0:0:0:0:
252,256,6402,5,0,0:0:0:0:
200,88,6602,1,0,0:0:0:0:
112,196,6802,1,0,0:0:0:0:
300,184,7002,1,0,0:0:0:0:
248,312,7202,1,0,0:0:0:0:
420,256,7402,1,0,0:0:0:0:
456,184,7602,2,0,P|448:132|428:108,1,70
328,136,8002,1,0,0:0:0:0:
268,52,8202,1,0,0:0:0:0:
104,80,8402,5,0,0:0:0:0:
232,212,8602,1,0,0:0:0:0:
432,240,8802,1,0,0:0:0:0:
328,320,9002,1,0,0:0:0:0:
308,132,9202,1,0,0:0:0:0:
168,168,9402,1,0,0:0:0:0:
160,256,9602,5,0,0:0:0:0:
180,40,9802,1,0,0:0:0:0:
44,144,10002,1,0,0:0:0:0:
184,144,10202,1,0,0:0:0:0:
124,220,10402,1,0,0:0:0:0:
136,68,10602,1,0,0:0:0:0:
264,172,10802,1,0,0:0:0:0:
368,100,11002,1,0,0:0:0:0:
396,260,11202,5,0,0:0:0:0:
232,304,11402,1,0,0:0:0:0:
316,224,11602,1,0,0:0:0:0:
360,328,11802,1,0,0:0:0:0:
416,192,12002,1,0,0:0:0:0:
316,116,12202,1,0,0:0:0:0:
224,200,12402,1,0,0:0:0:0:
156,284,12602,5,0,0:0:0:0:
68,336,12802,6,0,L|68:216,1,105,4|0,0:0|0:0,0:0:0:0:
68,336,13411,2,0,L|152:240,1,122.5
256,192,14011,1,0,0:0:0:0:
412,40,14411,6,0,L|396:168,1,116.666666666667
412,40,15011,2,0,L|332:152,1,116.666666666667
256,184,15611,2,0,L|256:208,3,23.3333333333333
64,28,16011,6,0,L|64:136,1,93.3333333333333
64,28,16611,2,0,L|136:140,1,116.666666666667
260,264,17211,1,0,0:0:0:0:
300,296,17311,1,0,0:0:0:0:
348,320,17411,1,0,0:0:0:0:
392,336,17511,1,0,0:0:0:0:
436,348,17611,6,0,L|436:320,4,23.3333333333333
436,324,18011,1,0,0:0:0:0:
456,324,18211,2,0,P|456:248|420:192,1,140
272,120,18811,1,0,0:0:0:0:
500,120,19011,1,0,0:0:0:0:
316,224,19211,5,0,0:0:0:0:
408,224,19477,2,0,L|384:344,1,122.5
300,320,20077,2,0,L|208:240,1,122.5
140,316,20811,5,0,0:0:0:0:
140,224,21077,2,0,L|140:108,1,116.666666666667
228,152,21744,2,0,L|228:252,1,93.3333333333333
244,324,22144,2,0,L|272:324,4,23.3333333333333
372,200,22744,1,0,0:0:0:0:
252,60,23011,1,0,0:0:0:0:
116,268,23344,1,0,0:0:0:0:
348,156,23611,1,0,0:0:0:0:
312,184,23711,1,0,0:0:0:0:
264,208,23811,1,0,0:0:0:0:
216,232,23911,1,0,0:0:0:0:
256,192,24011,12,0,25211,0:0:0:0:
176,328,25611,5,4,0:0:0:0:
256,48,25811,1,0,0:0:0:0:
380,256,26011,1,8,0:0:0:0:
120,120,26211,1,0,0:0:0:0:
308,332,26411,1,0,0:0:0:0:
392,48,26611,1,0,0:0:0:0:
112,264,26811,1,8,0:0:0:0:
412,140,27011,1,0,0:0:0:0:
92,120,27211,5,0,0:0:0:0:
336,64,27411,1,0,0:0:0:0:
156,280,27611,1,8,0:0:0:0:
204,32,27811,1,0,0:0:0:0:
372,172,28011,1,0,0:0:0:0:
108,256,28211,1,0,0:0:0:0:
408,288,28411,1,8,0:0:0:0:
412,292,28511,1,0,0:0:0:0:
412,292,28611,1,0,0:0:0:0:
120,344,28811,5,0,0:0:0:0:
420,280,29011,1,0,0:0:0:0:
80,268,29211,1,8,0:0:0:0:
424,196,29411,1,0,0:0:0:0:
56,172,29611,1,0,0:0:0:0:
432,132,29811,1,0,0:0:0:0:
84,96,30011,1,8,0:0:0:0:
384,56,30211,2,0,B|348:96|352:136|296:164,1,140
104,184,30811,1,8,0:0:0:0:
408,260,31011,2,0,B|364:304|336:308|276:304|276:304,1,140
96,272,31611,1,8,0:0:0:0:
392,72,31811,1,0,0:0:0:0:
84,24,32011,5,0,0:0:0:0:
412,40,32211,1,0,0:0:0:0:
80,92,32411,1,8,0:0:0:0:
416,108,32611,1,0,0:0:0:0:
80,156,32811,1,0,0:0:0:0:
416,224,33011,1,0,0:0:0:0:
104,240,33211,1,8,0:0:0:0:
412,268,33411,1,0,0:0:0:0:
268,308,33611,5,0,0:0:0:0:
136,148,33811,1,0,0:0:0:0:
332,216,34011,1,8,0:0:0:0:
136,276,34211,1,0,0:0:0:0:
256,104,34411,1,0,0:0:0:0:
268,312,34611,1,0,0:0:0:0:
444,192,34811,5,8,0:0:0:0:
444,192,34911,1,0,0:0:0:0:
444,192,35011,1,0,0:0:0:0:
316,312,35211,5,0,0:0:0:0:
344,52,35411,1,0,0:0:0:0:
248,272,35611,1,8,0:0:0:0:
232,88,35811,1,0,0:0:0:0:
184,308,36011,5,0,0:0:0:0:
112,148,36211,1,0,0:0:0:0:
56,280,36411,1,8,0:0:0:0:
256,336,36611,2,0,P|320:328|336:260,1,140
304,216,37211,1,8,0:0:0:0:
256,192,37411,1,0,0:0:0:0:
256,192,37611,12,4,38411,0:0:0:0:
256,192,38611,5,0,0:0:0:0:
256,192,38711,1,0,0:0:0:0:
256,192,38811,1,8,0:0:0:0:
408,192,39011,1,0,0:0:0:0:
316,92,39211,1,0,0:0:0:0:
304,84,39311,1,0,0:0:0:0:
252,280,39611,1,8,0:0:0:0:
120,204,39811,1,0,0:0:0:0:
400,256,40011,5,0,0:0:0:0:
96,308,40211,1,0,0:0:0:0:
96,308,40311,1,0,0:0:0:0:
96,308,40411,1,8,0:0:0:0:
432,200,40611,1,0,0:0:0:0:
80,156,40811,1,0,0:0:0:0:
120,52,40911,1,0,0:0:0:0:
372,104,41211,1,8,0:0:0:0:
336,128,41311,1,0,0:0:0:0:
296,156,41411,1,0,0:0:0:0:
152,332,41611,5,0,0:0:0:0:
132,88,41811,1,0,0:0:0:0:
176,92,41911,1,0,0:0:0:0:
216,72,42011,1,8,0:0:0:0:
296,228,42211,1,0,0:0:0:0:
56,208,42411,1,0,0:0:0:0:
56,208,42511,1,0,0:0:0:0:
336,268,42811,1,8,0:0:0:0:
360,228,42911,1,0,0:0:0:0:
376,192,43011,1,0,0:0:0:0:
376,144,43111,1,0,0:0:0:0:
356,96,43211,1,0,0:0:0:0:
136,200,43611,1,8,0:0:0:0:
184,272,43811,5,0,0:0:0:0:
384,312,44211,1,0,0:0:0:0:
92,208,44411,1,8,0:0:0:0:
440,156,44611,1,0,0:0:0:0:
256,192,44811,5,0,0:0:0:0:
92,224,45011,1,0,0:0:0:0:
112,256,45111,1,0,0:0:0:0:
144,276,45211,1,8,0:0:0:0:
376,96,45411,1,0,0:0:0:0:
92,76,45611,1,0,0:0:0:0:
108,112,45711,1,0,0:0:0:0:
144,140,45811,1,0,0:0:0:0:
436,212,46011,1,8,0:0:0:0:
124,304,46211,1,0,0:0:0:0:
248,64,46411,5,0,0:0:0:0:
396,92,46611,1,0,0:0:0:0:
416,136,46711,1,0,0:0:0:0:
412,188,46811,1,8,0:0:0:0:
108,132,47011,1,0,0:0:0:0:
384,320,47211,1,0,0:0:0:0:
384,320,47311,1,0,0:0:0:0:
244,320,47611,5,8,0:0:0:0:
260,276,47711,1,0,0:0:0:0:
296,236,47811,1,0,0:0:0:0:
448,224,48011,5,4,0:0:0:0:
392,104,48211,1,0,0:0:0:0:
348,144,48311,1,0,0:0:0:0:
328,200,48411,1,8,0:0:0:0:
328,340,48611,1,0,0:0:0:0:
248,60,48811,1,4,0:0:0:0:
248,60,48911,1,0,0:0:0:0:
104,192,49211,5,8,0:0:0:0:
140,220,49311,1,0,0:0:0:0:
184,240,49411,1,0,0:0:0:0:
232,260,49511,1,0,0:0:0:0:
268,264,49611,2,0,P|344:260|376:204,1,140,4|12,0:0|0:0,0:0:0:0:
160,72,50411,2,4,P|120:76|124:120,1,93.3333333333333,4|12,0:0|0:0,0:0:0:0:
208,276,51011,1,4,0:0:0:0:
272,96,51211,1,4,0:0:0:0:
232,352,64002,5,0,0:0:0:0:
104,256,64211,1,0,0:0:0:0:
424,200,64411,1,8,0:0:0:0:
96,160,64611,1,0,0:0:0:0:
408,108,64811,1,0,0:0:0:0:
272,328,65011,1,0,0:0:0:0:
248,56,65211,1,8,0:0:0:0:
92,168,65411,1,0,0:0:0:0:
408,312,65611,5,0,0:0:0:0:
252,168,65811,1,0,0:0:0:0:
428,200,66011,1,8,0:0:0:0:
72,212,66211,1,0,0:0:0:0:
144,36,66411,1,0,0:0:0:0:
140,336,66611,1,0,0:0:0:0:
200,184,66811,1,8,0:0:0:0:
236,200,66911,1,0,0:0:0:0:
272,220,67011,1,0,0:0:0:0:
256,312,67211,5,0,0:0:0:0:
56,192,67411,1,0,0:0:0:0:
272,284,67611,1,8,0:0:0:0:
136,120,67811,1,0,0:0:0:0:
304,268,68011,1,0,0:0:0:0:
220,80,68211,1,0,0:0:0:0:
344,268,68411,1,8,0:0:0:0:
304,56,68611,2,0,P|388:56|420:112,1,140
316,128,69211,1,8,0:0:0:0:
448,168,69411,1,0,0:0:0:0:
332,340,69611,5,0,0:0:0:0:
104,72,69877,1,0,0:0:0:0:
104,72,70011,1,8,0:0:0:0:
416,192,70211,1,0,0:0:0:0:
356,328,70411,5,0,0:0:0:0:
288,160,70611,1,0,0:0:0:0:
404,260,70811,1,8,0:0:0:0:
184,224,71011,1,0,0:0:0:0:
260,332,71211,1,0,0:0:0:0:
368,144,71411,1,0,0:0:0:0:
56,196,71611,1,8,0:0:0:0:
184,68,71811,1,0,0:0:0:0:
180,328,72011,5,0,0:0:0:0:
72,92,72211,1,0,0:0:0:0:
232,208,72411,1,8,0:0:0:0:
396,64,72611,1,0,0:0:0:0:
352,308,72811,1,0,0:0:0:0:
88,256,73011,1,0,0:0:0:0:
168,88,73211,1,8,0:0:0:0:
200,56,73311,1,0,0:0:0:0:
236,36,73411,1,0,0:0:0:0:
376,260,73611,5,4,0:0:0:0:
460,132,73811,1,0,0:0:0:0:
320,248,74011,5,8,0:0:0:0:
352,84,74211,1,0,0:0:0:0:
268,264,74411,5,4,0:0:0:0:
264,84,74611,1,0,0:0:0:0:
224,296,74811,5,8,0:0:0:0:
176,100,75011,1,0,0:0:0:0:
80,236,75211,1,4,0:0:0:0:
424,120,75611,1,12,0:0:0:0:
368,316,76011,1,4,0:0:0:0:
240,328,76277,1,12,0:0:0:0:
100,64,76611,1,4,0:0:0:0:
224,60,76811,5,4,0:0:0:0:
100,308,77211,1,0,0:0:0:0:
428,208,77611,1,0,0:0:0:0:
68,132,78011,1,0,0:0:0:0:
256,320,78411,1,0,0:0:0:0:
328,140,78811,1,0,0:0:0:0:
424,304,79211,1,0,0:0:0:0:
100,244,79611,1,0,0:0:0:0:
96,48,80011,5,0,0:0:0:0:
168,332,80411,1,0,0:0:0:0:
204,64,80811,1,0,0:0:0:0:
328,272,81211,1,0,0:0:0:0:
344,224,81311,1,0,0:0:0:0:
344,176,81411,1,0,0:0:0:0:
340,140,81511,1,0,0:0:0:0:
320,96,81611,5,0,0:0:0:0:
88,196,82011,1,0,0:0:0:0:
424,216,82411,1,0,0:0:0:0:
84,312,82811,1,0,0:0:0:0:
380,324,83211,5,0,0:0:0:0:
236,40,83611,1,0,0:0:0:0:
128,336,84011,1,0,0:0:0:0:
240,60,84411,1,0,0:0:0:0:
368,296,84811,1,0,0:0:0:0:
240,80,85211,1,0,0:0:0:0:
148,304,85611,1,0,0:0:0:0:
364,288,86011,1,0,0:0:0:0:
364,288,86111,1,0,0:0:0:0:
364,288,86211,1,0,0:0:0:0:
188,192,86411,5,0,0:0:0:0:
328,192,86811,1,0,0:0:0:0:
176,236,87211,1,0,0:0:0:0:
332,152,87611,1,0,0:0:0:0:
292,172,87711,1,0,0:0:0:0:
256,192,87811,1,0,0:0:0:0:
232,220,87911,1,0,0:0:0:0:
212,256,88011,1,0,0:0:0:0:
304,116,88411,1,0,0:0:0:0:
256,248,88811,1,0,0:0:0:0:
256,108,89111,1,0,0:0:0:0:
256,188,89411,1,0,0:0:0:0:
372,116,89611,5,4,0:0:0:0:
464,308,89811,1,0,0:0:0:0:
424,328,89911,1,0,0:0:0:0:
380,328,90011,1,8,0:0:0:0:
260,324,90211,1,0,0:0:0:0:
108,272,90411,1,0,0:0:0:0:
108,272,90511,1,0,0:0:0:0:
376,200,90811,1,8,0:0:0:0:
208,176,91011,1,0,0:0:0:0:
132,152,91211,5,0,0:0:0:0:
208,48,91411,1,0,0:0:0:0:
232,40,91511,1,0,0:0:0:0:
260,40,91611,1,8,0:0:0:0:
416,100,91811,1,0,0:0:0:0:
332,160,92011,1,0,0:0:0:0:
360,192,92111,1,0,0:0:0:0:
392,280,92411,1,8,0:0:0:0:
376,316,92511,1,0,0:0:0:0:
356,352,92611,1,0,0:0:0:0:
188,328,92811,5,0,0:0:0:0:
76,240,93011,1,0,0:0:0:0:
88,208,93111,1,0,0:0:0:0:
112,172,93211,1,8,0:0:0:0:
192,104,93411,1,0,0:0:0:0:
424,216,93611,1,0,0:0:0:0:
424,216,93711,1,0,0:0:0:0:
396,292,94011,5,8,0:0:0:0:
364,264,94111,1,0,0:0:0:0:
328,240,94211,1,0,0:0:0:0:
292,224,94311,1,0,0:0:0:0:
252,208,94411,1,0,0:0:0:0:
84,316,94811,1,8,0:0:0:0:
96,116,95011,1,0,0:0:0:0:
184,220,95211,1,0,0:0:0:0:
224,136,95461,1,0,0:0:0:0:
224,136,95561,1,8,0:0:0:0:
68,224,95811,1,0,0:0:0:0:
72,64,96011,5,0,0:0:0:0:
208,104,96211,1,0,0:0:0:0:
180,136,96311,1,0,0:0:0:0:
160,176,96411,1,8,0:0:0:0:
316,152,96611,1,0,0:0:0:0:
400,60,96811,1,0,0:0:0:0:
400,60,96911,1,0,0:0:0:0:
336,292,97211,1,8,0:0:0:0:
224,316,97611,5,0,0:0:0:0:
188,120,97811,1,0,0:0:0:0:
160,152,97911,1,0,0:0:0:0:
124,176,98011,1,8,0:0:0:0:
96,64,98211,1,0,0:0:0:0:
116,324,98411,1,0,0:0:0:0:
120,328,98511,1,0,0:0:0:0:
380,188,98811,1,8,0:0:0:0:
360,148,98911,1,0,0:0:0:0:
324,116,99011,1,0,0:0:0:0:
192,160,99211,5,4,0:0:0:0:
104,272,99411,1,0,0:0:0:0:
144,300,99511,1,0,0:0:0:0:
188,312,99611,1,8,0:0:0:0:
192,160,99811,1,0,0:0:0:0:
384,232,100011,1,4,0:0:0:0:
384,232,100111,1,0,0:0:0:0:
384,68,100411,1,8,0:0:0:0:
340,64,100511,1,0,0:0:0:0:
300,84,100611,1,0,0:0:0:0:
252,96,100711,1,0,0:0:0:0:
208,88,100811,1,4,0:0:0:0:
144,316,101211,2,4,P|108:272|176:264,1,140,12|4,0:0|0:0,0:0:0:0:
200,264,101861,2,4,P|232:276|264:220,1,105,12|4,0:0|0:0,0:0:0:0:
120,116,102411,5,4,0:0:0:0:
404,68,102611,1,0,0:0:0:0:
264,264,102811,1,0,0:0:0:0:
240,32,103011,1,0,0:0:0:0:
152,248,103211,1,0,0:0:0:0:
376,268,103411,1,0,0:0:0:0:
244,120,103611,1,0,0:0:0:0:
300,328,103811,1,0,0:0:0:0:
92,288,104011,5,0,0:0:0:0:
344,312,104211,1,0,0:0:0:0:
96,232,104411,5,0,0:0:0:0:
388,260,104611,1,0,0:0:0:0:
112,176,104811,5,0,0:0:0:0:
432,172,105011,1,0,0:0:0:0:
120,116,105211,5,0,0:0:0:0:
444,64,105411,1,0,0:0:0:0:
340,88,105611,2,0,B|332:152|372:168|380:220,1,140
356,328,106211,1,0,0:0:0:0:
224,328,106411,2,0,B|168:340|120:288|148:232,1,140
200,260,107011,6,0,P|240:256|256:228,1,70
184,188,107411,1,0,0:0:0:0:
428,172,107611,1,0,0:0:0:0:
312,76,107811,1,0,0:0:0:0:
300,276,108011,1,0,0:0:0:0:
232,84,108311,1,0,0:0:0:0:
232,84,108411,1,0,0:0:0:0:
192,272,108611,1,0,0:0:0:0:
108,276,108811,5,4,0:0:0:0:
376,204,109011,1,0,0:0:0:0:
260,312,109211,1,0,0:0:0:0:
184,104,109411,1,0,0:0:0:0:
384,104,109611,1,0,0:0:0:0:
144,280,109811,1,0,0:0:0:0:
200,88,110011,1,0,0:0:0:0:
392,224,110211,1,0,0:0:0:0:
380,300,110411,5,0,0:0:0:0:
368,120,110611,1,0,0:0:0:0:
260,292,110811,1,0,0:0:0:0:
96,240,111011,1,0,0:0:0:0:
396,216,111211,1,0,0:0:0:0:
120,176,111411,1,0,0:0:0:0:
288,116,111611,1,0,0:0:0:0:
104,72,111811,1,0,0:0:0:0:
308,148,112011,6,0,B|352:232|428:168|428:168,1,140
376,112,112611,1,0,0:0:0:0:
312,76,112811,2,0,B|356:40|356:40|440:52,1,140
376,112,113411,6,0,P|416:132|420:168,1,70
376,288,113811,1,0,0:0:0:0:
236,264,114011,1,0,0:0:0:0:
112,304,114211,1,0,0:0:0:0:
96,224,114411,2,0,B|88:192|72:160|60:116|96:124,1,105
88,128,114811,2,0,B|128:128|128:128|168:124,1,70
252,148,115211,5,4,0:0:0:0:
456,184,115411,1,0,0:0:0:0:
328,96,115611,1,8,0:0:0:0:
368,288,115811,1,0,0:0:0:0:
240,240,116011,1,0,0:0:0:0:
440,104,116211,1,0,0:0:0:0:
216,68,116411,1,8,0:0:0:0:
136,248,116611,1,0,0:0:0:0:
380,328,116811,5,0,0:0:0:0:
136,320,117011,1,0,0:0:0:0:
380,256,117211,1,8,0:0:0:0:
128,176,117411,1,0,0:0:0:0:
396,164,117611,1,0,0:0:0:0:
268,320,117811,1,0,0:0:0:0:
184,88,118011,1,8,0:0:0:0:
184,88,118111,1,0,0:0:0:0:
184,88,118211,1,0,0:0:0:0:
84,308,118411,5,0,0:0:0:0:
124,84,118611,1,0,0:0:0:0:
224,312,118811,1,8,0:0:0:0:
176,96,119011,1,0,0:0:0:0:
316,260,119211,1,0,0:0:0:0:
224,76,119411,1,0,0:0:0:0:
404,156,119611,1,8,0:0:0:0:
100,244,119811,1,0,0:0:0:0:
340,284,120011,5,4,0:0:0:0:
104,72,120411,1,4,0:0:0:0:
384,100,120811,1,4,0:0:0:0:
160,200,121111,1,4,0:0:0:0:
408,192,121411,1,4,0:0:0:0:
320,64,121611,5,4,0:0:0:0:
104,92,121811,1,0,0:0:0:0:
144,284,122011,1,8,0:0:0:0:
360,232,122211,1,0,0:0:0:0:
224,64,122411,1,0,0:0:0:0:
88,196,122611,1,0,0:0:0:0:
228,336,122811,1,8,0:0:0:0:
348,196,123011,1,0,0:0:0:0:
184,184,123211,5,0,0:0:0:0:
356,56,123411,1,0,0:0:0:0:
412,304,123611,1,8,0:0:0:0:
120,92,123811,1,0,0:0:0:0:
432,136,124011,1,0,0:0:0:0:
144,296,124211,1,0,0:0:0:0:
268,164,124411,1,8,0:0:0:0:
268,164,124511,1,0,0:0:0:0:
268,164,124611,1,0,0:0:0:0:
340,304,124811,5,0,0:0:0:0:
388,148,125011,1,0,0:0:0:0:
292,284,125211,5,8,0:0:0:0:
312,100,125411,1,0,0:0:0:0:
240,272,125611,5,0,0:0:0:0:
224,68,125811,1,0,0:0:0:0:
192,296,126011,5,8,0:0:0:0:
116,76,126211,1,0,0:0:0:0:
432,184,126411,1,4,0:0:0:0:
104,296,126811,1,4,0:0:0:0:
256,192,127211,1,12,0:0:0:0:
100,84,128011,5,4,0:0:0:0:
400,60,128211,1,0,0:0:0:0:
88,160,128411,1,0,0:0:0:0:
416,132,128611,1,0,0:0:0:0:
92,220,128811,1,0,0:0:0:0:
416,224,129011,1,0,0:0:0:0:
88,304,129211,1,0,0:0:0:0:
416,312,129411,1,0,0:0:0:0:
312,144,129611,5,0,0:0:0:0:
312,332,129811,1,0,0:0:0:0:
196,180,130011,1,0,0:0:0:0:
384,232,130211,1,0,0:0:0:0:
200,300,130411,1,0,0:0:0:0:
312,144,130611,1,0,0:0:0:0:
372,88,130811,5,0,0:0:0:0:
372,88,130911,1,0,0:0:0:0:
372,88,131011,1,0,0:0:0:0:
116,288,131211,5,0,0:0:0:0:
424,260,131411,1,0,0:0:0:0:
96,212,131611,1,0,0:0:0:0:
408,200,131811,1,0,0:0:0:0:
112,144,132011,1,0,0:0:0:0:
388,112,132211,1,0,0:0:0:0:
296,232,132411,1,0,0:0:0:0:
352,304,132611,2,0,B|368:344|396:348|420:332|436:324|432:284|404:264,1,140
260,184,133211,1,0,0:0:0:0:
164,76,133411,2,0,B|128:44|96:52|80:72|80:120|124:128,1,140
200,160,134011,5,0,0:0:0:0:
200,160,134211,1,0,0:0:0:0:
92,268,134411,5,0,0:0:0:0:
400,300,134611,1,0,0:0:0:0:
88,204,134811,1,0,0:0:0:0:
436,208,135011,1,0,0:0:0:0:
108,152,135211,1,0,0:0:0:0:
432,116,135411,1,0,0:0:0:0:
128,108,135611,1,0,0:0:0:0:
416,64,135811,1,0,0:0:0:0:
108,48,136011,5,0,0:0:0:0:
416,64,136211,1,0,0:0:0:0:
112,128,136411,1,0,0:0:0:0:
408,148,136611,1,0,0:0:0:0:
100,200,136811,1,0,0:0:0:0:
404,220,137011,1,0,0:0:0:0:
92,280,137211,1,0,0:0:0:0:
96,284,137311,1,0,0:0:0:0:
96,284,137411,1,0,0:0:0:0:
112,136,137611,5,0,0:0:0:0:
224,288,137811,1,0,0:0:0:0:
212,92,138011,1,0,0:0:0:0:
104,252,138211,1,0,0:0:0:0:
280,180,138411,1,0,0:0:0:0:
112,140,138611,1,0,0:0:0:0:
112,140,138811,1,0,0:0:0:0:
92,68,139011,6,0,L|232:88,1,140
272,104,139611,1,0,0:0:0:0:
320,128,139811,1,0,0:0:0:0:
360,168,140011,1,0,0:0:0:0:
216,172,140311,1,0,0:0:0:0:
412,44,140611,1,0,0:0:0:0:
332,116,140811,5,4,0:0:0:0:
152,268,141011,1,0,0:0:0:0:
192,288,141111,1,0,0:0:0:0:
236,308,141211,1,8,0:0:0:0:
332,116,141411,1,0,0:0:0:0:
412,276,141611,1,0,0:0:0:0:
436,240,141711,1,0,0:0:0:0:
192,164,142011,1,8,0:0:0:0:
448,168,142211,1,0,0:0:0:0:
388,288,142411,5,0,0:0:0:0:
336,80,142611,1,0,0:0:0:0:
296,92,142711,1,0,0:0:0:0:
268,132,142811,1,8,0:0:0:0:
144,276,143011,1,0,0:0:0:0:
392,176,143211,1,0,0:0:0:0:
368,136,143311,1,0,0:0:0:0:
136,144,143611,1,8,0:0:0:0:
144,196,143711,1,0,0:0:0:0:
168,244,143811,1,0,0:0:0:0:
232,328,144011,5,0,0:0:0:0:
96,112,144211,1,0,0:0:0:0:
136,88,144311,1,0,0:0:0:0:
180,80,144411,1,8,0:0:0:0:
328,68,144611,5,0,0:0:0:0:
120,172,144811,1,0,0:0:0:0:
152,212,144911,1,0,0:0:0:0:
208,292,145211,1,8,0:0:0:0:
248,268,145311,1,0,0:0:0:0:
288,260,145411,1,0,0:0:0:0:
324,260,145511,1,0,0:0:0:0:
368,272,145611,1,0,0:0:0:0:
144,100,146011,5,8,0:0:0:0:
268,324,146211,1,0,0:0:0:0:
408,204,146411,1,0,0:0:0:0:
100,220,146711,1,0,0:0:0:0:
100,220,146811,1,8,0:0:0:0:
144,64,147011,1,0,0:0:0:0:
400,112,147211,5,0,0:0:0:0:
444,300,147411,1,0,0:0:0:0:
404,320,147511,1,0,0:0:0:0:
360,332,147611,1,8,0:0:0:0:
212,164,147811,1,0,0:0:0:0:
88,272,148011,1,0,0:0:0:0:
108,304,148111,1,0,0:0:0:0:
276,308,148411,1,8,0:0:0:0:
416,208,148611,1,0,0:0:0:0:
376,312,148811,5,0,0:0:0:0:
132,328,149011,1,0,0:0:0:0:
128,284,149111,1,0,0:0:0:0:
152,240,149211,1,8,0:0:0:0:
220,80,149411,1,0,0:0:0:0:
312,272,149611,1,0,0:0:0:0:
348,256,149711,1,0,0:0:0:0:
428,92,150011,1,8,0:0:0:0:
392,72,150111,1,0,0:0:0:0:
348,60,150211,1,0,0:0:0:0:
268,128,150411,5,4,0:0:0:0:
148,236,150611,1,0,0:0:0:0:
184,260,150711,1,0,0:0:0:0:
224,280,150811,1,8,0:0:0:0:
412,184,151011,1,0,0:0:0:0:
104,176,151211,1,4,0:0:0:0:
128,140,151311,1,0,0:0:0:0:
208,316,151611,1,8,0:0:0:0:
248,284,151711,1,0,0:0:0:0:
280,248,151811,1,0,0:0:0:0:
308,212,151911,1,0,0:0:0:0:
332,172,152011,1,4,0:0:0:0:
256,192,152061,12,4,153211,0:0:0:0:
144,288,153611,5,4,0:0:0:0:
392,216,153811,1,0,0:0:0:0:
196,128,154011,1,0,0:0:0:0:
336,336,154211,1,0,0:0:0:0:
348,120,154411,1,0,0:0:0:0:
216,256,154611,1,0,0:0:0:0:
80,148,154811,1,0,0:0:0:0:
276,84,155011,1,0,0:0:0:0:
344,264,155211,5,0,0:0:0:0:
108,148,155411,1,0,0:0:0:0:
400,152,155611,1,0,0:0:0:0:
104,312,155811,1,0,0:0:0:0:
112,80,156011,5,0,0:0:0:0:
144,304,156211,1,0,0:0:0:0:
220,80,156411,5,0,0:0:0:0:
224,284,156611,1,0,0:0:0:0:
336,68,156811,5,0,0:0:0:0:
164,252,157011,1,0,0:0:0:0:
392,232,157211,1,0,0:0:0:0:
168,124,157411,1,0,0:0:0:0:
308,312,157611,1,0,0:0:0:0:
296,128,157811,1,0,0:0:0:0:
120,308,158011,1,0,0:0:0:0:
440,136,158211,1,0,0:0:0:0:
116,144,158411,5,0,0:0:0:0:
380,248,158611,1,0,0:0:0:0:
264,104,158811,1,0,0:0:0:0:
128,304,159011,1,0,0:0:0:0:
384,272,159211,5,0,0:0:0:0:
112,272,159411,1,0,0:0:0:0:
396,184,159611,5,0,0:0:0:0:
112,152,159811,1,0,0:0:0:0:
288,72,160011,5,0,0:0:0:0:
120,260,160211,1,0,0:0:0:0:
412,184,160411,1,0,0:0:0:0:
104,136,160611,1,0,0:0:0:0:
320,316,160811,1,0,0:0:0:0:
248,104,161011,1,0,0:0:0:0:
144,312,161211,1,0,0:0:0:0:
376,128,161411,1,0,0:0:0:0:
112,156,161611,5,0,0:0:0:0:
384,268,161811,1,0,0:0:0:0:
280,76,162011,1,0,0:0:0:0:
164,332,162211,1,0,0:0:0:0:
380,132,162411,1,0,0:0:0:0:
112,168,162611,1,0,0:0:0:0:
352,288,162811,1,0,0:0:0:0:
240,76,163011,1,0,0:0:0:0:
140,288,163211,5,0,0:0:0:0:
416,196,163411,1,0,0:0:0:0:
112,152,163611,1,0,0:0:0:0:
396,104,163811,1,0,0:0:0:0:
112,60,164011,1,0,0:0:0:0:
356,248,164211,1,0,0:0:0:0:
152,304,164411,1,0,0:0:0:0:
272,112,164611,1,0,0:0:0:0:
256,300,164811,5,0,0:0:0:0:
224,84,165011,1,0,0:0:0:0:
396,168,165211,5,0,0:0:0:0:
140,288,165411,1,0,0:0:0:0:
152,112,165611,5,0,0:0:0:0:
364,280,165911,1,0,0:0:0:0:
216,308,166211,5,0,0:0:0:0:
328,112,166411,1,4,0:0:0:0:
