osu file format v14

[General]
AudioFilename: audio.ogg
AudioLeadIn: 0
PreviewTime: 60994
Countdown: 0
SampleSet: Soft
StackLeniency: 0.7
Mode: 3
LetterboxInBreaks: 0
SpecialStyle: 0
WidescreenStoryboard: 1

[Editor]
Bookmarks: 13647,19963,26279,32594,45226,56279,61015,73647
DistanceSpacing: 0.5
BeatDivisor: 4
GridSize: 32
TimelineZoom: 1.5

[Metadata]
Title:Venom (Cut Ver.)
TitleUnicode:ベノム (Cut Ver.)
Artist:Kairiki bear feat. flower
ArtistUnicode:かいりきベア feat. flower
Creator:zyletinee
Version:Expert
Source:
Tags:AnatharaX Veridore Chrisse Kairikibear フラワ vflower v DJ NIGHT ブイフラワ vocaloid ボーカロイド japanese rock jrock j-rock benomu
BeatmapID:4454409
BeatmapSetID:1984831

[Difficulty]
HPDrainRate:8
CircleSize:4
OverallDifficulty:7.7
ApproachRate:5
SliderMultiplier:1.4
SliderTickRate:1

[Events]
//Background and Video events
0,0,"venom.jpg",0,0
//Break Periods
//Storyboard Layer 0 (Background)
//Storyboard Layer 1 (Fail)
//Storyboard Layer 2 (Pass)
//Storyboard Layer 3 (Foreground)
//Storyboard Layer 4 (Overlay)
//Storyboard Sound Samples
Sample,108557,0,"finish.wav",50
Sample,141912,0,"Hat Open.wav",20

[TimingPoints]
1587,394.736842105263,4,2,1,70,1,0
61586,-100,4,2,1,70,0,1
74215,394.736842105263,4,2,1,70,1,0
105793,-100,4,2,1,70,0,1
111714,-100,4,2,1,70,0,0
112109,-100,4,2,1,70,0,1
126122,-100,4,2,1,70,0,0
126320,-100,4,2,1,70,0,1
127899,-100,4,2,1,70,0,0

[HitObjects]
64,192,1192,128,0,1389:0:0:0:45:snare.wav
192,192,1192,128,0,1389:0:0:0:30:Hat Open.wav
320,192,1192,1,0,0:0:0:0:
64,192,1587,1,0,0:0:0:60:kick.wav
320,192,1587,1,0,0:0:0:50:finish.wav
448,192,1587,128,0,1883:0:0:0:0:
192,192,1784,128,0,1883:0:0:0:20:Hat Open.wav
64,192,1981,1,0,0:0:0:45:snare.wav
192,192,1981,1,0,0:0:0:0:
448,192,1981,128,0,2277:0:0:0:0:
192,192,2179,128,0,2277:0:0:0:20:Hat Open.wav
64,192,2376,128,0,2771:0:0:0:60:kick.wav
448,192,2376,1,0,0:0:0:0:
320,192,2573,1,0,0:0:0:20:Hat Open.wav
448,192,2672,128,0,2771:0:0:0:0:
192,192,2771,1,0,0:0:0:45:snare.wav
320,192,2771,1,0,0:0:0:0:
192,192,2968,128,0,3363:0:0:0:20:Hat Open.wav
320,192,3067,128,0,3363:0:0:0:0:
64,192,3165,1,0,0:0:0:60:kick.wav
448,192,3165,1,0,0:0:0:0:
448,192,3363,128,0,3560:0:0:0:20:Hat Open.wav
64,192,3560,1,0,0:0:0:45:snare.wav
192,192,3560,1,0,0:0:0:0:
320,192,3560,128,0,3758:0:0:0:0:
64,192,3758,128,0,3955:0:0:0:20:Hat Open.wav
320,192,3955,128,0,4152:0:0:0:60:kick.wav
448,192,3955,1,0,0:0:0:0:
192,192,4152,1,0,0:0:0:20:Hat Open.wav
64,192,4251,1,0,0:0:0:0:
192,192,4350,128,0,4744:0:0:0:45:snare.wav
320,192,4350,1,0,0:0:0:0:
448,192,4350,1,0,0:0:0:0:
64,192,4547,1,0,0:0:0:20:Hat Open.wav
320,192,4744,128,0,5040:0:0:0:60:kick.wav
448,192,4744,1,0,0:0:0:0:
64,192,4942,128,0,5040:0:0:0:20:Hat Open.wav
192,192,5139,1,0,0:0:0:45:snare.wav
320,192,5139,128,0,5435:0:0:0:0:
448,192,5139,1,0,0:0:0:0:
64,192,5336,128,0,5435:0:0:0:20:Hat Open.wav
64,192,5534,1,0,0:0:0:60:kick.wav
448,192,5534,128,0,5929:0:0:0:0:
320,192,5731,1,0,0:0:0:20:Hat Open.wav
192,192,5830,128,0,5929:0:0:0:0:
64,192,5929,1,0,0:0:0:45:snare.wav
320,192,5929,1,0,0:0:0:0:
64,192,6126,128,0,6521:0:0:0:20:Hat Open.wav
320,192,6225,128,0,6521:0:0:0:0:
192,192,6323,1,0,0:0:0:60:kick.wav
448,192,6323,1,0,0:0:0:0:
192,192,6521,128,0,6718:0:0:0:20:Hat Open.wav
64,192,6718,1,0,0:0:0:45:snare.wav
320,192,6718,1,0,0:0:0:0:
448,192,6718,128,0,6915:0:0:0:0:
320,192,6915,128,0,7113:0:0:0:20:Hat Open.wav
64,192,7113,1,0,0:0:0:60:kick.wav
448,192,7113,128,0,7310:0:0:0:0:
192,192,7310,1,0,0:0:0:20:Hat Open.wav
320,192,7409,1,0,0:0:0:0:
64,192,7508,128,0,7902:0:0:0:45:snare.wav
192,192,7508,1,0,0:0:0:0:
448,192,7508,1,0,0:0:0:0:
320,192,7705,1,0,0:0:0:20:Hat Open.wav
192,192,7902,1,0,0:0:0:60:kick.wav
320,192,7902,1,0,0:0:0:50:finish.wav
448,192,7902,128,0,8198:0:0:0:0:
64,192,8100,128,0,8198:0:0:0:20:Hat Open.wav
192,192,8297,1,0,0:0:0:45:snare.wav
320,192,8297,1,0,0:0:0:0:
448,192,8297,128,0,8593:0:0:0:0:
64,192,8494,128,0,8593:0:0:0:20:Hat Open.wav
192,192,8692,128,0,9086:0:0:0:60:kick.wav
448,192,8692,1,0,0:0:0:0:
320,192,8889,1,0,0:0:0:20:Hat Open.wav
448,192,8988,128,0,9086:0:0:0:0:
64,192,9086,1,0,0:0:0:45:snare.wav
320,192,9086,1,0,0:0:0:0:
64,192,9284,128,0,9679:0:0:0:20:Hat Open.wav
448,192,9383,128,0,9679:0:0:0:0:
192,192,9481,1,0,0:0:0:60:kick.wav
320,192,9481,1,0,0:0:0:0:
320,192,9679,128,0,9876:0:0:0:20:Hat Open.wav
64,192,9876,1,0,0:0:0:45:snare.wav
192,192,9876,128,0,10073:0:0:0:0:
448,192,9876,1,0,0:0:0:0:
448,192,10073,128,0,10271:0:0:0:20:Hat Open.wav
64,192,10271,1,0,0:0:0:60:kick.wav
192,192,10271,128,0,10468:0:0:0:0:
320,192,10468,1,0,0:0:0:20:Hat Open.wav
192,192,10567,1,0,0:0:0:0:
64,192,10665,1,0,0:0:0:45:snare.wav
320,192,10665,128,0,11060:0:0:0:0:
448,192,10665,1,0,0:0:0:0:
192,192,10863,1,0,0:0:0:20:Hat Open.wav
64,192,11060,128,0,11356:0:0:0:60:kick.wav
448,192,11060,1,0,0:0:0:0:
448,192,11258,128,0,11356:0:0:0:20:Hat Open.wav
64,192,11455,128,0,11751:0:0:0:45:snare.wav
192,192,11455,1,0,0:0:0:0:
320,192,11455,1,0,0:0:0:0:
448,192,11652,128,0,11751:0:0:0:20:Hat Open.wav
64,192,11850,1,0,0:0:0:60:kick.wav
192,192,11850,128,0,12244:0:0:0:0:
448,192,12047,1,0,0:0:0:20:Hat Open.wav
320,192,12146,128,0,12244:0:0:0:0:
64,192,12244,1,0,0:0:0:45:snare.wav
448,192,12244,1,0,0:0:0:0:
64,192,12442,128,0,12836:0:0:0:20:Hat Open.wav
192,192,12540,128,0,12836:0:0:0:0:
320,192,12639,1,0,0:0:0:60:kick.wav
448,192,12639,1,0,0:0:0:0:
448,192,12836,128,0,13034:0:0:0:20:Hat Open.wav
64,192,13034,1,0,0:0:0:45:snare.wav
192,192,13034,128,0,13231:0:0:0:0:
320,192,13034,1,0,0:0:0:0:
320,192,13231,128,0,13429:0:0:0:20:Hat Open.wav
192,192,13429,128,0,13626:0:0:0:60:kick.wav
448,192,13429,1,0,0:0:0:0:
64,192,13626,1,0,0:0:0:20:Hat Open.wav
192,192,13725,1,0,0:0:0:0:
64,192,13823,128,0,14218:0:0:0:45:snare.wav
320,192,13823,1,0,0:0:0:0:
448,192,13823,1,0,0:0:0:0:
448,192,14021,128,0,14218:0:0:0:20:Hat Open.wav
192,192,14218,1,0,0:0:0:60:kick.wav
320,192,14218,1,0,0:0:0:50:finish.wav
64,192,14317,1,0,0:0:0:0:
192,192,14415,128,0,14613:0:0:0:0:
64,192,14613,1,0,0:0:0:45:snare.wav
448,192,14613,128,0,14711:0:0:0:0:
448,192,14810,128,0,15008:0:0:0:20:Hat Close.wav
64,192,15008,128,0,15304:0:0:0:60:kick.wav
192,192,15008,1,0,0:0:0:0:
320,192,15205,1,0,0:0:0:20:Hat Close.wav
448,192,15304,1,0,0:0:0:0:
192,192,15402,1,0,0:0:0:45:snare.wav
320,192,15402,1,0,0:0:0:0:
64,192,15600,1,0,0:0:0:20:Hat Close.wav
192,192,15698,1,0,0:0:0:0:
320,192,15797,1,0,0:0:0:60:kick.wav
448,192,15797,128,0,15994:0:0:0:0:
192,192,15994,128,0,16192:0:0:0:20:Hat Close.wav
64,192,16192,128,0,16586:0:0:0:45:snare.wav
448,192,16192,1,0,0:0:0:0:
320,192,16389,128,0,16586:0:0:0:20:Hat Close.wav
192,192,16586,1,0,0:0:0:60:kick.wav
448,192,16586,128,0,16883:0:0:0:0:
192,192,16784,128,0,16981:0:0:0:20:Hat Close.wav
320,192,16981,1,0,0:0:0:45:snare.wav
448,192,16981,1,0,0:0:0:0:
64,192,17080,1,0,0:0:0:0:
192,192,17179,128,0,17376:0:0:0:20:Hat Close.wav
64,192,17376,1,0,0:0:0:60:kick.wav
448,192,17376,128,0,17475:0:0:0:0:
448,192,17573,128,0,17771:0:0:0:20:Hat Close.wav
64,192,17771,128,0,17869:0:0:0:45:snare.wav
192,192,17771,1,0,0:0:0:0:
64,192,17968,128,0,18165:0:0:0:20:Hat Close.wav
192,192,18165,128,0,18461:0:0:0:60:kick.wav
320,192,18165,1,0,0:0:0:0:
448,192,18363,1,0,0:0:0:20:Hat Close.wav
320,192,18461,1,0,0:0:0:0:
64,192,18560,1,0,0:0:0:45:snare.wav
448,192,18560,1,0,0:0:0:0:
192,192,18758,1,0,0:0:0:20:Hat Close.wav
192,192,18856,1,0,0:0:0:0:
64,192,18955,1,0,0:0:0:60:kick.wav
320,192,18955,128,0,19152:0:0:0:0:
64,192,19152,128,0,19350:0:0:0:20:Hat Close.wav
320,192,19350,128,0,19448:0:0:0:45:snare.wav
448,192,19350,1,0,0:0:0:0:
320,192,19547,128,0,19744:0:0:0:20:Hat Close.wav
64,192,19744,1,0,0:0:0:60:kick.wav
448,192,19744,1,0,0:0:0:0:
192,192,19843,1,0,0:0:0:0:
320,192,19942,1,0,0:0:0:20:Hat Close.wav
320,192,20040,1,0,0:0:0:0:
64,192,20139,1,0,0:0:0:45:snare.wav
192,192,20139,128,0,20534:0:0:0:0:
448,192,20139,128,0,20435:0:0:0:0:
320,192,20336,1,0,0:0:0:20:Hat Close.wav
64,192,20534,1,0,0:0:0:60:kick.wav
320,192,20534,128,0,20633:0:0:0:50:finish.wav
448,192,20534,128,0,20633:0:0:0:0:
192,192,20633,128,0,20731:0:0:0:0:
320,192,20731,128,0,20929:0:0:0:20:Hat Close.wav
64,192,20830,128,0,21027:0:0:0:0:
192,192,20929,128,0,21126:0:0:0:45:snare.wav
448,192,20929,1,0,0:0:0:0:
320,192,21126,1,0,0:0:0:20:Hat Close.wav
64,192,21323,128,0,21422:0:0:0:60:kick.wav
448,192,21323,128,0,21422:0:0:0:0:
192,192,21422,128,0,21521:0:0:0:0:
448,192,21521,128,0,21619:0:0:0:20:Hat Close.wav
192,192,21619,128,0,21817:0:0:0:0:
320,192,21619,128,0,21718:0:0:0:0:
64,192,21718,128,0,21817:0:0:0:45:snare.wav
448,192,21718,1,0,0:0:0:0:
64,192,21915,128,0,22014:0:0:0:20:Hat Close.wav
448,192,22014,128,0,22113:0:0:0:0:
192,192,22113,128,0,22211:0:0:0:60:kick.wav
320,192,22113,128,0,22211:0:0:0:0:
64,192,22211,128,0,22310:0:0:0:0:
320,192,22310,128,0,22508:0:0:0:20:Hat Close.wav
448,192,22409,128,0,22606:0:0:0:0:
64,192,22508,128,0,22705:0:0:0:45:snare.wav
192,192,22508,1,0,0:0:0:0:
320,192,22705,1,0,0:0:0:20:Hat Close.wav
320,192,22804,128,0,22902:0:0:0:0:
192,192,22902,128,0,23001:0:0:0:60:kick.wav
448,192,22902,128,0,23001:0:0:0:0:
64,192,23001,128,0,23100:0:0:0:0:
192,192,23100,128,0,23297:0:0:0:20:Hat Close.wav
448,192,23198,128,0,23396:0:0:0:0:
64,192,23297,128,0,23692:0:0:0:45:snare.wav
320,192,23297,128,0,23396:0:0:0:0:
320,192,23494,128,0,23692:0:0:0:20:Hat Close.wav
192,192,23692,128,0,23790:0:0:0:60:kick.wav
448,192,23692,128,0,23790:0:0:0:0:
64,192,23889,128,0,23988:0:0:0:20:Hat Close.wav
448,192,23889,128,0,24086:0:0:0:0:
192,192,24086,1,0,0:0:0:45:snare.wav
320,192,24086,128,0,24284:0:0:0:0:
192,192,24185,1,0,0:0:0:0:
64,192,24284,128,0,24481:0:0:0:20:Hat Close.wav
448,192,24284,1,0,0:0:0:0:
192,192,24481,128,0,24777:0:0:0:60:kick.wav
448,192,24481,1,0,0:0:0:0:
320,192,24679,1,0,0:0:0:20:Hat Close.wav
320,192,24777,1,0,0:0:0:0:
64,192,24876,1,0,0:0:0:45:snare.wav
448,192,24876,128,0,25073:0:0:0:0:
192,192,25073,1,0,0:0:0:20:Hat Close.wav
192,192,25172,1,0,0:0:0:0:
64,192,25271,128,0,25369:0:0:0:60:kick.wav
320,192,25271,128,0,25369:0:0:0:0:
64,192,25468,128,0,25665:0:0:0:20:Hat Close.wav
448,192,25468,128,0,25567:0:0:0:0:
192,192,25665,128,0,25764:0:0:0:45:snare.wav
320,192,25665,128,0,25863:0:0:0:0:
64,192,25764,128,0,25863:0:0:0:0:
448,192,25863,128,0,26060:0:0:0:20:Hat Close.wav
192,192,26060,128,0,26258:0:0:0:60:kick.wav
320,192,26060,128,0,26159:0:0:0:0:
64,192,26159,128,0,26258:0:0:0:0:
320,192,26258,1,0,0:0:0:50:Tom1.wav
448,192,26258,1,0,0:0:0:20:Hat Close.wav
64,192,26356,1,0,0:0:0:50:Tom1.wav
192,192,26356,1,0,0:0:0:0:
320,192,26455,1,0,0:0:0:50:Tom2.wav
448,192,26455,1,0,0:0:0:0:
64,192,26554,1,0,0:0:0:50:Tom2.wav
192,192,26554,1,0,0:0:0:0:
320,192,26652,1,0,0:0:0:50:Tom3.wav
448,192,26652,1,0,0:0:0:20:Hat Close.wav
64,192,26751,1,0,0:0:0:50:Tom3.wav
192,192,26751,1,0,0:0:0:0:
64,192,26850,128,0,27146:0:0:0:60:kick.wav
320,192,26850,1,0,0:0:0:50:finish.wav
448,192,26850,1,0,0:0:0:0:
320,192,27047,128,0,27146:0:0:0:20:Hat Open.wav
64,192,27244,128,0,27540:0:0:0:45:snare.wav
192,192,27244,1,0,0:0:0:0:
448,192,27244,1,0,0:0:0:0:
320,192,27442,128,0,27540:0:0:0:20:Hat Open.wav
192,192,27639,1,0,0:0:0:60:kick.wav
448,192,27639,128,0,28034:0:0:0:0:
64,192,27836,1,0,0:0:0:20:Hat Open.wav
320,192,27935,128,0,28034:0:0:0:0:
64,192,28034,1,0,0:0:0:45:snare.wav
192,192,28034,1,0,0:0:0:0:
192,192,28231,128,0,28626:0:0:0:20:Hat Open.wav
320,192,28330,128,0,28626:0:0:0:0:
64,192,28429,1,0,0:0:0:60:kick.wav
448,192,28429,1,0,0:0:0:0:
64,192,28626,128,0,28823:0:0:0:20:Hat Open.wav
192,192,28823,128,0,29021:0:0:0:45:snare.wav
320,192,28823,1,0,0:0:0:0:
448,192,28823,1,0,0:0:0:0:
448,192,29021,128,0,29218:0:0:0:20:Hat Open.wav
192,192,29218,128,0,29415:0:0:0:60:kick.wav
320,192,29218,1,0,0:0:0:0:
64,192,29415,1,0,0:0:0:20:Hat Open.wav
448,192,29514,1,0,0:0:0:0:
64,192,29613,1,0,0:0:0:45:snare.wav
192,192,29613,1,0,0:0:0:0:
320,192,29613,128,0,30008:0:0:0:0:
448,192,29810,1,0,0:0:0:20:Hat Open.wav
64,192,30008,1,0,0:0:0:60:kick.wav
192,192,30008,128,0,30304:0:0:0:0:
448,192,30205,128,0,30304:0:0:0:20:Hat Open.wav
64,192,30402,1,0,0:0:0:45:snare.wav
192,192,30402,128,0,30698:0:0:0:0:
320,192,30402,1,0,0:0:0:0:
448,192,30600,128,0,30698:0:0:0:20:Hat Open.wav
64,192,30797,128,0,31192:0:0:0:60:kick.wav
320,192,30797,1,0,0:0:0:0:
448,192,30994,1,0,0:0:0:20:Hat Open.wav
192,192,31093,128,0,31192:0:0:0:0:
320,192,31192,1,0,0:0:0:45:snare.wav
448,192,31192,1,0,0:0:0:0:
320,192,31389,128,0,31784:0:0:0:20:Hat Open.wav
192,192,31488,128,0,31784:0:0:0:0:
64,192,31586,1,0,0:0:0:60:kick.wav
448,192,31586,1,0,0:0:0:0:
448,192,31784,128,0,31981:0:0:0:20:Hat Open.wav
64,192,31981,128,0,32179:0:0:0:45:snare.wav
192,192,31981,1,0,0:0:0:0:
320,192,31981,1,0,0:0:0:0:
320,192,32179,128,0,32376:0:0:0:20:Hat Open.wav
64,192,32376,128,0,32573:0:0:0:60:kick.wav
448,192,32376,1,0,0:0:0:0:
192,192,32573,1,0,0:0:0:20:Hat Open.wav
320,192,32672,1,0,0:0:0:0:
64,192,32771,1,0,0:0:0:45:snare.wav
192,192,32771,1,0,0:0:0:0:
448,192,32771,128,0,33165:0:0:0:0:
64,192,32968,128,0,33165:0:0:0:20:Hat Open.wav
192,192,33165,128,0,33264:0:0:0:60:kick.wav
320,192,33165,1,0,0:0:0:50:finish.wav
320,192,33264,1,0,0:0:0:0:
192,192,33363,128,0,33560:0:0:0:20:Hat Close.wav
64,192,33560,1,0,0:0:0:45:snare.wav
448,192,33560,128,0,33758:0:0:0:0:
320,192,33758,128,0,33955:0:0:0:20:Hat Close.wav
64,192,33955,1,0,0:0:0:60:kick.wav
192,192,33955,128,0,34251:0:0:0:0:
448,192,34152,1,0,0:0:0:20:Hat Close.wav
320,192,34251,1,0,0:0:0:0:
64,192,34350,1,0,0:0:0:45:snare.wav
192,192,34350,1,0,0:0:0:0:
192,192,34547,1,0,0:0:0:20:Hat Close.wav
320,192,34646,1,0,0:0:0:0:
64,192,34744,128,0,34942:0:0:0:60:kick.wav
448,192,34744,1,0,0:0:0:0:
192,192,34942,128,0,35139:0:0:0:20:Hat Close.wav
320,192,35139,1,0,0:0:0:45:snare.wav
448,192,35139,128,0,35534:0:0:0:0:
64,192,35336,128,0,35534:0:0:0:20:Hat Close.wav
192,192,35534,128,0,35830:0:0:0:60:kick.wav
320,192,35534,1,0,0:0:0:0:
448,192,35633,1,0,0:0:0:0:
320,192,35731,128,0,35929:0:0:0:20:Hat Close.wav
64,192,35929,1,0,0:0:0:45:snare.wav
448,192,35929,1,0,0:0:0:0:
320,192,36126,128,0,36323:0:0:0:20:Hat Close.wav
64,192,36323,128,0,36521:0:0:0:60:kick.wav
192,192,36323,1,0,0:0:0:0:
448,192,36422,1,0,0:0:0:0:
448,192,36521,128,0,36718:0:0:0:20:Hat Close.wav
64,192,36718,1,0,0:0:0:45:snare.wav
192,192,36718,128,0,36915:0:0:0:0:
320,192,36915,128,0,37113:0:0:0:20:Hat Close.wav
64,192,37113,128,0,37409:0:0:0:60:kick.wav
192,192,37113,1,0,0:0:0:0:
320,192,37310,1,0,0:0:0:20:Hat Close.wav
192,192,37409,1,0,0:0:0:0:
320,192,37508,1,0,0:0:0:45:snare.wav
448,192,37508,1,0,0:0:0:0:
192,192,37705,1,0,0:0:0:20:Hat Close.wav
192,192,37804,1,0,0:0:0:0:
64,192,37902,1,0,0:0:0:60:kick.wav
448,192,37902,128,0,38100:0:0:0:0:
192,192,38100,128,0,38297:0:0:0:20:Hat Close.wav
64,192,38297,1,0,0:0:0:45:snare.wav
448,192,38297,128,0,38396:0:0:0:0:
448,192,38494,128,0,38692:0:0:0:20:Hat Close.wav
192,192,38692,1,0,0:0:0:60:kick.wav
320,192,38692,1,0,0:0:0:0:
64,192,38790,1,0,0:0:0:0:
320,192,38889,1,0,0:0:0:20:Hat Close.wav
320,192,38988,1,0,0:0:0:0:
64,192,39086,128,0,39481:0:0:0:45:snare.wav
192,192,39086,128,0,39383:0:0:0:0:
448,192,39086,1,0,0:0:0:0:
320,192,39284,1,0,0:0:0:20:Hat Close.wav
192,192,39481,128,0,39580:0:0:0:60:kick.wav
320,192,39481,1,0,0:0:0:50:finish.wav
448,192,39481,1,0,0:0:0:0:
64,192,39580,128,0,39679:0:0:0:0:
192,192,39679,128,0,39876:0:0:0:20:Hat Close.wav
448,192,39679,128,0,39777:0:0:0:0:
320,192,39777,128,0,39975:0:0:0:0:
64,192,39876,1,0,0:0:0:45:snare.wav
448,192,39876,128,0,40073:0:0:0:0:
192,192,40073,1,0,0:0:0:20:Hat Close.wav
320,192,40271,128,0,40369:0:0:0:60:kick.wav
448,192,40271,1,0,0:0:0:0:
64,192,40369,128,0,40468:0:0:0:0:
192,192,40468,128,0,40567:0:0:0:20:Hat Close.wav
448,192,40567,128,0,40764:0:0:0:0:
64,192,40665,1,0,0:0:0:45:snare.wav
320,192,40665,128,0,40764:0:0:0:0:
320,192,40863,128,0,41060:0:0:0:20:Hat Close.wav
64,192,41060,128,0,41159:0:0:0:60:kick.wav
192,192,41060,128,0,41159:0:0:0:0:
448,192,41159,128,0,41258:0:0:0:0:
64,192,41258,128,0,41455:0:0:0:20:Hat Close.wav
320,192,41258,128,0,41356:0:0:0:0:
192,192,41356,128,0,41554:0:0:0:0:
448,192,41455,128,0,41554:0:0:0:45:snare.wav
448,192,41652,128,0,41850:0:0:0:20:Hat Close.wav
192,192,41850,128,0,41948:0:0:0:60:kick.wav
320,192,41850,128,0,41948:0:0:0:0:
64,192,41948,128,0,42047:0:0:0:0:
320,192,42047,128,0,42244:0:0:0:20:Hat Close.wav
448,192,42047,128,0,42146:0:0:0:0:
192,192,42146,128,0,42343:0:0:0:0:
64,192,42244,128,0,42639:0:0:0:45:snare.wav
448,192,42244,128,0,42343:0:0:0:0:
320,192,42442,128,0,42639:0:0:0:20:Hat Close.wav
192,192,42639,128,0,42836:0:0:0:60:kick.wav
448,192,42639,1,0,0:0:0:0:
320,192,42738,128,0,42836:0:0:0:0:
64,192,42836,128,0,43034:0:0:0:20:Hat Close.wav
320,192,43034,1,0,0:0:0:45:snare.wav
448,192,43034,128,0,43231:0:0:0:0:
192,192,43133,128,0,43231:0:0:0:0:
64,192,43231,128,0,43429:0:0:0:20:Hat Close.wav
320,192,43231,1,0,0:0:0:0:
448,192,43330,128,0,43429:0:0:0:0:
192,192,43429,1,0,0:0:0:60:kick.wav
320,192,43429,128,0,43725:0:0:0:0:
192,192,43626,128,0,43725:0:0:0:20:Hat Close.wav
64,192,43725,1,0,0:0:0:0:
192,192,43823,1,0,0:0:0:45:snare.wav
448,192,43823,128,0,44021:0:0:0:0:
320,192,44021,1,0,0:0:0:20:Hat Close.wav
320,192,44119,1,0,0:0:0:0:
64,192,44218,128,0,44415:0:0:0:60:kick.wav
192,192,44218,1,0,0:0:0:0:
320,192,44317,128,0,44415:0:0:0:0:
448,192,44415,128,0,44613:0:0:0:20:Hat Close.wav
192,192,44514,128,0,44613:0:0:0:0:
64,192,44613,1,0,0:0:0:45:snare.wav
320,192,44613,128,0,44810:0:0:0:0:
192,192,44711,128,0,44810:0:0:0:0:
64,192,44810,128,0,45008:0:0:0:20:Hat Close.wav
448,192,44909,128,0,45008:0:0:0:0:
192,192,45008,128,0,45205:0:0:0:60:kick.wav
320,192,45008,1,0,0:0:0:0:
64,192,45205,1,0,0:0:0:45:snare.wav
320,192,45205,1,0,0:0:0:20:Hat Close.wav
448,192,45205,1,0,0:0:0:0:
320,192,45304,1,0,0:0:0:45:Tom2.wav
448,192,45304,1,0,0:0:0:0:
64,192,45402,1,0,0:0:0:45:Tom3.wav
192,192,45402,1,0,0:0:0:0:
192,192,45600,1,0,0:0:0:45:snare.wav
320,192,45600,1,0,0:0:0:35:finish.wav
448,192,45600,1,0,0:0:0:0:
192,192,45698,1,0,0:0:0:0:
64,192,45797,1,0,0:0:0:60:kick.wav
320,192,45797,1,0,0:0:0:50:finish.wav
448,192,45797,128,0,45994:0:0:0:0:
64,192,45994,128,0,46192:0:0:0:20:Hat Open.wav
320,192,46192,1,0,0:0:0:45:snare.wav
448,192,46192,1,0,0:0:0:0:
64,192,46290,1,0,0:0:0:45:snare.wav
192,192,46290,1,0,0:0:0:0:
320,192,46389,128,0,46586:0:0:0:45:Tom3.wav
448,192,46389,1,0,0:0:0:0:
192,192,46586,128,0,46784:0:0:0:60:kick.wav
448,192,46586,1,0,0:0:0:20:Hat Open.wav
64,192,46784,1,0,0:0:0:0:
64,192,46883,1,0,0:0:0:0:
320,192,46981,128,0,47376:0:0:0:0:
448,192,47179,1,0,0:0:0:25:Hat Close.wav
192,192,47277,1,0,0:0:0:35:Hat Close.wav
64,192,47376,1,0,0:0:0:60:kick.wav
448,192,47376,128,0,47573:0:0:0:45:Splash.wav
192,192,47573,128,0,47771:0:0:0:20:Hat Open.wav
64,192,47771,1,0,0:0:0:40:Tom1.wav
448,192,47771,1,0,0:0:0:0:
192,192,47869,1,0,0:0:0:40:Tom1.wav
320,192,47869,1,0,0:0:0:0:
64,192,47968,128,0,48165:0:0:0:45:Tom2.wav
448,192,47968,1,0,0:0:0:0:
192,192,48165,1,0,0:0:0:60:kick.wav
320,192,48165,128,0,48363:0:0:0:0:
192,192,48264,1,0,0:0:0:0:
64,192,48363,1,0,0:0:0:20:Hat Open.wav
448,192,48363,128,0,48461:0:0:0:0:
64,192,48560,1,0,0:0:0:45:snare.wav
192,192,48560,1,0,0:0:0:0:
448,192,48560,128,0,48955:0:0:0:0:
320,192,48758,1,0,0:0:0:0:
192,192,48856,1,0,0:0:0:45:snare.wav
64,192,48955,128,0,49251:0:0:0:60:kick.wav
320,192,48955,128,0,49054:0:0:0:50:finish.wav
320,192,49152,128,0,49251:0:0:0:20:Hat Open.wav
64,192,49350,1,0,0:0:0:45:snare.wav
192,192,49350,1,0,0:0:0:0:
448,192,49350,1,0,0:0:0:0:
320,192,49448,1,0,0:0:0:45:snare.wav
448,192,49448,1,0,0:0:0:0:
64,192,49547,1,0,0:0:0:45:snare.wav
192,192,49547,128,0,49744:0:0:0:0:
320,192,49744,128,0,49942:0:0:0:60:kick.wav
448,192,49744,1,0,0:0:0:20:Hat Open.wav
64,192,49942,1,0,0:0:0:0:
64,192,50040,1,0,0:0:0:0:
448,192,50139,128,0,50534:0:0:0:0:
64,192,50336,1,0,0:0:0:25:Hat Close.wav
320,192,50435,1,0,0:0:0:35:Hat Close.wav
64,192,50534,1,0,0:0:0:60:kick.wav
192,192,50534,128,0,50731:0:0:0:45:Splash.wav
448,192,50731,128,0,50929:0:0:0:20:Hat Open.wav
64,192,50929,1,0,0:0:0:45:snare.wav
192,192,50929,1,0,0:0:0:0:
320,192,50929,1,0,0:0:0:0:
320,192,51027,1,0,0:0:0:45:snare.wav
448,192,51027,1,0,0:0:0:0:
64,192,51126,1,0,0:0:0:60:Tom3.wav
192,192,51126,128,0,51323:0:0:0:0:
320,192,51323,128,0,51521:0:0:0:60:kick.wav
448,192,51323,1,0,0:0:0:0:
64,192,51521,1,0,0:0:0:60:kick.wav
192,192,51521,1,0,0:0:0:35:Hat Close.wav
320,192,51619,1,0,0:0:0:60:kick.wav
448,192,51619,1,0,0:0:0:0:
64,192,51718,128,0,52113:0:0:0:45:snare.wav
192,192,51718,1,0,0:0:0:20:Hat Open.wav
448,192,51718,128,0,51915:0:0:0:0:
320,192,51915,128,0,52113:0:0:0:0:
192,192,52113,1,0,0:0:0:60:kick.wav
448,192,52113,1,0,0:0:0:50:finish.wav
192,192,52211,1,0,0:0:0:0:
320,192,52310,1,0,0:0:0:20:Hat Open.wav
320,192,52409,1,0,0:0:0:0:
64,192,52508,1,0,0:0:0:45:snare.wav
192,192,52508,1,0,0:0:0:0:
320,192,52606,1,0,0:0:0:45:snare.wav
448,192,52606,1,0,0:0:0:0:
64,192,52705,128,0,52902:0:0:0:45:Tom2.wav
192,192,52705,1,0,0:0:0:0:
320,192,52902,1,0,0:0:0:60:kick.wav
448,192,52902,128,0,53100:0:0:0:20:Hat Open.wav
192,192,53100,1,0,0:0:0:0:
192,192,53198,1,0,0:0:0:0:
64,192,53297,128,0,53692:0:0:0:0:
448,192,53494,1,0,0:0:0:25:Hat Close.wav
320,192,53593,1,0,0:0:0:35:Hat Close.wav
192,192,53692,128,0,53889:0:0:0:60:kick.wav
448,192,53692,1,0,0:0:0:50:Splash.wav
320,192,53889,128,0,54086:0:0:0:20:Hat Open.wav
64,192,54086,1,0,0:0:0:40:Tom1.wav
448,192,54086,1,0,0:0:0:0:
192,192,54185,1,0,0:0:0:40:Tom1.wav
320,192,54185,1,0,0:0:0:0:
64,192,54284,128,0,54481:0:0:0:45:Tom2.wav
448,192,54284,1,0,0:0:0:0:
192,192,54481,1,0,0:0:0:60:kick.wav
320,192,54481,128,0,54580:0:0:0:0:
448,192,54580,128,0,54679:0:0:0:0:
64,192,54679,1,0,0:0:0:45:snare.wav
192,192,54679,128,0,54876:0:0:0:0:
320,192,54679,1,0,0:0:0:0:
64,192,54876,1,0,0:0:0:45:snare.wav
320,192,54876,1,0,0:0:0:0:
448,192,54876,128,0,54975:0:0:0:0:
192,192,55073,1,0,0:0:0:45:snare.wav
320,192,55073,128,0,55271:0:0:0:0:
448,192,55073,1,0,0:0:0:0:
64,192,55271,128,0,56455:0:0:0:60:kick.wav
192,192,55271,1,0,0:0:0:0:
448,192,55468,1,0,0:0:0:45:Ride.wav
192,192,55665,1,0,0:0:0:45:snare.wav
320,192,55665,1,0,0:0:0:0:
448,192,55665,1,0,0:0:0:0:
192,192,55863,1,0,0:0:0:45:Ride.wav
320,192,56060,1,0,0:0:0:60:kick.wav
448,192,56060,1,0,0:0:0:0:
192,192,56258,1,0,0:0:0:45:Ride.wav
192,192,56455,1,0,0:0:0:45:snare.wav
320,192,56455,1,0,0:0:0:0:
448,192,56455,1,0,0:0:0:0:
448,192,56652,128,0,56850:0:0:0:45:Ride.wav
64,192,56850,128,0,56948:0:0:0:45:snare.wav
192,192,56850,1,0,0:0:0:0:
320,192,56850,1,0,0:0:0:0:
192,192,57047,1,0,0:0:0:45:snare.wav
320,192,57047,128,0,57146:0:0:0:0:
448,192,57047,1,0,0:0:0:0:
64,192,57244,128,0,57343:0:0:0:45:snare.wav
192,192,57244,1,0,0:0:0:0:
448,192,57244,1,0,0:0:0:0:
192,192,57442,1,0,0:0:0:45:snare.wav
320,192,57442,128,0,57540:0:0:0:0:
448,192,57442,1,0,0:0:0:0:
64,192,57639,128,0,57836:0:0:0:45:snare.wav
192,192,57639,128,0,57836:0:0:0:0:
448,192,57639,1,0,0:0:0:0:
320,192,57836,1,0,0:0:0:60:kick.wav
448,192,57836,1,0,0:0:0:0:
64,192,57935,1,0,0:0:0:60:kick.wav
192,192,57935,1,0,0:0:0:0:
64,192,58034,1,0,0:0:0:45:snare.wav
320,192,58034,1,0,0:0:0:0:
448,192,58034,128,0,58231:0:0:0:0:
192,192,58231,128,0,58429:0:0:0:0:
64,192,58429,1,0,0:0:0:60:kick.wav
320,192,58429,128,0,58823:0:0:0:50:finish.wav
448,192,58429,1,0,0:0:0:0:
64,192,58823,1,0,0:0:0:60:kick.wav
192,192,58823,1,0,0:0:0:50:finish.wav
448,192,58823,128,0,59218:0:0:0:0:
64,192,59218,1,0,0:0:0:60:kick.wav
192,192,59218,1,0,0:0:0:50:finish.wav
320,192,59218,1,0,0:0:0:0:
448,192,59415,1,0,0:0:0:0:
192,192,59481,1,0,0:0:0:0:
64,192,59547,1,0,0:0:0:0:
320,192,59613,1,0,0:0:0:45:Ride.wav
64,192,59810,1,0,0:0:0:60:kick.wav
192,192,59810,1,0,0:0:0:0:
320,192,59909,1,0,0:0:0:60:kick.wav
448,192,59909,1,0,0:0:0:0:
64,192,60008,1,0,0:0:0:45:snare.wav
192,192,60008,1,0,0:0:0:0:
448,192,60008,1,0,0:0:0:0:
64,192,60205,1,0,0:0:0:45:snare.wav
320,192,60205,1,0,0:0:0:0:
448,192,60205,1,0,0:0:0:0:
64,192,60402,1,0,0:0:0:45:snare.wav
192,192,60402,1,0,0:0:0:0:
448,192,60402,1,0,0:0:0:0:
64,192,60600,1,0,0:0:0:45:snare.wav
320,192,60600,1,0,0:0:0:0:
448,192,60600,1,0,0:0:0:0:
192,192,60797,1,0,0:0:0:60:kick.wav
320,192,60797,128,0,60994:0:0:0:20:Hat Open.wav
448,192,60797,1,0,0:0:0:0:
64,192,60994,1,0,0:0:0:60:kick.wav
192,192,60994,1,0,0:0:0:0:
320,192,61093,1,0,0:0:0:60:kick.wav
448,192,61093,1,0,0:0:0:0:
64,192,61192,128,0,61586:0:0:0:60:kick.wav
192,192,61192,1,0,0:0:0:20:Hat Open.wav
448,192,61192,1,0,0:0:0:0:
192,192,61389,128,0,61586:0:0:0:0:
320,192,61586,128,0,61784:0:0:0:60:kick.wav
448,192,61586,128,0,61981:0:0:0:50:finish.wav
64,192,61784,128,0,62179:0:0:0:20:Hat Open.wav
192,192,61981,1,0,0:0:0:45:snare.wav
320,192,61981,128,0,62179:0:0:0:0:
192,192,62179,128,0,62376:0:0:0:20:Hat Open.wav
64,192,62376,128,0,62475:0:0:0:60:kick.wav
448,192,62376,128,0,62475:0:0:0:0:
192,192,62573,128,0,62672:0:0:0:20:Hat Open.wav
448,192,62573,128,0,62771:0:0:0:0:
64,192,62771,128,0,62869:0:0:0:45:snare.wav
192,192,62771,1,0,0:0:0:0:
320,192,62771,1,0,0:0:0:0:
320,192,62869,1,0,0:0:0:0:
64,192,62968,128,0,63165:0:0:0:20:Hat Open.wav
192,192,63165,1,0,0:0:0:60:kick.wav
320,192,63165,128,0,63264:0:0:0:0:
448,192,63165,128,0,63264:0:0:0:0:
192,192,63363,128,0,63461:0:0:0:20:Hat Open.wav
448,192,63363,128,0,63560:0:0:0:0:
64,192,63560,128,0,63758:0:0:0:45:snare.wav
320,192,63560,1,0,0:0:0:0:
320,192,63659,1,0,0:0:0:0:
192,192,63758,128,0,63856:0:0:0:20:Hat Open.wav
320,192,63856,128,0,64152:0:0:0:0:
448,192,63856,128,0,64152:0:0:0:0:
64,192,63955,1,0,0:0:0:60:kick.wav
192,192,63955,1,0,0:0:0:0:
64,192,64152,128,0,64350:0:0:0:20:Hat Open.wav
192,192,64350,128,0,64448:0:0:0:45:snare.wav
320,192,64350,1,0,0:0:0:0:
448,192,64350,1,0,0:0:0:0:
192,192,64547,128,0,64744:0:0:0:20:Hat Open.wav
64,192,64744,128,0,64942:0:0:0:60:kick.wav
448,192,64744,128,0,64942:0:0:0:0:
320,192,64942,1,0,0:0:0:20:Hat Open.wav
192,192,65139,1,0,0:0:0:45:snare.wav
320,192,65139,128,0,65534:0:0:0:0:
448,192,65139,128,0,65534:0:0:0:0:
64,192,65336,1,0,0:0:0:20:Hat Open.wav
64,192,65534,128,0,65633:0:0:0:60:kick.wav
192,192,65534,128,0,65633:0:0:0:0:
320,192,65731,1,0,0:0:0:60:kick.wav
448,192,65731,1,0,0:0:0:20:Hat Open.wav
64,192,65830,1,0,0:0:0:60:kick.wav
192,192,65830,1,0,0:0:0:0:
64,192,65929,128,0,66323:0:0:0:45:snare.wav
320,192,65929,128,0,66323:0:0:0:0:
448,192,65929,128,0,66323:0:0:0:0:
192,192,66126,1,0,0:0:0:20:Hat Open.wav
192,192,66323,128,0,66521:0:0:0:60:kick.wav
320,192,66521,128,0,66619:0:0:0:20:Hat Open.wav
64,192,66718,1,0,0:0:0:45:snare.wav
320,192,66718,128,0,66915:0:0:0:0:
448,192,66718,1,0,0:0:0:0:
192,192,66915,128,0,67014:0:0:0:20:Hat Open.wav
192,192,67113,128,0,67310:0:0:0:60:kick.wav
448,192,67113,128,0,67310:0:0:0:0:
64,192,67310,128,0,67508:0:0:0:20:Hat Open.wav
320,192,67310,128,0,67508:0:0:0:0:
192,192,67508,128,0,67606:0:0:0:45:snare.wav
448,192,67508,128,0,67606:0:0:0:0:
192,192,67705,128,0,67804:0:0:0:20:Hat Open.wav
448,192,67705,128,0,67902:0:0:0:0:
64,192,67902,128,0,68297:0:0:0:60:kick.wav
192,192,67902,1,0,0:0:0:50:finish.wav
320,192,67902,128,0,68100:0:0:0:0:
192,192,68100,128,0,68494:0:0:0:20:Hat Open.wav
320,192,68297,1,0,0:0:0:45:snare.wav
448,192,68297,128,0,68494:0:0:0:0:
64,192,68494,128,0,68692:0:0:0:20:Hat Open.wav
320,192,68692,128,0,68790:0:0:0:60:kick.wav
448,192,68692,128,0,68790:0:0:0:0:
64,192,68889,128,0,68988:0:0:0:20:Hat Open.wav
320,192,68889,128,0,69086:0:0:0:0:
64,192,69086,1,0,0:0:0:45:snare.wav
192,192,69086,128,0,69185:0:0:0:0:
448,192,69086,1,0,0:0:0:0:
448,192,69185,1,0,0:0:0:0:
192,192,69284,128,0,69481:0:0:0:20:Hat Open.wav
64,192,69481,128,0,69580:0:0:0:60:kick.wav
320,192,69481,1,0,0:0:0:50:finish.wav
448,192,69481,128,0,69580:0:0:0:0:
192,192,69679,128,0,69777:0:0:0:0:
448,192,69679,128,0,69876:0:0:0:0:
64,192,69876,1,0,0:0:0:45:snare.wav
192,192,69876,1,0,0:0:0:50:finish.wav
320,192,69876,128,0,70073:0:0:0:0:
192,192,70073,128,0,70172:0:0:0:0:
64,192,70172,128,0,70468:0:0:0:0:
448,192,70172,128,0,70468:0:0:0:0:
192,192,70271,1,0,0:0:0:60:kick.wav
320,192,70271,1,0,0:0:0:50:finish.wav
320,192,70468,128,0,70665:0:0:0:0:
64,192,70665,1,0,0:0:0:45:snare.wav
192,192,70665,128,0,70764:0:0:0:50:finish.wav
448,192,70665,1,0,0:0:0:0:
192,192,70863,128,0,71060:0:0:0:0:
64,192,71060,128,0,71258:0:0:0:60:kick.wav
320,192,71060,128,0,71356:0:0:0:0:
448,192,71060,128,0,71455:0:0:0:0:
192,192,71258,1,0,0:0:0:20:Hat Open.wav
64,192,71455,128,0,71850:0:0:0:45:snare.wav
192,192,71455,128,0,71652:0:0:0:0:
320,192,71455,1,0,0:0:0:0:
448,192,71652,1,0,0:0:0:20:Hat Open.wav
192,192,71850,128,0,72047:0:0:0:60:kick.wav
320,192,71850,128,0,72146:0:0:0:0:
448,192,71850,128,0,72244:0:0:0:0:
64,192,72047,1,0,0:0:0:20:Hat Open.wav
64,192,72244,128,0,72639:0:0:0:45:snare.wav
192,192,72244,128,0,72442:0:0:0:0:
320,192,72244,1,0,0:0:0:0:
320,192,72442,1,0,0:0:0:20:Hat Open.wav
320,192,72540,1,0,0:0:0:0:
192,192,72639,1,0,0:0:0:45:snare.wav
448,192,72639,128,0,72738:0:0:0:0:
64,192,72836,1,0,0:0:0:45:snare.wav
320,192,72836,1,0,0:0:0:0:
448,192,72836,128,0,72935:0:0:0:0:
64,192,73034,1,0,0:0:0:45:snare.wav
192,192,73034,1,0,0:0:0:0:
448,192,73034,128,0,73133:0:0:0:0:
64,192,73231,128,0,73429:0:0:0:45:snare.wav
320,192,73231,1,0,0:0:0:0:
448,192,73231,1,0,0:0:0:0:
192,192,73429,1,0,0:0:0:45:snare.wav
320,192,73429,128,0,73626:0:0:0:20:Hat Open.wav
448,192,73429,128,0,73626:0:0:0:0:
64,192,73626,1,0,0:0:0:60:kick.wav
192,192,73626,1,0,0:0:0:0:
320,192,73725,1,0,0:0:0:60:kick.wav
448,192,73725,1,0,0:0:0:0:
64,192,73823,128,0,74021:0:0:0:45:snare.wav
192,192,73823,1,0,0:0:0:50:finish.wav
448,192,73823,128,0,74215:0:0:0:0:
192,192,74215,1,0,0:0:0:60:kick.wav
320,192,74215,128,0,74511:0:0:0:50:finish.wav
64,192,74215,1,0,0:0:0:0:
192,192,74412,128,0,74511:0:0:0:20:Hat Open.wav
320,192,74609,128,0,74905:0:0:0:60:kick.wav
448,192,74609,1,0,0:0:0:0:
192,192,74807,128,0,74905:0:0:0:20:Hat Open.wav
64,192,75004,128,0,75399:0:0:0:60:kick.wav
448,192,75004,1,0,0:0:0:0:
320,192,75201,1,0,0:0:0:20:Hat Open.wav
448,192,75300,128,0,75399:0:0:0:0:
192,192,75399,1,0,0:0:0:60:kick.wav
320,192,75399,1,0,0:0:0:0:
192,192,75596,128,0,75991:0:0:0:20:Hat Open.wav
320,192,75695,128,0,75991:0:0:0:0:
64,192,75793,1,0,0:0:0:60:kick.wav
448,192,75793,1,0,0:0:0:0:
64,192,75991,128,0,76188:0:0:0:20:Hat Open.wav
320,192,76188,128,0,76386:0:0:0:60:kick.wav
448,192,76188,1,0,0:0:0:0:
192,192,76386,128,0,76583:0:0:0:20:Hat Open.wav
64,192,76583,1,0,0:0:0:60:kick.wav
320,192,76583,128,0,76780:0:0:0:0:
448,192,76780,1,0,0:0:0:20:Hat Open.wav
320,192,76879,1,0,0:0:0:0:
64,192,76978,1,0,0:0:0:60:kick.wav
192,192,76978,128,0,77372:0:0:0:0:
448,192,77175,1,0,0:0:0:20:Hat Open.wav
64,192,77372,1,0,0:0:0:60:kick.wav
320,192,77372,128,0,77668:0:0:0:0:
64,192,77570,128,0,77668:0:0:0:20:Hat Open.wav
320,192,77767,128,0,78063:0:0:0:60:kick.wav
448,192,77767,1,0,0:0:0:0:
64,192,77965,128,0,78063:0:0:0:20:Hat Open.wav
192,192,78162,128,0,78557:0:0:0:60:kick.wav
448,192,78162,1,0,0:0:0:0:
320,192,78359,1,0,0:0:0:20:Hat Open.wav
448,192,78458,128,0,78557:0:0:0:0:
64,192,78557,1,0,0:0:0:60:kick.wav
320,192,78557,1,0,0:0:0:0:
64,192,78754,128,0,79149:0:0:0:20:Hat Open.wav
192,192,78853,128,0,79149:0:0:0:0:
320,192,78951,1,0,0:0:0:60:kick.wav
448,192,78951,1,0,0:0:0:0:
448,192,79149,128,0,79346:0:0:0:20:Hat Open.wav
192,192,79346,128,0,79543:0:0:0:60:kick.wav
320,192,79346,1,0,0:0:0:0:
320,192,79543,128,0,79741:0:0:0:20:Hat Open.wav
64,192,79741,1,0,0:0:0:60:kick.wav
192,192,79741,128,0,79938:0:0:0:0:
320,192,79938,1,0,0:0:0:20:Hat Open.wav
192,192,80037,1,0,0:0:0:0:
64,192,80136,1,0,0:0:0:60:kick.wav
448,192,80136,128,0,80530:0:0:0:0:
320,192,80333,1,0,0:0:0:20:Hat Open.wav
64,192,80530,128,0,80826:0:0:0:60:kick.wav
192,192,80530,1,0,0:0:0:50:finish.wav
320,192,80530,1,0,0:0:0:0:
320,192,80728,128,0,80826:0:0:0:20:Hat Open.wav
64,192,80925,128,0,81221:0:0:0:60:kick.wav
448,192,80925,1,0,0:0:0:0:
320,192,81122,128,0,81221:0:0:0:20:Hat Open.wav
192,192,81320,128,0,81715:0:0:0:60:kick.wav
448,192,81320,1,0,0:0:0:0:
320,192,81517,1,0,0:0:0:20:Hat Open.wav
64,192,81616,128,0,81715:0:0:0:0:
320,192,81715,1,0,0:0:0:60:kick.wav
448,192,81715,1,0,0:0:0:0:
320,192,81912,128,0,82307:0:0:0:20:Hat Open.wav
448,192,82011,128,0,82307:0:0:0:0:
64,192,82109,1,0,0:0:0:60:kick.wav
192,192,82109,1,0,0:0:0:0:
192,192,82307,128,0,82504:0:0:0:20:Hat Open.wav
320,192,82504,1,0,0:0:0:60:kick.wav
448,192,82504,128,0,82701:0:0:0:0:
64,192,82701,128,0,82899:0:0:0:20:Hat Open.wav
192,192,82899,1,0,0:0:0:60:kick.wav
448,192,82899,128,0,83096:0:0:0:0:
320,192,83096,1,0,0:0:0:20:Hat Open.wav
192,192,83195,1,0,0:0:0:0:
64,192,83293,1,0,0:0:0:60:kick.wav
320,192,83293,128,0,83688:0:0:0:0:
448,192,83491,1,0,0:0:0:20:Hat Open.wav
64,192,83688,1,0,0:0:0:60:kick.wav
192,192,83688,128,0,83984:0:0:0:0:
448,192,83886,128,0,83984:0:0:0:20:Hat Open.wav
64,192,84083,1,0,0:0:0:60:kick.wav
192,192,84083,128,0,84379:0:0:0:0:
448,192,84280,128,0,84379:0:0:0:20:Hat Open.wav
64,192,84478,1,0,0:0:0:60:kick.wav
320,192,84478,128,0,84872:0:0:0:0:
192,192,84675,1,0,0:0:0:20:Hat Open.wav
64,192,84774,128,0,84872:0:0:0:0:
192,192,84872,1,0,0:0:0:60:kick.wav
448,192,84872,1,0,0:0:0:0:
64,192,85070,1,0,0:0:0:45:snare.wav
192,192,85070,128,0,85465:0:0:0:20:Hat Open.wav
320,192,85070,1,0,0:0:0:0:
448,192,85168,128,0,85465:0:0:0:0:
320,192,85465,128,0,85662:0:0:0:0:
64,192,85662,128,0,85859:0:0:0:0:
192,192,85859,128,0,86057:0:0:0:0:
320,192,86057,1,0,0:0:0:45:snare.wav
448,192,86057,1,0,0:0:0:0:
64,192,86155,1,0,0:0:0:45:snare.wav
192,192,86155,1,0,0:0:0:0:
320,192,86254,1,0,0:0:0:45:snare.wav
448,192,86254,1,0,0:0:0:0:
64,192,86353,1,0,0:0:0:45:snare.wav
192,192,86353,1,0,0:0:0:0:
320,192,86451,1,0,0:0:0:45:snare.wav
448,192,86451,1,0,0:0:0:0:
320,192,86550,1,0,0:0:0:45:snare.wav
64,192,86649,1,0,0:0:0:45:snare.wav
192,192,86649,1,0,0:0:0:0:
192,192,86747,1,0,0:0:0:45:snare.wav
64,192,86846,1,0,0:0:0:60:kick.wav
320,192,86846,128,0,87142:0:0:0:50:finish.wav
448,192,86846,1,0,0:0:0:0:
192,192,87043,128,0,87142:0:0:0:20:Hat Open.wav
192,192,87241,1,0,0:0:0:45:snare.wav
320,192,87241,128,0,87537:0:0:0:0:
448,192,87241,1,0,0:0:0:0:
192,192,87438,128,0,87537:0:0:0:20:Hat Open.wav
64,192,87636,128,0,87932:0:0:0:60:kick.wav
320,192,87636,1,0,0:0:0:0:
448,192,87833,128,0,87932:0:0:0:20:Hat Open.wav
64,192,88030,1,0,0:0:0:45:snare.wav
192,192,88030,128,0,88326:0:0:0:0:
448,192,88030,1,0,0:0:0:0:
320,192,88228,128,0,88326:0:0:0:20:Hat Open.wav
192,192,88425,1,0,0:0:0:60:kick.wav
448,192,88425,128,0,88721:0:0:0:0:
320,192,88524,128,0,88721:0:0:0:0:
192,192,88622,128,0,88820:0:0:0:20:Hat Open.wav
64,192,88820,128,0,89017:0:0:0:45:snare.wav
320,192,88820,1,0,0:0:0:0:
448,192,88820,1,0,0:0:0:0:
448,192,89017,128,0,89116:0:0:0:20:Hat Open.wav
192,192,89116,128,0,89412:0:0:0:0:
320,192,89215,128,0,89412:0:0:0:60:kick.wav
448,192,89215,1,0,0:0:0:0:
64,192,89412,128,0,89609:0:0:0:20:Hat Open.wav
192,192,89609,1,0,0:0:0:45:snare.wav
320,192,89609,1,0,0:0:0:0:
448,192,89609,128,0,89807:0:0:0:0:
64,192,89708,128,0,89807:0:0:0:0:
320,192,89807,128,0,90004:0:0:0:20:Hat Open.wav
64,192,90004,1,0,0:0:0:60:kick.wav
192,192,90004,128,0,90103:0:0:0:0:
448,192,90103,128,0,90201:0:0:0:0:
192,192,90201,128,0,90399:0:0:0:20:Hat Open.wav
320,192,90399,128,0,90497:0:0:0:45:snare.wav
448,192,90399,1,0,0:0:0:0:
64,192,90497,128,0,90596:0:0:0:0:
320,192,90596,128,0,90793:0:0:0:20:Hat Open.wav
64,192,90793,1,0,0:0:0:60:kick.wav
448,192,90793,128,0,90892:0:0:0:0:
192,192,90892,128,0,90991:0:0:0:0:
64,192,90991,1,0,0:0:0:60:kick.wav
320,192,90991,128,0,91090:0:0:0:20:Hat Open.wav
192,192,91090,128,0,91188:0:0:0:60:kick.wav
448,192,91090,1,0,0:0:0:0:
64,192,91188,128,0,91287:0:0:0:45:snare.wav
320,192,91188,1,0,0:0:0:0:
448,192,91287,128,0,91386:0:0:0:0:
192,192,91386,128,0,91484:0:0:0:20:Hat Open.wav
320,192,91484,128,0,91583:0:0:0:0:
64,192,91583,1,0,0:0:0:60:kick.wav
448,192,91583,128,0,91978:0:0:0:0:
64,192,91780,128,0,91879:0:0:0:20:Hat Open.wav
320,192,91879,128,0,91978:0:0:0:0:
64,192,91978,1,0,0:0:0:45:snare.wav
192,192,91978,128,0,92076:0:0:0:0:
320,192,92076,1,0,0:0:0:0:
448,192,92175,128,0,92372:0:0:0:20:Hat Open.wav
64,192,92372,1,0,0:0:0:60:kick.wav
192,192,92372,128,0,92767:0:0:0:0:
320,192,92570,128,0,92668:0:0:0:20:Hat Open.wav
448,192,92668,128,0,92767:0:0:0:0:
64,192,92767,128,0,93162:0:0:0:45:snare.wav
320,192,92767,128,0,92866:0:0:0:0:
192,192,92866,128,0,92965:0:0:0:0:
320,192,92965,128,0,93063:0:0:0:20:Hat Open.wav
448,192,93063,128,0,93162:0:0:0:0:
192,192,93162,128,0,93261:0:0:0:60:kick.wav
320,192,93162,1,0,0:0:0:50:finish.wav
448,192,93261,128,0,93359:0:0:0:0:
192,192,93359,128,0,93557:0:0:0:20:Hat Open.wav
64,192,93557,1,0,0:0:0:45:snare.wav
320,192,93557,128,0,93655:0:0:0:0:
448,192,93557,1,0,0:0:0:0:
192,192,93655,128,0,93754:0:0:0:0:
320,192,93754,128,0,93951:0:0:0:20:Hat Open.wav
64,192,93951,128,0,94050:0:0:0:60:kick.wav
192,192,93951,1,0,0:0:0:0:
448,192,94050,128,0,94149:0:0:0:0:
64,192,94149,128,0,94346:0:0:0:20:Hat Open.wav
192,192,94346,1,0,0:0:0:45:snare.wav
320,192,94346,1,0,0:0:0:0:
448,192,94346,128,0,94445:0:0:0:0:
64,192,94445,128,0,94543:0:0:0:0:
448,192,94543,128,0,94741:0:0:0:20:Hat Open.wav
64,192,94741,128,0,95037:0:0:0:60:kick.wav
192,192,94741,128,0,94938:0:0:0:50:finish.wav
320,192,94741,1,0,0:0:0:0:
448,192,94938,128,0,95037:0:0:0:0:
320,192,95037,128,0,95136:0:0:0:0:
64,192,95136,1,0,0:0:0:45:snare.wav
192,192,95136,128,0,95333:0:0:0:50:finish.wav
448,192,95136,128,0,95333:0:0:0:0:
320,192,95333,128,0,95530:0:0:0:0:
64,192,95530,128,0,95728:0:0:0:60:kick.wav
192,192,95530,1,0,0:0:0:50:finish.wav
448,192,95530,128,0,95728:0:0:0:0:
192,192,95728,128,0,95925:0:0:0:0:
64,192,95925,1,0,0:0:0:45:snare.wav
320,192,95925,128,0,96221:0:0:0:50:finish.wav
448,192,95925,128,0,96320:0:0:0:0:
64,192,96320,128,0,96517:0:0:0:60:kick.wav
192,192,96320,128,0,96418:0:0:0:0:
448,192,96517,128,0,96715:0:0:0:20:Hat Open.wav
320,192,96616,128,0,96715:0:0:0:0:
64,192,96715,1,0,0:0:0:45:snare.wav
192,192,96715,128,0,96912:0:0:0:0:
320,192,96813,128,0,96912:0:0:0:0:
64,192,96912,128,0,97109:0:0:0:20:Hat Open.wav
192,192,97011,128,0,97109:0:0:0:0:
320,192,97109,1,0,0:0:0:60:kick.wav
448,192,97109,128,0,97307:0:0:0:0:
192,192,97208,128,0,97307:0:0:0:0:
320,192,97307,128,0,97504:0:0:0:20:Hat Open.wav
64,192,97504,128,0,97899:0:0:0:45:snare.wav
192,192,97504,1,0,0:0:0:0:
448,192,97504,1,0,0:0:0:0:
448,192,97701,1,0,0:0:0:20:Hat Open.wav
192,192,97899,128,0,98688:0:0:0:60:kick.wav
320,192,97899,1,0,0:0:0:0:
64,192,98096,1,0,0:0:0:20:Hat Open.wav
64,192,98293,1,0,0:0:0:45:snare.wav
320,192,98293,1,0,0:0:0:0:
448,192,98293,1,0,0:0:0:0:
448,192,98491,1,0,0:0:0:20:Hat Open.wav
64,192,98688,1,0,0:0:0:60:kick.wav
320,192,98688,1,0,0:0:0:20:Hat Open.wav
320,192,98886,1,0,0:0:0:60:kick.wav
448,192,98886,1,0,0:0:0:0:
64,192,98984,1,0,0:0:0:60:kick.wav
192,192,98984,1,0,0:0:0:0:
64,192,99083,1,0,0:0:0:45:snare.wav
320,192,99083,1,0,0:0:0:0:
448,192,99083,1,0,0:0:0:0:
64,192,99280,1,0,0:0:0:45:snare.wav
192,192,99280,1,0,0:0:0:0:
320,192,99379,1,0,0:0:0:45:snare.wav
448,192,99379,1,0,0:0:0:0:
64,192,99478,1,0,0:0:0:60:kick.wav
192,192,99478,1,0,0:0:0:50:finish.wav
448,192,99478,128,0,99675:0:0:0:0:
64,192,99675,1,0,0:0:0:0:
320,192,99774,1,0,0:0:0:0:
192,192,99872,128,0,100070:0:0:0:20:Hat Close.wav
448,192,100070,128,0,100267:0:0:0:0:
320,192,100267,128,0,100366:0:0:0:20:Hat Close.wav
320,192,100464,128,0,100662:0:0:0:0:
64,192,100662,128,0,100761:0:0:0:20:Hat Close.wav
64,192,100859,128,0,101057:0:0:0:0:
448,192,101057,128,0,101254:0:0:0:20:Hat Close.wav
192,192,101254,128,0,101451:0:0:0:0:
320,192,101451,128,0,101649:0:0:0:20:Hat Open.wav
64,192,101649,128,0,101747:0:0:0:0:
192,192,101747,128,0,102043:0:0:0:20:Hat Open.wav
320,192,102043,1,0,0:0:0:60:kick.wav
448,192,102043,1,0,0:0:0:0:
64,192,102142,1,0,0:0:0:60:kick.wav
192,192,102142,1,0,0:0:0:0:
64,192,102241,1,0,0:0:0:45:snare.wav
320,192,102241,1,0,0:0:0:0:
448,192,102241,128,0,102339:0:0:0:0:
448,192,102438,128,0,102636:0:0:0:0:
192,192,102636,128,0,102833:0:0:0:0:
320,192,103030,128,0,103425:0:0:0:0:
64,192,103425,128,0,103622:0:0:0:0:
320,192,103622,1,0,0:0:0:60:kick.wav
448,192,103622,1,0,0:0:0:0:
64,192,103721,1,0,0:0:0:60:kick.wav
192,192,103721,1,0,0:0:0:0:
64,192,103820,128,0,104214:0:0:0:45:snare.wav
320,192,103820,128,0,104116:0:0:0:0:
448,192,103820,128,0,104017:0:0:0:0:
192,192,104214,1,0,0:0:0:60:kick.wav
320,192,104214,1,0,0:0:0:50:finish.wav
448,192,104214,1,0,0:0:0:0:
64,192,104412,1,0,0:0:0:60:kick.wav
192,192,104412,1,0,0:0:0:50:finish.wav
448,192,104412,1,0,0:0:0:0:
64,192,104609,1,0,0:0:0:60:kick.wav
320,192,104609,1,0,0:0:0:50:finish.wav
448,192,104609,1,0,0:0:0:0:
192,192,104807,1,0,0:0:0:60:kick.wav
320,192,104807,1,0,0:0:0:50:finish.wav
448,192,104807,1,0,0:0:0:0:
64,192,105004,1,0,0:0:0:60:kick.wav
192,192,105004,128,0,105103:0:0:0:50:finish.wav
320,192,105004,1,0,0:0:0:0:
192,192,105201,128,0,105399:0:0:0:0:
448,192,105399,128,0,105497:0:0:0:0:
448,192,105596,128,0,105793:0:0:0:0:
64,192,105793,128,0,106188:0:0:0:60:kick.wav
192,192,105793,128,0,105991:0:0:0:50:finish.wav
320,192,105793,1,0,0:0:0:0:
448,192,105991,128,0,106386:0:0:0:20:Hat Open.wav
192,192,106188,1,0,0:0:0:45:snare.wav
320,192,106188,128,0,106386:0:0:0:0:
192,192,106386,128,0,106583:0:0:0:20:Hat Open.wav
64,192,106583,128,0,106682:0:0:0:60:kick.wav
320,192,106583,128,0,106682:0:0:0:0:
64,192,106780,128,0,106978:0:0:0:20:Hat Open.wav
448,192,106780,128,0,106879:0:0:0:0:
192,192,106978,1,0,0:0:0:45:snare.wav
320,192,106978,128,0,107076:0:0:0:0:
448,192,106978,1,0,0:0:0:0:
192,192,107076,1,0,0:0:0:0:
320,192,107175,128,0,107372:0:0:0:20:Hat Open.wav
64,192,107372,128,0,107767:0:0:0:60:kick.wav
192,192,107372,1,0,0:0:0:50:finish.wav
448,192,107372,1,0,0:0:0:0:
192,192,107570,128,0,107767:0:0:0:0:
320,192,107767,1,0,0:0:0:45:snare.wav
448,192,107767,128,0,107964:0:0:0:50:finish.wav
192,192,107964,128,0,108063:0:0:0:0:
64,192,108063,128,0,108359:0:0:0:0:
320,192,108063,128,0,108359:0:0:0:0:
192,192,108162,1,0,0:0:0:60:kick.wav
448,192,108162,1,0,0:0:0:50:finish.wav
192,192,108359,1,0,0:0:0:45:snare.wav
448,192,108359,128,0,108655:0:0:0:0:
320,192,108458,1,0,0:0:0:0:
64,192,108557,1,0,0:0:0:60:kick.wav
192,192,108557,128,0,108655:0:0:0:45:snare.wav
320,192,108754,1,0,0:0:0:45:snare.wav
448,192,108754,1,0,0:0:0:0:
64,192,108853,1,0,0:0:0:45:snare.wav
192,192,108853,1,0,0:0:0:0:
64,192,108951,128,0,109149:0:0:0:60:kick.wav
320,192,108951,128,0,109247:0:0:0:50:finish.wav
448,192,108951,128,0,109346:0:0:0:0:
192,192,109149,1,0,0:0:0:20:Hat Open.wav
64,192,109346,1,0,0:0:0:45:snare.wav
192,192,109346,128,0,109741:0:0:0:0:
320,192,109346,128,0,109543:0:0:0:0:
448,192,109543,1,0,0:0:0:20:Hat Open.wav
64,192,109741,128,0,109938:0:0:0:60:kick.wav
320,192,109741,128,0,110037:0:0:0:0:
448,192,109741,128,0,110136:0:0:0:0:
192,192,109938,1,0,0:0:0:20:Hat Open.wav
64,192,110136,128,0,110530:0:0:0:45:snare.wav
192,192,110136,128,0,110333:0:0:0:0:
320,192,110136,1,0,0:0:0:0:
448,192,110333,1,0,0:0:0:20:Hat Open.wav
192,192,110530,128,0,110728:0:0:0:60:kick.wav
320,192,110530,128,0,110826:0:0:0:50:finish.wav
448,192,110530,128,0,110925:0:0:0:0:
64,192,110728,1,0,0:0:0:20:Hat Open.wav
64,192,110925,128,0,111320:0:0:0:45:snare.wav
192,192,110925,128,0,111122:0:0:0:0:
320,192,110925,1,0,0:0:0:0:
448,192,111122,1,0,0:0:0:20:Hat Open.wav
320,192,111320,128,0,111517:0:0:0:60:kick.wav
448,192,111320,128,0,111517:0:0:0:0:
64,192,111517,1,0,0:0:0:45:snare.wav
192,192,111517,1,0,0:0:0:20:Hat Open.wav
320,192,111616,1,0,0:0:0:60:kick.wav
448,192,111616,1,0,0:0:0:0:
64,192,111714,128,0,111912:0:0:0:45:snare.wav
192,192,111714,1,0,0:0:0:0:
448,192,111714,1,0,0:0:0:0:
320,192,111912,1,0,0:0:0:45:snare.wav
448,192,111912,1,0,0:0:0:20:Hat Open.wav
64,192,112011,1,0,0:0:0:45:snare.wav
192,192,112011,1,0,0:0:0:0:
64,192,112109,1,0,0:0:0:60:kick.wav
320,192,112109,128,0,112504:0:0:0:50:finish.wav
448,192,112109,128,0,112307:0:0:0:0:
64,192,112307,128,0,112701:0:0:0:45:Ride.wav
192,192,112504,1,0,0:0:0:45:snare.wav
448,192,112504,128,0,112701:0:0:0:0:
320,192,112701,128,0,112899:0:0:0:45:Ride.wav
64,192,112899,128,0,112997:0:0:0:60:kick.wav
192,192,112899,128,0,112997:0:0:0:0:
192,192,113096,128,0,113293:0:0:0:45:Ride.wav
448,192,113096,128,0,113195:0:0:0:0:
64,192,113293,1,0,0:0:0:45:snare.wav
320,192,113293,128,0,113392:0:0:0:0:
448,192,113293,1,0,0:0:0:0:
64,192,113392,1,0,0:0:0:0:
320,192,113491,128,0,113688:0:0:0:45:Ride.wav
64,192,113688,128,0,113787:0:0:0:60:kick.wav
192,192,113688,1,0,0:0:0:0:
448,192,113688,128,0,113787:0:0:0:0:
320,192,113886,128,0,113984:0:0:0:45:Ride.wav
448,192,113886,128,0,114083:0:0:0:0:
64,192,114083,128,0,114280:0:0:0:45:snare.wav
192,192,114083,1,0,0:0:0:0:
320,192,114083,1,0,0:0:0:0:
192,192,114182,1,0,0:0:0:0:
448,192,114280,128,0,114379:0:0:0:45:Ride.wav
192,192,114379,128,0,114675:0:0:0:0:
320,192,114379,128,0,114675:0:0:0:0:
64,192,114478,1,0,0:0:0:60:kick.wav
448,192,114478,1,0,0:0:0:0:
448,192,114675,128,0,114872:0:0:0:45:Ride.wav
64,192,114872,1,0,0:0:0:45:snare.wav
192,192,114872,128,0,114971:0:0:0:0:
320,192,114872,1,0,0:0:0:0:
192,192,115070,128,0,115267:0:0:0:45:Ride.wav
64,192,115267,128,0,115464:0:0:0:60:kick.wav
320,192,115267,128,0,115464:0:0:0:0:
448,192,115464,1,0,0:0:0:45:Ride.wav
64,192,115662,1,0,0:0:0:45:snare.wav
192,192,115662,128,0,116057:0:0:0:0:
448,192,115662,128,0,116057:0:0:0:0:
320,192,115859,1,0,0:0:0:45:Ride.wav
64,192,116057,128,0,116155:0:0:0:60:kick.wav
320,192,116057,128,0,116155:0:0:0:0:
64,192,116254,1,0,0:0:0:60:kick.wav
192,192,116254,1,0,0:0:0:45:Ride.wav
320,192,116353,1,0,0:0:0:60:kick.wav
448,192,116353,1,0,0:0:0:0:
64,192,116451,128,0,116846:0:0:0:45:snare.wav
192,192,116451,128,0,116846:0:0:0:0:
448,192,116451,128,0,116846:0:0:0:0:
320,192,116649,1,0,0:0:0:45:Ride.wav
320,192,116846,128,0,117043:0:0:0:60:kick.wav
64,192,117043,128,0,117142:0:0:0:45:Ride.wav
64,192,117241,128,0,117438:0:0:0:45:snare.wav
192,192,117241,1,0,0:0:0:0:
448,192,117241,1,0,0:0:0:0:
448,192,117438,128,0,117537:0:0:0:45:Ride.wav
192,192,117636,128,0,117833:0:0:0:60:kick.wav
448,192,117636,128,0,117833:0:0:0:0:
64,192,117833,128,0,118030:0:0:0:45:Ride.wav
320,192,117833,128,0,118030:0:0:0:0:
192,192,118030,128,0,118129:0:0:0:45:snare.wav
448,192,118030,128,0,118129:0:0:0:0:
192,192,118228,128,0,118425:0:0:0:45:Ride.wav
448,192,118228,128,0,118326:0:0:0:0:
64,192,118425,128,0,118622:0:0:0:60:kick.wav
320,192,118425,1,0,0:0:0:50:finish.wav
448,192,118425,128,0,118820:0:0:0:0:
320,192,118622,128,0,119017:0:0:0:45:Ride.wav
64,192,118820,1,0,0:0:0:45:snare.wav
192,192,118820,128,0,119017:0:0:0:0:
64,192,119017,128,0,119214:0:0:0:45:Ride.wav
320,192,119214,128,0,119313:0:0:0:60:kick.wav
448,192,119214,128,0,119313:0:0:0:0:
64,192,119412,128,0,119511:0:0:0:45:Ride.wav
448,192,119412,128,0,119609:0:0:0:0:
64,192,119609,1,0,0:0:0:45:snare.wav
192,192,119609,128,0,119708:0:0:0:0:
320,192,119609,1,0,0:0:0:0:
320,192,119708,1,0,0:0:0:0:
192,192,119807,128,0,120004:0:0:0:45:Ride.wav
64,192,120004,128,0,120103:0:0:0:60:kick.wav
320,192,120004,1,0,0:0:0:50:finish.wav
448,192,120004,128,0,120103:0:0:0:0:
320,192,120201,128,0,120300:0:0:0:0:
448,192,120201,128,0,120399:0:0:0:0:
64,192,120399,128,0,120596:0:0:0:45:snare.wav
192,192,120399,1,0,0:0:0:50:finish.wav
320,192,120399,1,0,0:0:0:0:
192,192,120596,128,0,120695:0:0:0:0:
320,192,120695,128,0,120991:0:0:0:0:
448,192,120695,128,0,120991:0:0:0:0:
64,192,120793,1,0,0:0:0:60:kick.wav
192,192,120793,1,0,0:0:0:50:finish.wav
64,192,120991,128,0,121188:0:0:0:0:
192,192,121188,128,0,121287:0:0:0:45:snare.wav
320,192,121188,1,0,0:0:0:50:finish.wav
448,192,121188,1,0,0:0:0:0:
192,192,121386,128,0,121583:0:0:0:0:
64,192,121583,128,0,121978:0:0:0:60:kick.wav
320,192,121583,128,0,121879:0:0:0:0:
448,192,121583,128,0,121780:0:0:0:0:
192,192,121780,1,0,0:0:0:45:Ride.wav
320,192,121978,128,0,122175:0:0:0:45:snare.wav
448,192,121978,128,0,122372:0:0:0:0:
192,192,122175,1,0,0:0:0:45:Ride.wav
64,192,122372,128,0,122767:0:0:0:60:kick.wav
192,192,122372,128,0,122668:0:0:0:0:
320,192,122372,128,0,122570:0:0:0:0:
448,192,122570,1,0,0:0:0:45:Ride.wav
320,192,122767,128,0,122964:0:0:0:45:snare.wav
448,192,122767,128,0,123162:0:0:0:0:
192,192,122964,1,0,0:0:0:45:Ride.wav
192,192,123063,1,0,0:0:0:0:
64,192,123162,128,0,123261:0:0:0:45:snare.wav
320,192,123162,1,0,0:0:0:0:
64,192,123359,128,0,123458:0:0:0:45:snare.wav
192,192,123359,1,0,0:0:0:0:
320,192,123359,1,0,0:0:0:0:
64,192,123557,128,0,123655:0:0:0:45:snare.wav
192,192,123557,1,0,0:0:0:0:
448,192,123557,1,0,0:0:0:0:
192,192,123754,1,0,0:0:0:45:snare.wav
320,192,123754,1,0,0:0:0:0:
448,192,123754,128,0,123951:0:0:0:0:
64,192,123951,128,0,124149:0:0:0:45:snare.wav
192,192,123951,128,0,124149:0:0:0:20:Hat Open.wav
320,192,123951,1,0,0:0:0:0:
320,192,124149,1,0,0:0:0:60:kick.wav
448,192,124149,1,0,0:0:0:0:
64,192,124247,1,0,0:0:0:60:kick.wav
192,192,124247,1,0,0:0:0:0:
64,192,124346,1,0,0:0:0:45:snare.wav
320,192,124346,128,0,124543:0:0:0:50:finish.wav
448,192,124346,128,0,124543:0:0:0:0:
64,192,124543,1,0,0:0:0:35:snare.wav
192,192,124543,1,0,0:0:0:0:
320,192,124642,1,0,0:0:0:35:snare.wav
448,192,124642,1,0,0:0:0:0:
64,192,124741,128,0,124839:0:0:0:45:snare.wav
192,192,124741,1,0,0:0:0:0:
448,192,124741,1,0,0:0:0:0:
64,192,124938,128,0,125037:0:0:0:45:snare.wav
320,192,124938,1,0,0:0:0:0:
448,192,124938,1,0,0:0:0:0:
64,192,125136,128,0,125234:0:0:0:45:snare.wav
192,192,125136,1,0,0:0:0:0:
320,192,125136,1,0,0:0:0:0:
192,192,125333,1,0,0:0:0:45:snare.wav
320,192,125333,1,0,0:0:0:0:
448,192,125333,128,0,125530:0:0:0:0:
64,192,125530,128,0,125728:0:0:0:45:snare.wav
192,192,125530,128,0,125728:0:0:0:20:Hat Open.wav
320,192,125728,1,0,0:0:0:60:kick.wav
448,192,125728,1,0,0:0:0:0:
64,192,125826,1,0,0:0:0:60:kick.wav
192,192,125826,1,0,0:0:0:0:
64,192,125925,128,0,126122:0:0:0:45:snare.wav
320,192,125925,1,0,0:0:0:50:finish.wav
448,192,125925,128,0,126122:0:0:0:0:
192,192,126122,1,0,0:0:0:60:kick.wav
192,192,126221,1,0,0:0:0:0:
64,192,126320,1,0,0:0:0:45:snare.wav
320,192,126320,1,0,0:0:0:0:
448,192,126320,128,0,126418:0:0:0:0:
64,192,126517,1,0,0:0:0:45:snare.wav
192,192,126517,1,0,0:0:0:0:
448,192,126517,128,0,126616:0:0:0:0:
64,192,126714,1,0,0:0:0:45:snare.wav
320,192,126714,1,0,0:0:0:0:
448,192,126714,128,0,126813:0:0:0:0:
64,192,126912,128,0,127109:0:0:0:45:snare.wav
192,192,126912,1,0,0:0:0:0:
320,192,126912,1,0,0:0:0:0:
192,192,127109,1,0,0:0:0:45:snare.wav
320,192,127109,128,0,127307:0:0:0:20:Hat Open.wav
448,192,127109,128,0,127307:0:0:0:0:
64,192,127307,1,0,0:0:0:60:kick.wav
192,192,127307,1,0,0:0:0:0:
320,192,127405,1,0,0:0:0:60:kick.wav
448,192,127405,1,0,0:0:0:0:
64,192,127504,1,0,0:0:0:45:snare.wav
192,192,127504,128,0,127701:0:0:0:0:
448,192,127504,1,0,0:0:0:0:
320,192,127701,1,0,0:0:0:45:snare.wav
448,192,127701,1,0,0:0:0:0:
64,192,127800,1,0,0:0:0:45:snare.wav
192,192,127800,1,0,0:0:0:0:
64,192,127899,128,0,128195:0:0:0:60:kick.wav
320,192,127899,1,0,0:0:0:50:finish.wav
448,192,127899,1,0,0:0:0:0:
320,192,128096,128,0,128195:0:0:0:20:Hat Open.wav
64,192,128293,128,0,128589:0:0:0:45:snare.wav
192,192,128293,1,0,0:0:0:0:
448,192,128293,1,0,0:0:0:0:
320,192,128491,128,0,128589:0:0:0:20:Hat Open.wav
192,192,128688,128,0,129083:0:0:0:60:kick.wav
448,192,128688,1,0,0:0:0:0:
64,192,128886,1,0,0:0:0:20:Hat Open.wav
448,192,128984,128,0,129083:0:0:0:0:
64,192,129083,1,0,0:0:0:45:snare.wav
320,192,129083,1,0,0:0:0:0:
320,192,129280,128,0,129675:0:0:0:20:Hat Open.wav
64,192,129379,128,0,129675:0:0:0:0:
192,192,129478,1,0,0:0:0:60:kick.wav
448,192,129478,1,0,0:0:0:0:
448,192,129675,128,0,129872:0:0:0:20:Hat Open.wav
64,192,129872,1,0,0:0:0:45:snare.wav
192,192,129872,128,0,130070:0:0:0:0:
320,192,129872,1,0,0:0:0:0:
320,192,130070,128,0,130267:0:0:0:20:Hat Open.wav
64,192,130267,1,0,0:0:0:60:kick.wav
192,192,130267,128,0,130464:0:0:0:0:
448,192,130464,1,0,0:0:0:20:Hat Open.wav
320,192,130563,1,0,0:0:0:0:
64,192,130662,128,0,131057:0:0:0:45:snare.wav
192,192,130662,1,0,0:0:0:0:
448,192,130662,1,0,0:0:0:0:
320,192,130859,1,0,0:0:0:20:Hat Open.wav
192,192,131057,1,0,0:0:0:60:kick.wav
448,192,131057,128,0,131353:0:0:0:0:
192,192,131254,128,0,131353:0:0:0:20:Hat Open.wav
64,192,131451,1,0,0:0:0:45:snare.wav
320,192,131451,1,0,0:0:0:0:
448,192,131451,128,0,131747:0:0:0:0:
192,192,131649,128,0,131747:0:0:0:20:Hat Open.wav
64,192,131846,128,0,132241:0:0:0:60:kick.wav
320,192,131846,1,0,0:0:0:0:
448,192,132043,1,0,0:0:0:20:Hat Open.wav
320,192,132142,128,0,132241:0:0:0:0:
192,192,132241,1,0,0:0:0:45:snare.wav
448,192,132241,1,0,0:0:0:0:
192,192,132438,128,0,132833:0:0:0:20:Hat Open.wav
320,192,132537,128,0,132833:0:0:0:0:
64,192,132636,1,0,0:0:0:60:kick.wav
448,192,132636,1,0,0:0:0:0:
448,192,132833,128,0,133030:0:0:0:20:Hat Open.wav
64,192,133030,1,0,0:0:0:45:snare.wav
192,192,133030,128,0,133228:0:0:0:0:
320,192,133030,1,0,0:0:0:0:
64,192,133228,128,0,133425:0:0:0:20:Hat Open.wav
192,192,133425,128,0,133622:0:0:0:60:kick.wav
448,192,133425,1,0,0:0:0:0:
320,192,133622,1,0,0:0:0:20:Hat Open.wav
192,192,133721,1,0,0:0:0:0:
64,192,133820,1,0,0:0:0:45:snare.wav
320,192,133820,1,0,0:0:0:0:
448,192,133820,128,0,134214:0:0:0:0:
192,192,134017,1,0,0:0:0:20:Hat Open.wav
64,192,134214,128,0,134511:0:0:0:60:kick.wav
192,192,134214,1,0,0:0:0:50:finish.wav
320,192,134214,1,0,0:0:0:0:
320,192,134412,128,0,134511:0:0:0:20:Hat Open.wav
64,192,134609,128,0,134905:0:0:0:45:snare.wav
192,192,134609,1,0,0:0:0:0:
448,192,134609,1,0,0:0:0:0:
320,192,134807,128,0,134905:0:0:0:20:Hat Open.wav
192,192,135004,128,0,135399:0:0:0:60:kick.wav
320,192,135004,1,0,0:0:0:0:
448,192,135201,1,0,0:0:0:20:Hat Open.wav
64,192,135300,128,0,135399:0:0:0:0:
320,192,135399,1,0,0:0:0:45:snare.wav
448,192,135399,1,0,0:0:0:0:
320,192,135596,128,0,135991:0:0:0:20:Hat Open.wav
448,192,135695,128,0,135991:0:0:0:0:
64,192,135793,1,0,0:0:0:60:kick.wav
192,192,135793,1,0,0:0:0:0:
64,192,135991,128,0,136188:0:0:0:20:Hat Open.wav
192,192,136188,1,0,0:0:0:45:snare.wav
320,192,136188,128,0,136386:0:0:0:0:
448,192,136188,1,0,0:0:0:0:
192,192,136386,128,0,136583:0:0:0:20:Hat Open.wav
64,192,136583,1,0,0:0:0:60:kick.wav
320,192,136583,128,0,136780:0:0:0:0:
448,192,136780,1,0,0:0:0:20:Hat Open.wav
320,192,136879,1,0,0:0:0:0:
64,192,136978,128,0,137372:0:0:0:45:snare.wav
192,192,136978,1,0,0:0:0:0:
448,192,136978,1,0,0:0:0:0:
320,192,137175,1,0,0:0:0:20:Hat Open.wav
192,192,137372,128,0,137668:0:0:0:60:kick.wav
448,192,137372,1,0,0:0:0:0:
448,192,137570,128,0,137668:0:0:0:20:Hat Open.wav
64,192,137767,1,0,0:0:0:45:snare.wav
192,192,137767,128,0,138063:0:0:0:0:
320,192,137767,1,0,0:0:0:0:
448,192,137964,128,0,138063:0:0:0:20:Hat Open.wav
64,192,138162,128,0,138557:0:0:0:60:kick.wav
192,192,138162,1,0,0:0:0:0:
320,192,138359,1,0,0:0:0:20:Hat Open.wav
448,192,138458,128,0,138557:0:0:0:0:
192,192,138557,1,0,0:0:0:45:snare.wav
320,192,138557,1,0,0:0:0:0:
192,192,138754,128,0,139149:0:0:0:20:Hat Open.wav
320,192,138853,128,0,139149:0:0:0:0:
448,192,138951,1,0,0:0:0:60:kick.wav
64,192,139149,1,0,0:0:0:45:snare.wav
448,192,139149,1,0,0:0:0:20:Hat Open.wav
64,192,139346,1,0,0:0:0:45:snare.wav
192,192,139346,1,0,0:0:0:0:
320,192,139445,1,0,0:0:0:45:snare.wav
448,192,139445,1,0,0:0:0:0:
64,192,139543,1,0,0:0:0:55:Tom2.wav
192,192,139543,1,0,0:0:0:20:Hat Open.wav
320,192,139741,1,0,0:0:0:60:kick.wav
320,192,139938,1,0,0:0:0:50:Tom1.wav
448,192,139938,1,0,0:0:0:20:Hat Open.wav
192,192,140037,1,0,0:0:0:55:Tom2.wav
64,192,140136,1,0,0:0:0:45:snare.wav
448,192,140136,1,0,0:0:0:0:
64,192,140333,1,0,0:0:0:45:snare.wav
320,192,140333,1,0,0:0:0:20:Hat Open.wav
192,192,140530,1,0,0:0:0:60:kick.wav
320,192,140530,1,0,0:0:0:50:finish.wav
448,192,140530,1,0,0:0:0:0:
64,192,140826,128,0,140925:0:0:0:0:
320,192,140925,128,0,141024:0:0:0:0:
192,192,141122,128,0,141320:0:0:0:20:Hat Open.wav
448,192,141320,128,0,141517:0:0:0:0:
64,192,141517,1,0,0:0:0:20:Hat Open.wav
320,192,141714,128,0,141912:0:0:0:60:kick.wav
64,192,141912,1,0,0:0:0:55:Tom2.wav
192,192,142011,1,0,0:0:0:55:Tom2.wav
64,192,142109,1,0,0:0:0:60:kick.wav
320,192,142109,1,0,0:0:0:50:finish.wav
448,192,142109,128,0,142208:0:0:0:0:
192,192,142307,1,0,0:0:0:0:
64,192,142405,1,0,0:0:0:45:snare.wav
320,192,142405,128,0,142504:0:0:0:0:
448,192,142504,1,0,0:0:0:60:kick.wav
64,192,142701,128,0,142800:0:0:0:45:snare.wav
320,192,142701,1,0,0:0:0:50:finish.wav
448,192,142899,1,0,0:0:0:60:kick.wav
320,192,142997,1,0,0:0:0:60:kick.wav
192,192,143096,1,0,0:0:0:45:snare.wav
448,192,143096,1,0,0:0:0:0:
64,192,143293,1,0,0:0:0:45:Tom3.wav
192,192,143491,128,0,143688:0:0:0:45:snare.wav
320,192,143491,128,0,143688:0:0:0:50:finish.wav
