osu file format v14

[General]
AudioFilename: audio.mp3
AudioLeadIn: 0
PreviewTime: 57192
Countdown: 0
SampleSet: Soft
StackLeniency: 1
Mode: 0
LetterboxInBreaks: 0
WidescreenStoryboard: 1

[Editor]
DistanceSpacing: 0.8
BeatDivisor: 4
GridSize: 8
TimelineZoom: 2.2

[Metadata]
Title:Telesto Teles
TitleUnicode:テレストテレス
Artist:Kairiki bear feat. Hatsune Miku
ArtistUnicode:かいりきベア feat.初音ミク
Creator:Ryuusei Aika
Version:wafer's Expert
Source:
Tags:cut ver version ボーカロイド vocaloid japanese rock jrock j-rock basen basensorex niva -liban- liban wafer
BeatmapID:2500705
BeatmapSetID:-1

[Difficulty]
HPDrainRate:6
CircleSize:5
OverallDifficulty:8.2
ApproachRate:8
SliderMultiplier:1.95
SliderTickRate:1

[Events]
//Background and Video events
0,0,"BG.png",0,0
//Break Periods
//Storyboard Layer 0 (Background)
//Storyboard Layer 1 (Fail)
//Storyboard Layer 2 (Pass)
//Storyboard Layer 3 (Foreground)
//Storyboard Layer 4 (Overlay)
//Storyboard Sound Samples

[TimingPoints]
179,348.837209302326,4,2,0,35,1,0
3841,-100,4,3,0,55,0,0
4277,-100,4,3,0,5,0,0
4365,-90.9090909090909,4,2,0,70,0,0
6632,-222.222222222221,4,2,0,70,0,0
7155,-90.9090909090909,4,2,0,70,0,0
9074,-133.333333333333,4,2,0,70,0,0
9946,-90.9090909090909,4,2,0,70,0,0
12213,-222.222222222221,4,2,0,70,0,0
12736,-90.9090909090909,4,2,0,70,0,0
14655,-133.333333333333,4,2,0,70,0,0
15527,-117.647058823529,4,2,0,60,0,0
16748,-117.647058823529,4,2,0,50,0,0
17620,-117.647058823529,4,2,0,45,0,0
20760,-181.818181818181,4,2,0,45,0,0
21022,-181.818181818181,4,2,0,5,0,0
21109,-117.647058823529,4,2,0,45,0,0
26341,-181.818181818181,4,2,0,45,0,0
26690,-90.9090909090909,4,2,0,70,0,0
28958,-222.222222222221,4,2,0,70,0,0
29481,-90.9090909090909,4,2,0,70,0,0
31399,-133.333333333333,4,2,0,70,0,0
32272,-117.647058823529,4,2,0,70,0,0
32446,-117.647058823529,4,2,0,60,0,0
43434,-117.647058823529,4,2,0,45,0,0
45702,-117.647058823529,4,2,0,60,0,0
46225,-117.647058823529,4,2,0,45,0,0
48492,-117.647058823529,4,2,0,60,0,0
48929,-117.647058823529,4,2,0,5,0,0
49016,-117.647058823529,4,2,0,45,0,0
51283,-117.647058823529,4,2,0,60,0,0
52330,-117.647058823529,4,2,0,45,0,0
52679,-117.647058823529,4,2,0,50,0,0
53376,-117.647058823529,4,2,0,60,0,0
53899,-117.647058823529,4,2,0,50,0,0
54510,-117.647058823529,4,2,0,5,0,0
54597,-666.666666666653,4,2,0,35,0,0
54684,-666.666666666653,4,2,0,5,0,0
54946,-666.666666666653,4,2,0,35,0,0
55033,-666.666666666653,4,2,0,5,0,0
55295,-666.666666666653,4,2,0,35,0,0
55382,-666.666666666653,4,2,0,5,0,0
55644,-666.666666666653,4,2,0,35,0,0
55731,-666.666666666653,4,2,0,5,0,0
56167,-100,4,2,0,60,0,0
57388,-76.9230769230769,4,2,0,80,0,0
61399,-76.9230769230769,4,2,0,70,0,0
62969,-76.9230769230769,4,2,0,80,0,0
71341,-76.9230769230769,4,2,0,70,0,0
74132,-76.9230769230769,4,2,0,80,0,0
76923,-100,4,2,0,60,0,0
78492,-100,4,2,0,70,0,0
79713,-111.111111111111,4,2,0,50,0,0
81022,-111.111111111111,4,2,0,5,0,0
81109,-111.111111111111,4,2,0,50,0,0
84074,-111.111111111111,4,2,0,60,0,0
85295,-111.111111111111,4,2,0,50,0,0
89655,-111.111111111111,4,2,0,60,0,0
90876,-111.111111111111,4,2,0,50,0,0

[Colours]
Combo1 : 192,192,192
Combo2 : 128,128,255
Combo3 : 255,128,255
Combo4 : 95,95,95

[HitObjects]
88,149,1574,53,0,0:0:0:0:
51,83,1923,1,0,0:0:0:0:
117,47,2272,1,0,0:0:0:0:
153,112,2621,1,0,0:0:0:0:
167,119,3144,37,0,0:0:0:0:
120,35,3319,1,0,0:0:0:0:
36,82,3493,1,0,0:0:0:0:
83,166,3667,1,0,0:0:0:0:
113,91,3841,5,0,0:0:0:0:
158,203,4016,2,0,B|86:217|129:277|33:309,1,146.25,8|0,0:2|0:0,0:0:0:0:
37,310,4365,6,0,P|128:335|162:355,1,107.25000327301,4|2,3:2|0:0,0:0:0:0:
270,242,4713,1,0,1:0:0:0:
214,294,4888,1,0,0:0:0:0:
158,203,5062,2,0,B|143:174|143:174|181:62,2,107.25000327301,4|2|0,0:3|0:0|1:0,0:0:0:0:
329,141,5585,1,0,0:0:0:0:
329,141,5673,1,0,0:0:0:0:
329,141,5760,6,0,L|222:168,1,107.25000327301,4|2,0:3|0:0,0:0:0:0:
377,55,6109,1,0,1:0:0:0:
459,98,6283,1,0,0:0:0:0:
414,231,6458,1,4,0:3:0:0:
472,105,6632,2,0,L|483:160,2,43.8749986610413,2|0|0,0:0|1:0|0:0,0:0:0:0:
396,222,7155,38,0,P|373:319|368:350,1,107.25000327301,4|2,0:3|0:0,0:0:0:0:
225,329,7503,1,0,1:0:0:0:
291,375,7678,1,0,0:0:0:0:
313,191,7853,2,0,B|268:164|268:164|179:211,2,107.25000327301,4|2|0,0:3|0:0|1:0,0:0:0:0:
204,326,8376,1,0,0:0:0:0:
204,326,8464,1,0,0:0:0:0:
204,326,8551,5,4,0:3:0:0:
112,294,8725,2,0,P|98:199|94:176,1,107.25000327301,2|0,0:1|1:0,0:0:0:0:
224,22,9074,2,2,P|211:107|207:128,1,73.1250027894975,2|0,0:1|0:0,0:1:0:0:
326,201,9423,1,2,3:1:0:0:
360,207,9510,1,0,3:0:0:0:
387,185,9597,1,2,1:0:0:0:
434,30,9772,2,0,P|422:78|421:90,1,36.5625013947487,2|0,0:1|0:0,0:0:0:0:
494,115,9946,38,0,B|435:125|454:171|393:166,1,107.25000327301,4|2,3:2|0:0,0:0:0:0:
230,113,10294,1,0,1:0:0:0:
294,52,10469,1,0,0:0:0:0:
403,166,10643,2,0,B|418:195|418:195|380:307,2,107.25000327301,4|2|0,0:3|0:0|1:0,0:0:0:0:
209,241,11166,1,0,0:0:0:0:
209,241,11254,1,0,0:0:0:0:
209,241,11341,6,0,L|316:214,1,107.25000327301,4|2,0:3|0:0,0:0:0:0:
134,158,11690,1,0,1:0:0:0:
42,223,11864,1,0,0:0:0:0:
115,330,12039,1,4,0:3:0:0:
42,242,12213,2,0,L|13:193,2,43.8749986610413,2|0|0,0:0|1:0|0:0,0:0:0:0:
181,101,12737,38,0,P|158:198|153:229,1,107.25000327301,4|2,0:3|0:0,0:0:0:0:
78,113,13085,1,0,1:0:0:0:
127,21,13260,1,0,0:0:0:0:
275,100,13434,2,0,B|230:127|230:127|141:80,2,107.25000327301,4|2|0,0:3|0:0|1:0,0:0:0:0:
401,6,13958,1,0,0:0:0:0:
401,6,14046,1,0,0:0:0:0:
401,6,14133,5,4,0:3:0:0:
376,102,14307,2,0,P|384:154|391:208,1,107.25000327301,2|0,0:1|1:0,0:0:0:0:
495,290,14655,1,2,3:1:0:0:
501,256,14742,1,2,3:1:0:0:
479,229,14829,1,2,3:1:0:0:
389,354,15004,1,2,1:0:0:0:
288,290,15179,2,0,B|344:277|318:243|390:227,1,109.687504184246,2|0,1:0|0:0,0:0:0:0:
388,207,15527,22,0,P|379:159|370:119,1,82.8750015807152,4|0,3:2|0:0,0:0:0:0:
476,31,15876,1,0,1:0:0:0:
446,104,16051,1,0,0:0:0:0:
344,49,16225,1,4,0:3:0:0:
263,81,16400,2,0,P|222:72|181:64,1,82.8750015807152,0|0,0:0|1:0,0:0:0:0:
38,34,16748,38,0,B|60:122|126:85|136:174,1,165.75000316143
46,260,17272,1,0,1:0:0:0:
19,188,17446,1,0,0:0:0:0:
134,253,17620,1,4,0:3:0:0:
129,337,17795,2,0,B|218:333|184:256|280:268,1,165.75000316143
389,132,18318,6,0,P|379:172|371:213,1,82.8750015807152,4|0,0:3|0:0,0:0:0:0:
468,325,18667,1,0,1:0:0:0:
393,368,18842,1,0,0:0:0:0:
267,342,19016,37,4,3:0:0:0:
341,306,19191,1,0,0:0:0:0:
293,192,19365,5,0,1:0:0:0:
389,132,19539,2,0,P|379:172|371:213,1,82.8750015807152,0|4,0:0|0:3,0:0:0:0:
327,78,19888,37,0,0:0:0:0:
327,78,19975,1,0,0:0:0:0:
327,78,20062,1,0,1:0:0:0:
389,132,20237,1,0,0:0:0:0:
501,10,20411,5,4,0:3:0:0:
431,51,20585,1,0,0:0:0:0:
262,2,20760,38,2,B|234:32|234:32|247:88,1,80.4375024547578,2|0,1:0|0:0,1:0:0:0:
235,95,21109,6,0,P|226:143|217:183,1,82.8750015807152,4|0,0:3|0:0,0:0:0:0:
323,271,21458,1,0,1:0:0:0:
294,198,21633,1,0,0:0:0:0:
184,248,21807,1,4,0:3:0:0:
105,219,21982,2,0,P|64:228|23:236,1,82.8750015807152,0|0,0:0|1:0,0:0:0:0:
184,248,22330,38,0,B|206:336|272:299|282:388,1,165.75000316143
371,314,22854,1,0,1:0:0:0:
306,212,23028,1,0,0:0:0:0:
290,217,23115,1,0,0:0:0:0:
272,243,23202,1,4,0:3:0:0:
371,314,23377,2,0,B|462:315|427:234|522:245,1,165.75000316143
391,88,23899,6,0,P|401:128|409:169,1,82.8750015807152,4|0,0:3|0:0,0:0:0:0:
299,274,24248,1,0,1:0:0:0:
371,314,24423,1,0,0:0:0:0:
509,241,24597,37,4,0:3:0:0:
449,190,24772,1,0,0:0:0:0:
449,190,24946,5,2,1:0:0:0:
371,234,25120,2,0,P|361:194|353:153,1,82.8750015807152,2|4,0:1|0:3,0:0:0:0:
431,42,25469,37,0,0:0:0:0:
431,42,25556,1,0,0:0:0:0:
431,42,25643,1,0,1:0:0:0:
353,153,25818,1,0,0:0:0:0:
245,25,25992,5,4,0:3:0:0:
323,75,26166,1,0,0:0:0:0:
323,75,26254,1,0,0:0:0:0:
323,75,26341,2,0,B|294:97|294:97|286:113|286:113|259:133,1,80.4375024547578,0|0,1:0|0:0,0:0:0:0:
188,95,26690,6,0,P|163:186|143:220,1,107.25000327301,4|2,3:2|0:0,0:0:0:0:
24,202,27038,1,0,1:0:0:0:
92,259,27213,1,0,0:0:0:0:
244,211,27388,2,0,B|286:205|286:205|305:187|305:187|354:177,2,107.25000327301,4|2|0,0:3|0:0|1:0,0:0:0:0:
149,384,27910,1,0,0:0:0:0:
149,384,27998,1,0,0:0:0:0:
149,384,28085,6,0,L|176:277,1,107.25000327301,4|2,0:3|0:0,0:0:0:0:
244,211,28434,1,0,1:0:0:0:
175,280,28608,1,0,0:0:0:0:
264,367,28783,1,4,0:3:0:0:
263,228,28958,2,0,P|257:258|256:276,2,43.8749986610413,2|0|0,0:0|1:0|0:0,0:0:0:0:
169,150,29481,38,0,P|158:97|144:45,1,107.25000327301,4|2,0:3|0:0,0:0:0:0:
305,15,29829,1,0,1:0:0:0:
250,89,30004,1,0,0:0:0:0:
144,45,30178,2,0,B|111:17|111:17|6:30,2,107.25000327301,4|2|0,0:3|0:0|1:0,0:0:0:0:
69,136,30702,1,0,0:0:0:0:
69,136,30790,1,0,0:0:0:0:
69,136,30877,5,4,0:3:0:0:
133,194,31051,2,0,P|147:289|151:312,1,107.25000327301,2|0,0:1|1:0,0:0:0:0:
38,359,31399,1,2,3:1:0:0:
16,332,31486,1,2,3:1:0:0:
22,298,31573,1,2,3:1:0:0:
144,183,31748,1,2,1:0:0:0:
244,308,31923,1,2,3:1:0:0:
361,229,32097,1,2,0:1:0:0:
343,380,32272,22,0,P|334:332|325:292,1,82.8750015807152,4|0,3:2|0:0,0:0:0:0:
469,225,32621,1,0,1:0:0:0:
416,294,32796,1,0,0:0:0:0:
302,193,32970,1,4,0:3:0:0:
367,146,33145,2,0,P|374:105|383:64,1,82.8750015807152,0|0,0:0|1:0,0:0:0:0:
512,194,33492,38,0,P|440:206|405:305,1,165.75000316143
275,359,34016,1,0,1:0:0:0:
302,287,34191,1,0,0:0:0:0:
152,184,34365,1,4,0:3:0:0:
143,274,34539,1,0,0:0:0:0:
178,182,34713,2,0,P|184:118|199:9,1,165.75000316143,0|4,1:0|0:3,0:0:0:0:
269,131,35237,5,0,0:0:0:0:
178,182,35412,1,0,1:0:0:0:
219,258,35586,1,0,0:0:0:0:
60,152,35760,37,4,0:3:0:0:
113,88,35935,1,0,0:0:0:0:
113,88,36109,5,0,1:0:0:0:
60,152,36283,2,0,P|50:192|42:233,1,82.8750015807152,0|4,0:0|0:3,0:0:0:0:
172,335,36632,37,0,0:0:0:0:
172,335,36719,1,0,0:0:0:0:
172,335,36806,1,0,1:0:0:0:
124,211,36981,1,0,0:0:0:0:
87,309,37155,5,4,0:3:0:0:
87,309,37242,1,0,0:0:0:0:
87,309,37330,1,0,0:0:0:0:
139,217,37504,1,0,1:0:0:0:
209,253,37679,1,0,0:0:0:0:
299,173,37853,38,0,P|285:114|279:85,1,82.8750015807152,4|0,3:2|0:0,0:0:0:0:
409,25,38202,1,0,1:0:0:0:
357,91,38377,1,0,0:0:0:0:
443,178,38551,1,4,0:3:0:0:
396,236,38726,2,0,P|405:277|413:318,1,82.8750015807152,0|0,0:0|1:0,0:0:0:0:
465,158,39074,6,0,P|474:117|482:76,1,82.8750015807152,0|4,0:0|0:3,0:0:0:0:
263,11,39423,2,0,P|270:51|279:92,1,82.8750015807152,0|0,0:0|1:0,0:0:0:0:
418,20,39772,1,0,0:0:0:0:
364,82,39946,1,4,0:3:0:0:
436,162,40120,2,0,B|355:159|384:245|285:238,1,165.75000316143
175,157,40644,38,0,P|185:197|193:238,1,82.8750015807152,4|0,0:3|0:0,0:0:0:0:
106,333,40993,1,0,1:0:0:0:
174,376,41168,1,0,0:0:0:0:
294,302,41342,5,4,0:3:0:0:
233,259,41517,1,0,0:0:0:0:
121,325,41691,37,0,1:0:0:0:
57,277,41865,2,0,P|67:237|75:196,1,82.8750015807152,0|4,0:0|0:3,0:0:0:0:
0,82,42214,21,0,0:0:0:0:
0,82,42301,1,0,0:0:0:0:
0,82,42388,1,0,1:0:0:0:
74,196,42563,5,4,3:2:0:0:
149,154,42737,1,0,0:0:0:0:
132,43,42911,1,0,3:0:0:0:
132,43,42999,1,0,0:0:0:0:
132,43,43085,1,8,3:0:0:0:
69,119,43260,1,8,3:0:0:0:
157,231,43434,22,0,P|259:185|332:152,1,165.75000316143,4|4,3:2|0:3,0:0:0:0:
390,204,43958,1,2,0:0:0:0:
427,128,44132,2,0,P|396:99|356:104,1,82.8750015807152,4|2,0:3|0:0,0:0:0:0:
404,228,44481,1,4,0:3:0:0:
493,192,44655,2,0,P|482:249|475:289,1,82.8750015807152,2|4,0:0|0:3,0:0:0:0:
385,367,45004,1,2,0:0:0:0:
429,303,45179,1,4,0:3:0:0:
501,326,45353,1,2,0:0:0:0:
367,366,45527,1,4,0:3:0:0:
309,199,45702,37,2,1:0:0:0:
481,181,45876,2,0,P|422:207|390:227,1,82.8750015807152,2|0,1:0|3:0,0:0:0:0:
269,177,46225,6,0,P|329:143|331:27,1,165.75000316143,4|4,0:3|0:3,0:0:0:0:
225,71,46748,1,2,0:0:0:0:
182,159,46923,2,0,L|192:250,1,82.8750015807152,4|2,0:3|0:0,0:0:0:0:
251,346,47271,1,4,0:3:0:0:
339,225,47446,2,0,P|296:248|253:272,1,82.8750015807152,2|4,0:0|0:3,0:0:0:0:
407,367,47795,1,2,0:0:0:0:
460,308,47969,1,4,0:3:0:0:
375,225,48143,1,0,0:0:0:0:
390,382,48317,1,0,0:0:0:0:
470,234,48492,38,0,L|480:292,1,41.4375007903576,2|2,3:1|3:1,0:0:0:0:
387,217,48667,2,0,B|367:184|367:184|393:126,1,82.8750015807152,2|0,1:0|0:0,0:0:0:0:
439,28,49016,6,0,P|337:74|264:107,1,165.75000316143,4|4,3:2|0:3,0:0:0:0:
179,65,49540,1,2,0:0:0:0:
140,154,49714,2,0,P|171:183|211:178,1,82.8750015807152,4|2,0:3|0:0,0:0:0:0:
144,47,50063,1,4,0:3:0:0:
45,104,50237,2,0,P|57:159|64:199,1,82.8750015807152,2|4,0:0|0:3,0:0:0:0:
41,297,50586,1,2,0:0:0:0:
89,213,50761,1,4,0:3:0:0:
169,245,50935,1,2,0:0:0:0:
37,320,51109,1,4,0:3:0:0:
222,177,51284,37,2,1:0:0:0:
194,260,51458,2,0,P|135:286|103:306,1,82.8750015807152,2|4,1:0|0:3,0:0:0:0:
321,286,51806,6,0,P|381:252|383:136,1,165.75000316143,4|0,3:2|0:0,0:0:0:0:
315,72,52329,1,0,0:0:0:0:
409,0,52504,2,0,L|399:91,1,82.8750015807152,0|4,0:0|0:3,0:0:0:0:
512,184,52852,1,8,0:3:0:0:
512,184,52940,1,4,0:3:0:0:
512,184,53027,2,0,P|500:260|497:283,1,82.8750015807152,4|4,0:3|0:3,0:0:0:0:
420,102,53376,5,0,0:0:0:0:
485,54,53550,1,0,1:0:0:0:
339,19,53724,1,0,1:0:0:0:
271,192,53898,1,0,1:0:0:0:
362,260,54074,1,4,0:3:0:0:
362,260,54161,1,4,0:3:0:0:
362,260,54248,2,2,B|288:270|332:332|237:337,1,124.312502371073,2|0,1:0|0:0,0:1:0:0:
243,320,54597,38,0,L|243:310,1,7.31249977684022,2|0,0:0|0:0,0:0:0:0:
131,278,54946,38,0,L|126:268,1,7.31249977684022,2|0,0:0|0:0,0:0:0:0:
31,343,55295,6,0,L|23:336,1,7.31249977684022,2|0,0:0|0:0,0:0:0:0:
31,343,55644,38,0,L|23:336,1,7.31249977684022,2|0,0:0|0:0,0:0:0:0:
256,12,56167,21,2,1:0:0:0:
146,161,56341,1,2,1:0:0:0:
295,286,56516,1,2,1:0:0:0:
252,29,56690,1,2,1:0:0:0:
120,264,56865,1,2,1:0:0:0:
263,43,57039,1,2,1:0:0:0:
116,140,57213,1,0,1:0:0:0:
229,235,57388,5,4,3:2:0:0:
357,151,57562,1,0,0:0:0:0:
133,60,57737,1,0,1:0:0:0:
190,142,57911,1,0,0:0:0:0:
336,51,58085,1,4,0:3:0:0:
403,123,58260,2,0,B|478:113|443:68|523:59,1,126.749994197846,0|0,0:0|1:0,0:0:0:0:
309,194,58609,37,0,0:0:0:0:
512,147,58783,1,4,0:3:0:0:
333,192,58958,2,0,B|323:267|278:232|269:312,1,126.749994197846,0|0,0:0|1:0,0:0:0:0:
203,194,59306,5,0,0:0:0:0:
0,147,59480,1,4,0:3:0:0:
179,192,59655,2,0,B|189:267|234:232|243:312,1,126.749994197846,0|0,0:0|1:0,0:0:0:0:
94,111,60004,1,0,0:0:0:0:
55,318,60179,37,4,0:3:0:0:
179,192,60353,1,0,0:0:0:0:
71,93,60528,1,0,1:0:0:0:
164,17,60702,1,0,0:0:0:0:
268,181,60876,1,4,0:3:0:0:
369,132,61051,2,0,P|346:227|340:264,1,126.749994197846,0|0,0:0|1:0,0:0:0:0:
506,370,61399,6,0,P|475:310|418:301,1,126.749994197846,0|4,0:0|0:3,0:0:0:0:
504,120,61748,1,0,0:0:0:0:
416,279,61923,1,0,1:0:0:0:
248,169,62097,1,0,0:0:0:0:
472,117,62272,1,4,0:3:0:0:
307,276,62446,1,0,0:0:0:0:
307,276,62533,1,4,0:3:0:0:
307,276,62620,2,0,P|336:227|394:158,1,126.749994197846,0|0,1:0|0:0,0:0:0:0:
229,35,62969,37,4,3:2:0:0:
309,203,63143,1,0,0:0:0:0:
149,238,63318,1,0,1:0:0:0:
201,125,63492,1,0,0:0:0:0:
314,283,63666,1,4,0:3:0:0:
228,246,63841,2,0,B|153:236|188:191|108:182,1,126.749994197846,0|0,0:0|1:0,0:0:0:0:
306,126,64190,5,0,0:0:0:0:
509,173,64364,1,4,0:3:0:0:
330,128,64539,2,0,B|320:53|275:88|266:8,1,126.749994197846,0|0,0:0|1:0,0:0:0:0:
206,126,64888,37,0,0:0:0:0:
3,173,65062,1,4,0:3:0:0:
182,128,65237,2,0,B|192:53|237:88|246:8,1,126.749994197846,0|0,0:0|1:0,0:0:0:0:
120,217,65585,1,0,0:0:0:0:
22,23,65760,5,4,0:3:0:0:
182,128,65934,1,0,0:0:0:0:
96,237,66109,1,0,1:0:0:0:
149,349,66283,1,0,0:0:0:0:
79,265,66457,1,4,0:3:0:0:
182,159,66632,2,0,P|193:221|210:283,1,126.749994197846,0|0,0:0|1:0,0:0:0:0:
452,182,66981,38,0,B|335:216|412:308|274:363,1,253.499988395691,0|0,0:0|1:0,0:0:0:0:
220,320,67417,1,0,1:0:0:0:
220,320,67504,1,0,1:0:0:0:
300,207,67679,1,4,0:3:0:0:
123,265,67853,1,4,3:2:0:0:
321,188,68027,1,0,0:0:0:0:
157,58,68202,2,0,B|120:109|120:109|165:181,1,126.749994197846,4|4,3:0|3:0,0:0:0:0:
390,50,68551,5,4,3:2:0:0:
220,114,68725,1,2,0:0:0:0:
277,47,68899,1,0,1:0:0:0:
408,202,69074,1,2,0:0:0:0:
344,262,69248,37,4,0:3:0:0:
390,50,69422,1,2,0:0:0:0:
332,110,69596,1,0,1:0:0:0:
415,211,69772,1,2,0:0:0:0:
339,283,69946,5,4,0:3:0:0:
394,28,70120,1,2,0:0:0:0:
324,100,70294,1,0,1:0:0:0:
436,208,70469,37,2,0:0:0:0:
500,147,70644,1,4,0:3:0:0:
470,63,70818,1,2,0:0:0:0:
315,89,70992,1,0,1:0:0:0:
295,178,71167,1,2,0:0:0:0:
463,262,71341,5,4,3:0:0:0:
418,204,71516,2,0,P|371:258|317:329,1,126.749994197846,2|0,0:0|1:0,0:0:0:0:
176,259,71865,2,0,P|217:306|256:356,1,126.749994197846,2|4,0:0|0:3,0:0:0:0:
288,169,72213,1,2,0:0:0:0:
288,169,72301,1,0,0:0:0:0:
288,169,72388,37,0,1:0:0:0:
85,135,72562,1,2,0:0:0:0:
235,88,72737,1,4,0:3:0:0:
111,271,72911,2,0,P|88:178|73:138,1,126.749994197846,2|0,0:0|1:0,0:0:0:0:
251,15,73260,5,2,0:1:0:0:
133,195,73434,1,2,3:1:0:0:
273,32,73609,1,2,0:1:0:0:
428,142,73783,2,0,B|465:91|465:91|420:19,1,126.749994197846,0|2,1:0|0:0,0:0:0:0:
168,233,74132,37,4,3:2:0:0:
338,169,74306,1,2,0:0:0:0:
281,236,74480,1,0,1:0:0:0:
150,81,74655,1,2,0:0:0:0:
235,123,74829,5,4,0:3:0:0:
167,223,75003,1,2,0:0:0:0:
209,330,75179,1,0,1:0:0:0:
290,225,75353,1,2,0:0:0:0:
243,110,75527,37,4,0:3:0:0:
167,223,75702,1,2,0:0:0:0:
209,330,75876,1,0,1:0:0:0:
81,259,76052,5,2,0:0:0:0:
43,157,76225,1,0,0:0:0:0:
118,83,76399,1,0,1:0:0:0:
38,189,76573,1,0,1:0:0:0:
99,63,76748,1,0,1:0:0:0:
206,128,76923,22,0,B|127:139|163:237|61:262,1,195,4|0,3:2|0:0,0:0:0:0:
307,150,77620,38,0,P|389:125|443:111,1,97.5,2|0,0:0|0:0,0:0:0:0:
487,31,77969,1,8,3:0:0:0:
477,47,78056,1,8,0:3:0:0:
492,71,78144,1,8,0:3:0:0:
444,178,78318,1,4,0:3:0:0:
379,55,78492,21,2,1:0:0:0:
442,257,78667,1,2,1:0:0:0:
511,27,78841,1,2,1:0:0:0:
336,181,79016,1,2,1:0:0:0:
336,181,79713,38,0,P|334:146|256:116,1,87.7499973220826,4|0,3:2|0:0,0:0:0:0:
155,32,80062,1,0,1:0:0:0:
213,71,80237,2,0,P|231:135|239:164,1,87.7499973220826
51,219,80585,37,0,1:0:0:0:
192,91,80760,2,0,B|124:101|156:150|72:159,1,131.624995983124,0|0,1:0|0:0,0:0:0:0:
69,142,81109,5,4,0:3:0:0:
172,197,81283,2,0,P|182:255|186:295,1,87.7499973220826,0|0,0:0|1:0,0:0:0:0:
78,384,81632,2,0,P|83:340|91:297,1,87.7499973220826,0|4,0:0|0:3,0:0:0:0:
26,192,81981,1,0,0:0:0:0:
19,177,82068,1,0,0:0:0:0:
8,164,82155,1,0,1:0:0:0:
104,32,82330,2,0,P|93:84|85:126,1,87.7499973220826,0|4,0:0|0:3,0:0:0:0:
204,230,82679,38,0,P|173:213|178:130,1,87.7499973220826,0|0,0:0|1:0,0:0:0:0:
270,32,83028,2,0,P|258:74|246:116,1,87.7499973220826,0|4,0:0|0:3,0:0:0:0:
329,210,83377,5,0,1:0:0:0:
233,132,83551,2,0,B|307:118|270:66|374:65,1,131.624995983124,0|0,1:0|0:0,0:0:0:0:
355,79,83899,37,4,3:2:0:0:
474,131,84074,1,2,0:0:0:0:
474,131,84161,1,0,0:0:0:0:
474,131,84248,5,0,1:0:0:0:
420,83,84423,1,2,0:0:0:0:
457,14,84597,1,4,0:3:0:0:
484,145,84772,1,2,0:0:0:0:
445,4,84946,1,0,1:0:0:0:
379,167,85120,1,2,0:0:0:0:
477,225,85295,38,0,P|442:227|412:305,1,87.7499973220826,4|0,3:2|0:0,0:0:0:0:
278,220,85643,1,0,1:0:0:0:
239,278,85818,2,0,P|175:296|146:304,1,87.7499973220826,0|4,0:0|0:3,0:0:0:0:
91,116,86166,5,0,1:0:0:0:
219,257,86341,2,0,B|209:189|160:221|151:137,1,131.624995983124,0|0,1:0|0:0,0:0:0:0:
168,134,86691,37,4,0:3:0:0:
52,121,86865,2,0,P|42:63|38:23,1,87.7499973220826,0|0,0:0|1:0,0:0:0:0:
87,201,87214,2,0,P|81:244|73:287,1,87.7499973220826,0|4,0:0|0:3,0:0:0:0:
191,358,87563,1,0,0:0:0:0:
184,343,87650,1,0,0:0:0:0:
173,330,87737,1,0,1:0:0:0:
242,210,87912,2,0,P|285:201|327:192,1,87.7499973220826,0|4,0:0|0:3,0:0:0:0:
203,140,88260,6,0,P|172:156|177:239,1,87.7499973220826,0|0,0:0|1:0,0:0:0:0:
257,365,88609,2,0,B|258:323|258:323|233:280,1,87.7499973220826,0|4,0:0|0:3,0:0:0:0:
328,160,88958,37,0,1:0:0:0:
214,270,89132,2,0,B|288:284|251:336|355:337,1,131.624995983124,0|0,1:0|0:0,0:0:0:0:
336,311,89480,5,4,3:2:0:0:
473,239,89655,1,4,0:3:0:0:
473,239,89742,1,0,0:0:0:0:
473,239,89829,5,2,1:0:0:0:
406,276,90004,2,0,L|428:322,1,43.8749986610413,2|4,3:1|0:3,0:0:0:0:
457,365,90178,1,2,1:0:0:0:
483,225,90353,1,2,1:0:0:0:
419,172,90527,1,2,1:0:0:0:
495,40,90702,2,0,P|486:105|482:142,1,87.7499973220826,2|4,1:0|0:3,0:0:0:0:
