osu file format v14

[General]
AudioFilename: audio.mp3
AudioLeadIn: 0
PreviewTime: 57192
Countdown: 0
SampleSet: Soft
StackLeniency: 1
Mode: 0
LetterboxInBreaks: 0
WidescreenStoryboard: 1

[Editor]
DistanceSpacing: 0.4
BeatDivisor: 4
GridSize: 32
TimelineZoom: 1.7

[Metadata]
Title:Telesto Teles
TitleUnicode:テレストテレス
Artist:Kairiki bear feat. Hatsune Miku
ArtistUnicode:かいりきベア feat.初音ミク
Creator:Ryuusei Aika
Version:Liban's Insane
Source:
Tags:cut ver version ボーカロイド vocaloid japanese rock jrock j-rock basen basensorex niva -liban- liban wafer
BeatmapID:2514203
BeatmapSetID:-1

[Difficulty]
HPDrainRate:5
CircleSize:4
OverallDifficulty:7.5
ApproachRate:8.7
SliderMultiplier:1.4
SliderTickRate:1

[Events]
//Background and Video events
0,0,"BG.png",0,0
//Break Periods
//Storyboard Layer 0 (Background)
//Storyboard Layer 1 (Fail)
//Storyboard Layer 2 (Pass)
//Storyboard Layer 3 (Foreground)
//Storyboard Layer 4 (Overlay)
//Storyboard Sound Samples

[TimingPoints]
179,348.837209302326,4,2,0,35,1,0
1574,-200,4,2,0,35,0,0
3841,-111.111111111111,4,3,0,55,0,0
4365,-100,4,2,0,70,0,0
15527,-125,4,2,0,45,0,0
16748,-125,4,2,0,45,0,0
17620,-125,4,2,0,45,0,0
19713,-111.111111111111,4,2,0,45,0,0
20760,-90.9090909090909,4,2,0,45,0,0
21109,-125,4,2,0,45,0,0
24946,-100,4,2,0,45,0,0
25295,-125,4,2,0,45,0,0
26690,-100,4,2,0,70,0,0
32446,-125,4,2,0,60,0,0
42562,-100,4,2,0,60,0,0
43434,-142.857142857143,4,2,0,45,0,0
45702,-142.857142857143,4,2,0,60,0,0
46225,-142.857142857143,4,2,0,45,0,0
48492,-142.857142857143,4,2,0,60,0,0
48667,-125,4,2,0,60,0,0
48929,-125,4,2,0,5,0,0
49016,-125,4,2,0,45,0,0
51283,-125,4,2,0,60,0,0
52330,-125,4,2,0,45,0,0
52679,-125,4,2,0,50,0,0
53376,-125,4,2,0,60,0,0
53899,-125,4,2,0,50,0,0
54510,-125,4,2,0,5,0,0
54597,-125,4,2,0,35,0,0
56167,-100,4,2,0,60,0,0
57388,-90.9090909090909,4,2,0,80,0,0
61399,-90.9090909090909,4,2,0,70,0,0
62969,-90.9090909090909,4,2,0,80,0,0
71341,-90.9090909090909,4,2,0,70,0,0
74132,-90.9090909090909,4,2,0,80,0,0
76923,-125,4,2,0,60,0,0
78318,-100,4,2,0,60,0,0
78492,-100,4,2,0,70,0,0
79713,-100,4,2,0,50,0,0
84074,-100,4,2,0,60,0,0
85295,-100,4,2,0,50,0,0
89655,-100,4,2,0,60,0,0
90876,-100,4,2,0,50,0,0

[Colours]
Combo1 : 192,192,192
Combo2 : 128,128,255
Combo3 : 255,128,255
Combo4 : 95,95,95

[HitObjects]
121,99,1574,53,0,0:0:0:0:
121,99,1923,1,0,0:0:0:0:
121,99,2272,1,0,0:0:0:0:
121,99,2620,1,0,0:0:0:0:
178,49,3144,37,0,0:0:0:0:
241,85,3318,1,0,0:0:0:0:
329,162,3492,5,0,0:0:0:0:
258,184,3667,1,0,0:0:0:0:
341,258,3841,37,0,0:0:0:0:
485,325,4016,1,8,0:2:0:0:
342,250,4365,22,0,L|326:165,1,70,4|2,3:2|0:0,0:0:0:0:
469,244,4713,5,0,1:0:0:0:
469,244,4888,1,0,0:0:0:0:
328,345,5062,2,0,L|263:318,1,70,4|2,0:3|0:0,0:0:0:0:
420,325,5411,37,0,1:0:0:0:
337,194,5585,1,0,0:0:0:0:
337,194,5673,1,0,0:0:0:0:
337,194,5760,2,0,L|355:121,1,70,4|2,0:3|0:0,0:0:0:0:
257,47,6109,5,0,1:0:0:0:
355,15,6283,1,0,0:0:0:0:
450,69,6458,2,0,P|461:102|474:154,1,70,4|2,0:3|0:0,0:0:0:0:
260,254,6806,37,0,1:0:0:0:
338,185,6981,2,0,P|310:154|258:143,1,70,0|4,0:0|0:3,0:0:0:0:
150,90,7330,5,2,0:0:0:0:
81,127,7504,1,0,1:0:0:0:
145,168,7679,1,0,0:0:0:0:
215,142,7853,1,4,0:3:0:0:
266,59,8027,37,2,0:0:0:0:
266,59,8202,1,0,1:0:0:0:
190,2,8376,5,0,0:0:0:0:
110,22,8551,1,4,0:3:0:0:
285,216,8725,38,0,P|317:202|335:172,1,70,2|0,0:1|1:0,0:0:0:0:
510,151,9074,2,2,P|496:109|452:83,1,70,2|0,0:1|0:0,0:1:0:0:
297,56,9423,1,2,3:1:0:0:
279,52,9510,1,0,3:0:0:0:
266,55,9597,2,0,P|233:77|225:122,1,70,2|2,1:0|0:1,0:0:0:0:
346,307,9946,2,0,P|415:291|420:208,1,140,4|0,3:2|1:0,0:0:0:0:
289,213,10469,5,0,0:0:0:0:
214,302,10644,2,0,L|238:381,1,70,4|2,0:3|0:0,0:0:0:0:
365,295,10992,37,0,1:0:0:0:
191,384,11167,1,0,0:0:0:0:
191,384,11254,1,0,0:0:0:0:
191,384,11341,2,0,L|124:351,1,70,4|2,0:3|0:0,0:0:0:0:
92,253,11690,5,0,1:0:0:0:
196,215,11865,1,0,0:0:0:0:
297,297,12039,2,0,P|309:335|309:375,1,70,4|2,0:3|0:0,0:0:0:0:
196,305,12388,37,0,1:0:0:0:
294,211,12562,2,0,P|350:188|386:198,1,70,0|4,0:0|0:3,0:0:0:0:
196,106,12911,5,2,0:0:0:0:
276,31,13085,1,0,1:0:0:0:
195,32,13260,1,0,0:0:0:0:
273,104,13434,1,4,0:3:0:0:
366,45,13609,37,2,0:0:0:0:
366,45,13783,1,0,1:0:0:0:
181,114,13958,5,0,0:0:0:0:
174,128,14045,1,0,0:0:0:0:
166,142,14132,1,4,0:3:0:0:
109,242,14306,38,0,L|29:271,1,70,2|0,0:1|1:0,0:0:0:0:
287,190,14655,1,2,3:1:0:0:
320,205,14742,1,2,3:1:0:0:
339,243,14830,1,2,3:1:0:0:
270,322,15004,5,2,1:0:0:0:
353,130,15179,1,2,1:0:0:0:
353,130,15527,2,0,L|413:142,1,56,4|0,3:2|0:0,0:0:0:0:
240,236,15876,21,0,1:0:0:0:
240,236,16051,2,0,L|221:183,1,56,0|4,0:0|0:3,0:0:0:0:
184,106,16399,2,0,L|130:90,1,56,0|0,0:0|1:0,0:0:0:0:
292,73,16748,38,0,B|335:88|335:88|355:113|355:113|402:130,1,112
504,27,17272,2,0,L|429:50,1,56,0|0,1:0|0:0,0:0:0:0:
361,210,17620,1,4,0:3:0:0:
398,234,17795,5,0,0:0:0:0:
398,234,17882,1,0,0:0:0:0:
398,234,17969,1,0,1:0:0:0:
463,323,18144,37,0,0:0:0:0:
390,386,18318,2,0,P|359:372|344:341,1,56,4|0,0:3|0:0,0:0:0:0:
212,244,18667,2,0,L|195:163,1,56,0|0,1:0|0:0,0:0:0:0:
320,269,19016,5,4,3:0:0:0:
320,269,19190,1,0,0:0:0:0:
184,382,19365,2,0,P|141:347|137:326,1,56,0|0,1:0|0:0,0:0:0:0:
192,235,19713,37,4,0:3:0:0:
228,249,19888,1,0,0:0:0:0:
228,249,19975,1,0,0:0:0:0:
228,249,20062,1,0,1:0:0:0:
167,302,20237,1,0,0:0:0:0:
110,256,20411,1,4,0:3:0:0:
163,208,20585,1,0,0:0:0:0:
331,203,20760,6,2,L|498:257,1,154.000004699707,2|4,1:0|0:3,1:0:0:0:
342,182,21458,2,0,L|394:200,1,56,0|0,1:0|0:0,0:0:0:0:
433,264,21806,1,4,0:3:0:0:
381,157,21981,2,0,P|357:133|323:116,1,56,0|0,0:0|1:0,0:0:0:0:
430,43,22330,38,0,P|447:21|471:6,1,56,0|4,0:0|0:3,0:0:0:0:
512,110,22679,1,0,0:0:0:0:
483,15,22853,1,0,1:0:0:0:
483,15,23027,2,0,L|526:26,2,28,0|0|4,0:0|0:0|0:3,0:0:0:0:
423,117,23376,5,0,0:0:0:0:
423,117,23463,1,0,0:0:0:0:
423,117,23551,1,0,1:0:0:0:
360,161,23725,1,0,0:0:0:0:
243,141,23899,38,0,L|168:110,1,56,4|0,0:3|0:0,0:0:0:0:
321,18,24248,2,0,L|324:99,1,56,0|0,1:0|0:0,0:0:0:0:
171,42,24597,1,4,0:3:0:0:
229,0,24772,1,0,0:0:0:0:
357,186,24946,6,0,L|325:334,1,140,2|4,1:0|0:3,0:0:0:0:
345,345,25469,1,0,0:0:0:0:
345,345,25556,1,0,0:0:0:0:
345,345,25644,1,0,1:0:0:0:
279,293,25818,1,0,0:0:0:0:
215,328,25992,1,4,0:3:0:0:
276,384,26167,1,0,0:0:0:0:
276,384,26254,1,0,0:0:0:0:
276,384,26341,38,0,L|294:316,1,56,0|0,1:0|0:0,0:0:0:0:
181,191,26690,2,0,P|135:201|113:226,1,70,4|2,3:2|0:0,0:0:0:0:
49,185,27039,21,0,1:0:0:0:
170,272,27213,1,0,0:0:0:0:
51,328,27388,1,4,0:3:0:0:
89,259,27562,1,2,0:0:0:0:
198,382,27737,5,0,1:0:0:0:
120,290,27911,1,0,0:0:0:0:
116,282,27998,1,0,0:0:0:0:
110,268,28085,2,0,L|127:197,1,70,4|2,0:3|0:0,0:0:0:0:
228,90,28434,37,0,1:0:0:0:
116,12,28609,1,0,0:0:0:0:
85,125,28783,1,4,0:3:0:0:
137,197,28958,5,2,0:0:0:0:
208,148,29132,1,0,1:0:0:0:
137,113,29306,1,0,0:0:0:0:
267,269,29481,38,0,L|355:301,1,70,4|2,0:3|0:0,0:0:0:0:
373,233,29830,5,0,1:0:0:0:
490,200,30004,1,0,0:0:0:0:
469,343,30179,1,4,0:3:0:0:
469,343,30353,1,2,0:0:0:0:
375,236,30527,1,0,1:0:0:0:
448,260,30702,1,0,0:0:0:0:
456,268,30789,1,0,0:0:0:0:
456,268,30876,1,4,0:3:0:0:
370,384,31051,38,0,P|332:364|317:323,1,70,2|0,0:1|1:0,0:0:0:0:
306,225,31399,1,2,3:1:0:0:
332,205,31487,1,2,3:1:0:0:
370,219,31574,1,2,3:1:0:0:
246,296,31748,5,2,1:0:0:0:
328,116,31923,1,2,3:1:0:0:
328,116,32272,38,0,L|397:134,1,70,4|0,3:2|0:0,0:0:0:0:
179,193,32620,2,0,L|121:215,1,56,0|0,1:0|0:0,0:0:0:0:
179,193,32969,37,4,0:3:0:0:
274,273,33144,2,0,P|295:298|323:329,1,56,0|0,0:0|1:0,0:0:0:0:
377,149,33492,38,0,L|428:125,1,56,0|4,0:0|0:3,0:0:0:0:
250,87,33841,1,0,0:0:0:0:
250,87,34016,2,0,L|306:53,1,56,0|0,1:0|0:0,0:0:0:0:
432,102,34365,5,4,0:3:0:0:
480,248,34539,2,0,L|459:297,1,28
389,310,34713,2,0,B|334:296|347:277|276:255,1,112,0|4,1:0|0:3,0:0:0:0:
276,279,35237,38,0,L|336:303,1,56,0|0,0:0|1:0,0:0:0:0:
155,313,35585,2,0,L|95:337,1,56,0|4,0:0|0:3,0:0:0:0:
48,384,35934,5,0,0:0:0:0:
209,236,36109,2,0,P|229:176|228:115,1,112,0|4,1:0|0:3,0:0:0:0:
278,67,36632,1,0,0:0:0:0:
278,67,36719,1,0,0:0:0:0:
278,67,36806,1,0,1:0:0:0:
349,36,36981,1,0,0:0:0:0:
392,102,37155,37,4,0:3:0:0:
320,130,37330,1,0,0:0:0:0:
444,50,37504,1,0,1:0:0:0:
512,172,37679,1,0,0:0:0:0:
392,236,37853,6,0,L|332:212,1,56,4|0,3:2|0:0,0:0:0:0:
423,156,38202,1,0,1:0:0:0:
423,156,38376,1,0,0:0:0:0:
270,290,38551,37,4,0:3:0:0:
352,384,38725,2,0,P|380:365|386:327,1,56,0|0,0:0|1:0,0:0:0:0:
512,197,39074,6,0,L|497:124,1,56,0|4,0:0|0:3,0:0:0:0:
400,53,39423,2,0,L|325:37,1,56,0|0,0:0|1:0,0:0:0:0:
400,53,39772,1,0,0:0:0:0:
465,140,39946,1,4,0:3:0:0:
374,209,40120,2,0,P|350:190|341:149,1,56,0|0,0:0|1:0,0:0:0:0:
184,77,40469,2,0,L|114:93,1,56,0|4,0:0|0:3,0:0:0:0:
170,57,40818,37,0,0:0:0:0:
229,119,40992,1,0,1:0:0:0:
190,31,41167,1,0,0:0:0:0:
164,177,41341,2,0,L|148:246,1,56,4|0,0:3|0:0,0:0:0:0:
96,128,41690,5,0,1:0:0:0:
241,262,41865,2,0,L|311:287,1,56,0|4,0:0|0:3,0:0:0:0:
438,182,42213,37,0,0:0:0:0:
332,264,42388,1,0,1:0:0:0:
447,384,42562,2,0,P|494:362|463:278,1,140,4|0,3:2|3:0,0:0:0:0:
275,166,43085,21,8,3:0:0:0:
279,170,43260,1,8,3:0:0:0:
175,232,43434,2,0,P|150:256|135:277,1,48.9999985046387,4|2,3:2|0:0,0:0:0:0:
98,265,43783,37,4,0:3:0:0:
112,304,43958,1,2,0:0:0:0:
197,374,44132,2,0,L|149:384,1,48.9999985046387,4|2,0:3|0:0,0:0:0:0:
257,256,44481,37,4,0:3:0:0:
335,319,44655,2,0,L|323:383,1,48.9999985046387,2|4,0:0|0:3,0:0:0:0:
192,305,45004,1,2,0:0:0:0:
192,305,45179,1,4,0:3:0:0:
271,368,45353,1,2,0:0:0:0:
271,368,45527,1,4,0:3:0:0:
94,313,45702,5,2,1:0:0:0:
273,209,45876,1,2,1:0:0:0:
346,316,46051,37,0,3:0:0:0:
187,198,46225,2,0,L|198:144,1,48.9999985046387,4|2,0:3|0:0,0:0:0:0:
196,149,46574,1,4,0:3:0:0:
57,282,46748,1,2,0:0:0:0:
57,282,46923,6,0,P|88:273|111:268,1,48.9999985046387,4|2,0:3|0:0,0:0:0:0:
269,317,47272,1,4,0:3:0:0:
244,328,47446,2,0,P|227:309|217:287,1,48.9999985046387,2|4,0:0|0:3,0:0:0:0:
289,226,47795,37,2,0:0:0:0:
146,218,47969,1,4,0:3:0:0:
201,163,48144,1,0,0:0:0:0:
201,163,48318,1,0,0:0:0:0:
313,82,48492,5,2,3:1:0:0:
256,0,48667,1,2,1:0:0:0:
256,0,49016,38,0,L|278:125,1,112,4|4,3:2|0:3,0:0:0:0:
275,110,49539,1,2,0:0:0:0:
150,215,49713,2,0,P|124:211|94:205,1,56,4|2,0:3|0:0,0:0:0:0:
150,215,50062,5,4,0:3:0:0:
207,265,50237,1,2,0:0:0:0:
168,330,50411,2,0,P|136:348|108:358,1,56,0|2,0:0|0:0,0:0:0:0:
207,265,50760,37,4,0:3:0:0:
285,260,50934,1,2,0:0:0:0:
359,283,51109,1,4,0:3:0:0:
264,174,51283,5,2,1:0:0:0:
377,367,51458,1,2,1:0:0:0:
430,317,51632,1,4,0:3:0:0:
276,292,51806,2,0,L|217:323,1,56,4|0,3:2|0:0,0:0:0:0:
258,196,52330,37,0,0:0:0:0:
322,156,52504,1,0,0:0:0:0:
386,195,52679,1,4,0:3:0:0:
330,326,52853,5,8,0:3:0:0:
292,307,52940,1,4,0:3:0:0:
276,268,53027,1,4,0:3:0:0:
317,198,53202,1,4,0:3:0:0:
317,198,53376,37,0,0:0:0:0:
391,243,53551,1,0,1:0:0:0:
196,246,53725,21,0,1:0:0:0:
116,304,53899,1,0,1:0:0:0:
244,132,54074,5,4,0:3:0:0:
238,123,54162,1,4,0:3:0:0:
235,113,54249,2,2,L|343:139,1,112,2|2,1:0|0:0,0:1:0:0:
350,158,56167,37,2,1:0:0:0:
258,209,56341,1,2,1:0:0:0:
141,102,56516,37,2,1:0:0:0:
242,123,56690,1,2,1:0:0:0:
93,198,56865,5,2,1:0:0:0:
5,255,57039,1,2,1:0:0:0:
192,284,57213,5,0,1:0:0:0:
326,367,57388,2,0,B|406:347|386:313|474:288,1,154.000004699707,4|0,3:2|1:0,0:0:0:0:
314,364,57911,2,0,P|346:381|394:377,1,77.0000023498536,0|4,0:0|0:3,0:0:0:0:
492,292,58260,2,0,L|511:208,1,77.0000023498536,0|0,0:0|1:0,0:0:0:0:
336,252,58609,37,0,0:0:0:0:
417,320,58783,1,4,0:3:0:0:
336,252,58958,2,0,L|261:297,1,77.0000023498536,0|0,0:0|1:0,0:0:0:0:
322,136,59306,5,0,0:0:0:0:
437,233,59481,1,4,0:3:0:0:
322,136,59655,2,0,L|354:51,1,77.0000023498536,0|0,0:0|1:0,0:0:0:0:
415,161,60004,1,0,0:0:0:0:
327,232,60179,1,4,0:3:0:0:
210,147,60353,37,0,0:0:0:0:
344,84,60527,1,0,1:0:0:0:
193,62,60702,5,0,0:0:0:0:
312,158,60876,1,4,0:3:0:0:
100,91,61051,38,0,L|-4:131,1,77.0000023498536,0|0,0:0|1:0,0:0:0:0:
312,158,61399,6,0,L|409:202,1,77.0000023498536,0|4,0:0|0:3,0:0:0:0:
292,353,61748,2,0,P|269:364|253:380,1,38.5000011749268
254,384,61923,38,0,B|216:310|273:319|227:232,1,154.000004699707,0|4,1:0|0:3,0:0:0:0:
44,383,62446,1,0,0:0:0:0:
44,383,62533,1,4,0:3:0:0:
44,383,62620,1,0,1:0:0:0:
144,305,62795,1,0,0:0:0:0:
79,216,62969,2,0,P|33:217|-16:309,1,154.000004699707,4|0,3:2|1:0,0:0:0:0:
187,188,63492,5,0,0:0:0:0:
137,90,63667,2,0,P|114:66|39:68,1,77.0000023498536,4|0,0:3|0:0,0:0:0:0:
12,298,64016,37,0,1:0:0:0:
116,221,64190,1,0,0:0:0:0:
0,219,64365,5,4,0:3:0:0:
118,347,64539,2,0,L|192:326,1,77.0000023498536,0|0,0:0|1:0,0:0:0:0:
335,246,64888,37,0,0:0:0:0:
423,346,65062,1,4,0:3:0:0:
335,246,65237,2,0,L|366:163,1,77.0000023498536,0|0,0:0|1:0,0:0:0:0:
509,183,65585,5,0,0:0:0:0:
328,253,65760,2,0,B|263:222|285:199|195:165,1,154.000004699707,4|0,0:3|1:0,0:0:0:0:
126,73,66283,1,0,0:0:0:0:
260,22,66458,37,4,0:3:0:0:
126,73,66632,2,0,L|91:150,1,77.0000023498536,0|0,0:0|1:0,0:0:0:0:
260,22,66981,6,0,P|322:34|342:120,1,154.000004699707,0|0,0:0|1:0,0:0:0:0:
363,134,67417,1,0,1:0:0:0:
363,134,67504,2,0,P|338:165|318:172,1,38.5000011749268,0|0,1:0|0:0,0:0:0:0:
316,263,67679,2,0,P|297:267|278:264,1,38.5000011749268,4|0,0:3|0:0,0:0:0:0:
162,151,67853,38,0,B|165:127|165:127|185:105,1,38.5000011749268,4|0,3:2|0:0,0:0:0:0:
252,145,68027,2,0,B|249:172|249:172|233:198,1,38.5000011749268
103,53,68202,5,4,3:0:0:0:
156,176,68376,1,4,3:0:0:0:
254,119,68551,37,4,3:2:0:0:
156,176,68725,2,0,L|134:255,1,77.0000023498536,2|0,0:0|1:0,0:0:0:0:
69,133,69074,5,2,0:0:0:0:
196,84,69248,1,4,0:3:0:0:
69,133,69423,2,0,L|-8:96,1,77.0000023498536,2|0,0:0|1:0,0:0:0:0:
108,56,69772,37,2,0:0:0:0:
162,193,69946,1,4,0:3:0:0:
108,56,70120,2,0,L|142:-18,1,77.0000023498536,2|0,0:0|1:0,0:0:0:0:
4,98,70469,5,2,0:0:0:0:
81,167,70644,1,4,0:3:0:0:
167,249,70818,37,2,0:0:0:0:
60,296,70992,1,0,1:0:0:0:
167,249,71167,1,2,0:0:0:0:
22,222,71341,5,4,3:0:0:0:
205,321,71516,2,0,L|278:285,1,77.0000023498536,2|0,0:0|1:0,0:0:0:0:
104,384,71865,38,0,P|73:366|81:300,1,77.0000023498536,2|4,0:0|0:3,0:0:0:0:
169,230,72213,1,2,0:0:0:0:
184,236,72301,1,0,0:0:0:0:
201,241,72388,2,0,P|204:287|172:316,1,77.0000023498536,0|2,1:0|0:0,0:0:0:0:
371,172,72737,5,4,0:3:0:0:
228,63,72911,2,0,L|65:112,1,154.000004699707,2|2,0:0|0:1,0:0:0:0:
299,0,73434,2,0,P|339:14|346:76,1,77.0000023498536,2|2,3:1|0:1,0:0:0:0:
205,194,73783,2,0,L|123:175,1,77.0000023498536,0|2,1:0|0:0,0:0:0:0:
303,98,74132,37,4,3:2:0:0:
206,202,74306,2,0,P|183:169|190:130,1,77.0000023498536,2|0,0:0|1:0,0:0:0:0:
340,261,74655,1,2,0:0:0:0:
225,317,74830,1,4,0:3:0:0:
340,261,75004,2,0,L|416:288,1,77.0000023498536,2|0,0:0|1:0,0:0:0:0:
322,352,75353,5,2,0:0:0:0:
236,235,75527,1,4,0:3:0:0:
322,352,75702,2,0,L|402:330,1,77.0000023498536,2|0,0:0|1:0,0:0:0:0:
512,228,76051,37,2,0:0:0:0:
403,174,76225,1,0,0:0:0:0:
512,228,76399,5,0,1:0:0:0:
365,325,76574,1,0,1:0:0:0:
512,228,76748,37,0,1:0:0:0:
403,174,76923,1,4,3:2:0:0:
381,70,77620,38,0,L|434:54,1,56,2|0,0:0|0:0,0:0:0:0:
480,0,77969,1,8,3:0:0:0:
480,0,78056,1,8,0:3:0:0:
480,0,78144,1,8,0:3:0:0:
381,70,78318,1,4,0:3:0:0:
203,41,78492,5,2,1:0:0:0:
297,94,78667,1,2,1:0:0:0:
187,196,78841,37,2,1:0:0:0:
78,273,79016,1,2,1:0:0:0:
230,355,79713,5,4,3:2:0:0:
160,276,79888,2,0,L|177:199,1,70,0|0,0:0|1:0,0:0:0:0:
282,151,80237,2,0,L|296:240,1,70
170,104,80585,37,0,1:0:0:0:
307,47,80760,2,0,L|458:95,1,140,0|4,1:0|0:3,0:0:0:0:
209,0,81283,38,0,L|124:27,1,70,0|0,0:0|1:0,0:0:0:0:
46,108,81632,2,0,L|21:206,1,70,0|4,0:0|0:3,0:0:0:0:
66,36,81981,5,0,0:0:0:0:
61,31,82068,1,0,0:0:0:0:
56,26,82155,1,0,1:0:0:0:
172,84,82330,2,0,P|203:112|210:154,1,70,0|4,0:0|0:3,0:0:0:0:
37,291,82679,38,0,P|41:248|129:218,1,140
75,384,83376,5,0,1:0:0:0:
211,304,83551,2,0,L|371:349,1,140,0|4,1:0|3:2,0:0:0:0:
305,261,84074,37,2,0:0:0:0:
204,314,84248,1,0,1:0:0:0:
305,261,84423,1,2,0:0:0:0:
166,129,84597,5,4,0:3:0:0:
285,182,84772,1,2,0:0:0:0:
166,129,84946,1,0,1:0:0:0:
302,108,85120,37,2,0:0:0:0:
188,201,85295,1,4,3:2:0:0:
302,108,85469,2,0,L|390:87,1,70,0|0,0:0|1:0,0:0:0:0:
500,23,85818,2,0,L|412:2,1,70,0|4,0:0|0:3,0:0:0:0:
512,185,86167,5,0,1:0:0:0:
377,267,86341,2,0,B|305:250|329:231|251:199,1,140,0|4,1:0|0:3,0:0:0:0:
164,289,86865,2,0,L|184:368,1,70,0|0,0:0|1:0,0:0:0:0:
32,209,87213,2,0,L|12:276,1,70,0|4,0:0|0:3,0:0:0:0:
143,150,87562,37,0,0:0:0:0:
149,159,87649,1,0,0:0:0:0:
155,168,87737,1,0,1:0:0:0:
103,66,87911,2,0,L|176:46,1,70,0|4,0:0|0:3,0:0:0:0:
174,51,88260,6,0,L|106:31,1,70,0|0,0:0|1:0,0:0:0:0:
349,121,88609,2,0,L|417:141,1,70,0|4,0:0|0:3,0:0:0:0:
287,283,88958,37,0,1:0:0:0:
232,172,89132,2,0,B|236:87|276:124|275:14,1,140,0|4,1:0|3:2,0:0:0:0:
343,0,89655,21,4,0:3:0:0:
197,58,89830,1,2,1:0:0:0:
134,1,90004,53,2,3:1:0:0:
142,9,90091,1,4,0:3:0:0:
142,9,90179,1,2,1:0:0:0:
197,58,90353,1,2,1:0:0:0:
261,90,90527,1,2,1:0:0:0:
336,99,90702,1,2,1:0:0:0:
