osu file format v14

[General]
AudioFilename: audio.mp3
AudioLeadIn: 0
PreviewTime: 57192
Countdown: 0
SampleSet: Soft
StackLeniency: 0.4
Mode: 0
LetterboxInBreaks: 0
WidescreenStoryboard: 1

[Editor]
Bookmarks: 4365,15527,26690,32272,43434,51806,57388,68551,76923,79713
DistanceSpacing: 1
BeatDivisor: 2
GridSize: 16
TimelineZoom: 1.6

[Metadata]
Title:Telesto Teles
TitleUnicode:テレストテレス
Artist:Kairiki bear feat. Hatsune Miku
ArtistUnicode:かいりきベア feat.初音ミク
Creator:Ryuusei Aika
Version:Basen's Normal
Source:
Tags:cut ver version ボーカロイド vocaloid japanese rock jrock j-rock basen basensorex niva -liban- liban wafer
BeatmapID:2523529
BeatmapSetID:-1

[Difficulty]
HPDrainRate:3
CircleSize:3.5
OverallDifficulty:4
ApproachRate:5.2
SliderMultiplier:1
SliderTickRate:1

[Events]
//Background and Video events
0,0,"BG.png",0,0
//Break Periods
//Storyboard Layer 0 (Background)
//Storyboard Layer 1 (Fail)
//Storyboard Layer 2 (Pass)
//Storyboard Layer 3 (Foreground)
//Storyboard Layer 4 (Overlay)
//Storyboard Sound Samples

[TimingPoints]
179,348.837209302326,4,2,0,35,1,0
3841,-100,4,3,0,55,0,0
4365,-100,4,2,0,70,0,0
15527,-111.111111111111,4,2,0,45,0,0
16748,-111.111111111111,4,2,0,45,0,0
17620,-111.111111111111,4,2,0,45,0,0
26690,-99.9999999999999,4,2,0,70,0,0
32272,-111.111111111111,4,2,0,70,0,0
32446,-111.111111111111,4,2,0,60,0,0
43434,-111.111111111111,4,2,0,45,0,0
45702,-111.111111111111,4,2,0,60,0,0
46225,-111.111111111111,4,2,0,45,0,0
48492,-111.111111111111,4,2,0,60,0,0
48929,-111.111111111111,4,2,0,5,0,0
49016,-111.111111111111,4,2,0,45,0,0
51283,-111.111111111111,4,2,0,60,0,0
52330,-111.111111111111,4,2,0,45,0,0
52679,-111.111111111111,4,2,0,50,0,0
53376,-111.111111111111,4,2,0,60,0,0
53899,-111.111111111111,4,2,0,50,0,0
54510,-111.111111111111,4,2,0,5,0,0
54597,-111.111111111111,4,2,0,35,0,0
56167,-111.111111111111,4,2,0,60,0,0
57388,-90.9090909090909,4,2,0,80,0,1
61399,-90.9090909090909,4,2,0,70,0,1
62969,-90.9090909090909,4,2,0,80,0,1
68376,-90.9090909090909,4,2,0,80,0,0
68551,-90.9090909090909,4,2,0,80,0,1
71341,-90.9090909090909,4,2,0,70,0,1
74132,-90.9090909090909,4,2,0,80,0,1
76923,-100,4,2,0,60,0,0
78492,-100,4,2,0,70,0,0
79713,-100,4,2,0,50,0,0
84074,-100,4,2,0,60,0,0
85295,-100,4,2,0,50,0,0
89655,-100,4,2,0,60,0,0
90876,-100,4,2,0,50,0,0

[Colours]
Combo1 : 192,192,192
Combo2 : 128,128,255
Combo3 : 255,128,255
Combo4 : 95,95,95

[HitObjects]
419,316,3841,53,0,0:0:0:0:
419,316,4016,2,0,P|395:326|371:325,1,50,8|0,0:2|0:0,0:0:0:0:
331,355,4365,6,0,L|214:344,1,100,4|0,3:2|1:0,0:0:0:0:
201,312,4888,1,0,0:0:0:0:
201,312,5062,2,0,L|84:323,1,100,4|0,0:3|1:0,0:0:0:0:
31,249,5760,2,0,L|27:195,1,50,4|2,0:3|0:0,0:0:0:0:
60,161,6109,2,0,L|65:107,1,50,0|0,1:0|0:0,0:0:0:0:
70,61,6458,1,4,0:3:0:0:
149,0,6806,1,0,1:0:0:0:
238,44,7155,6,0,P|285:57|345:37,1,100,4|0,0:3|1:0,0:0:0:0:
385,33,7678,1,0,0:0:0:0:
385,33,7853,2,0,L|396:150,1,100,4|0,0:3|1:0,0:0:0:0:
482,190,8551,1,4,0:3:0:0:
482,190,8725,2,0,L|471:307,2,100,2|2|2,0:1|0:1|3:1,0:0:0:0:
486,140,9597,1,2,1:0:0:0:
421,63,9946,38,0,P|374:76|314:56,1,100,4|0,3:2|1:0,0:0:0:0:
281,81,10469,1,0,0:0:0:0:
281,81,10644,2,0,P|234:68|174:88,1,100,4|0,0:3|1:0,0:0:0:0:
100,133,11341,2,0,P|109:157|108:181,1,50,4|2,0:3|0:0,0:0:0:0:
127,227,11690,2,0,P|117:251|118:275,1,50,0|0,1:0|0:0,0:0:0:0:
119,324,12039,1,4,0:3:0:0:
203,377,12387,1,0,1:0:0:0:
291,329,12737,6,0,L|302:212,1,100,4|0,0:3|1:0,0:0:0:0:
342,201,13259,1,0,0:0:0:0:
342,201,13434,2,0,L|331:84,1,100,4|0,0:3|1:0,0:0:0:0:
260,40,14132,1,4,0:3:0:0:
260,40,14306,2,0,P|213:27|153:47,2,100,2|2|2,0:1|3:1|1:0,0:0:0:0:
302,12,15178,1,2,1:0:0:0:
381,53,15527,21,4,3:2:0:0:
459,97,15876,2,0,L|522:92,2,44.999998626709,0|0|4,1:0|0:0|0:3,0:0:0:0:
433,134,16399,1,0,0:0:0:0:
362,190,16748,2,0,L|371:286,1,89.9999972534181
373,324,17272,1,0,1:0:0:0:
295,365,17620,1,4,0:3:0:0:
295,365,17795,2,0,P|248:378|188:358,1,89.9999972534181
169,347,18318,37,4,0:3:0:0:
178,257,18667,2,0,L|184:194,1,44.999998626709,0|0,1:0|0:0,0:0:0:0:
187,167,19016,1,4,3:0:0:0:
167,83,19365,1,0,1:0:0:0:
167,83,19539,2,0,P|120:70|60:90,1,89.9999972534181
37,92,20062,1,0,1:0:0:0:
2,175,20411,1,4,0:3:0:0:
54,247,20760,2,2,L|49:311,1,44.999998626709,2|0,1:0|0:0,1:0:0:0:
46,336,21109,5,4,0:3:0:0:
135,339,21458,2,0,L|141:402,2,44.999998626709,0|0|4,1:0|0:0|0:3,0:0:0:0:
166,306,21981,1,0,0:0:0:0:
240,253,22330,2,0,P|287:240|347:260,1,89.9999972534181
366,269,22854,1,0,1:0:0:0:
442,219,23202,1,4,0:3:0:0:
442,219,23376,2,0,L|434:124,1,89.9999972534181
430,84,23900,37,4,0:3:0:0:
349,44,24248,1,0,1:0:0:0:
279,100,24597,2,0,P|240:108|206:99,1,44.999998626709,4|0,0:3|0:0,0:0:0:0:
202,138,24947,1,2,1:0:0:0:
202,138,25120,2,0,P|155:125|95:145,1,89.9999972534181,2|0,0:1|0:0,0:0:0:0:
74,151,25644,1,0,1:0:0:0:
6,91,25993,1,4,0:3:0:0:
58,18,26341,2,0,L|122:24,1,44.999998626709,0|0,1:0|0:0,0:0:0:0:
147,45,26690,22,0,L|275:34,1,100,4|0,3:2|1:0,0:0:0:0:
288,72,27213,1,0,0:0:0:0:
288,72,27388,2,0,L|416:84,1,100,4|0,0:3|1:0,0:0:0:0:
460,149,28085,2,0,P|468:188|459:222,1,50,4|2,0:3|0:0,0:0:0:0:
494,239,28434,2,0,P|486:278|495:312,1,50,0|0,1:0|0:0,0:0:0:0:
488,337,28783,1,4,0:3:0:0:
396,377,29131,1,0,1:0:0:0:
312,321,29481,6,0,L|323:194,1,100,4|0,0:3|1:0,0:0:0:0:
288,191,30003,1,0,0:0:0:0:
288,191,30179,2,0,L|277:64,1,100,4|0,0:3|1:0,0:0:0:0:
367,42,30876,1,4,0:3:0:0:
367,42,31051,2,0,P|414:55|474:35,2,100,2|2|2,0:1|3:1|1:0,0:0:0:0:
326,12,31922,1,2,3:1:0:0:
255,68,32272,21,4,3:2:0:0:
168,45,32620,2,0,L|173:-18,2,44.999998626709,0|0|4,1:0|0:0|0:3,0:0:0:0:
141,81,33144,1,0,0:0:0:0:
86,152,33492,2,0,L|97:279,1,89.9999972534181
99,286,34017,1,0,1:0:0:0:
171,348,34365,1,4,0:3:0:0:
171,348,34539,2,0,P|218:361|278:341,1,89.9999972534181
299,335,35063,37,4,0:3:0:0:
256,255,35411,2,0,P|248:216|257:182,1,44.999998626709,0|0,1:0|0:0,0:0:0:0:
255,166,35760,1,4,0:3:0:0:
295,87,36110,1,0,1:0:0:0:
295,87,36283,2,0,P|342:74|402:94,1,89.9999972534181
422,102,36807,1,0,1:0:0:0:
476,174,37156,1,4,0:3:0:0:
424,247,37504,2,0,L|360:241,1,44.999998626709,0|0,1:0|0:0,0:0:0:0:
334,237,37854,5,4,3:2:0:0:
270,173,38202,2,0,P|262:134|271:100,2,44.999998626709,0|0|4,1:0|0:0|0:3,0:0:0:0:
245,211,38726,1,0,0:0:0:0:
163,173,39074,2,0,P|116:160|56:180,1,89.9999972534181
38,191,39597,1,0,1:0:0:0:
43,285,39947,1,4,0:3:0:0:
43,285,40120,2,0,P|90:298|150:278,1,89.9999972534181
173,276,40645,37,4,0:3:0:0:
225,348,40992,1,0,1:0:0:0:
313,331,41341,2,0,P|352:323|386:332,1,44.999998626709
399,303,41690,1,0,1:0:0:0:
399,303,41865,2,0,L|388:176,1,89.9999972534181
466,164,42562,2,0,L|477:37,1,89.9999972534181,4|0,3:2|3:0,0:0:0:0:
446,39,43085,2,0,P|407:31|373:40,1,44.999998626709,8|8,3:0|3:0,0:0:0:0:
359,19,43434,6,0,P|312:32|252:12,1,89.9999972534181,4|4,3:2|0:3,0:0:0:0:
196,73,44132,2,0,L|201:137,2,44.999998626709,4|2|4,0:3|0:0|0:3,0:0:0:0:
165,39,44655,1,2,0:0:0:0:
81,71,45004,2,0,L|75:135,1,44.999998626709,2|4,0:0|0:3,0:0:0:0:
41,142,45353,1,2,0:0:0:0:
41,142,45527,2,0,L|52:269,1,89.9999972534181,4|2,0:3|1:0,0:0:0:0:
111,297,46225,38,0,P|158:310|218:290,1,89.9999972534181,4|4,0:3|0:3,0:0:0:0:
263,240,46923,2,0,L|327:245,2,44.999998626709,4|2|4,0:3|0:0|0:3,0:0:0:0:
231,207,47446,1,2,0:0:0:0:
166,143,47795,2,0,L|160:78,1,44.999998626709,2|4,0:0|0:3,0:0:0:0:
171,57,48144,1,0,0:0:0:0:
171,57,48318,2,0,P|218:44|278:64,1,89.9999972534181,0|2,0:0|1:0,0:0:0:0:
307,127,49016,6,0,P|354:140|414:120,1,89.9999972534181,4|4,3:2|0:3,0:0:0:0:
448,60,49713,2,0,L|453:-5,2,44.999998626709,4|2|4,0:3|0:0|0:3,0:0:0:0:
486,83,50236,1,2,0:0:0:0:
476,172,50585,2,0,L|481:236,1,44.999998626709,2|4,0:0|0:3,0:0:0:0:
511,256,50935,1,2,0:0:0:0:
511,256,51109,2,0,L|500:383,1,89.9999972534181,4|2,0:3|1:0,0:0:0:0:
421,383,51806,37,4,3:2:0:0:
307,320,52330,1,0,0:0:0:0:
307,320,52504,2,0,L|242:325,2,44.999998626709,0|4|8,0:0|0:3|0:3,0:0:0:0:
331,282,53027,1,4,0:3:0:0:
379,205,53376,2,0,L|443:210,2,44.999998626709,0|0|0,0:0|1:0|1:0,0:0:0:0:
354,167,53899,1,0,1:0:0:0:
290,102,54248,2,2,L|279:-25,1,89.9999972534181,2|2,1:0|0:0,0:1:0:0:
282,12,56167,21,2,1:0:0:0:
248,41,56341,2,0,P|209:33|175:42,1,44.999998626709,2|2,1:0|1:0,0:0:0:0:
161,20,56690,2,0,P|122:28|88:19,1,44.999998626709,2|2,1:0|1:0,0:0:0:0:
72,23,57039,1,2,1:0:0:0:
8,112,57388,6,0,L|14:191,1,55.0000016784668,4|0,3:2|0:0,0:0:0:0:
57,197,57737,2,4,L|50:276,1,55.0000016784668,0|0,1:0|0:0,0:3:0:0:
53,310,58085,1,4,0:3:0:0:
53,310,58260,2,0,P|103:323|167:302,1,110.000003356934
208,329,58783,2,0,P|258:315|322:336,1,110.000003356934,4|0,0:3|1:0,0:0:0:0:
417,365,59481,2,0,L|428:237,1,110.000003356934,4|0,0:3|1:0,0:0:0:0:
506,179,60179,38,0,L|500:100,1,55.0000016784668,4|0,0:3|0:0,0:0:0:0:
451,101,60528,2,0,L|458:22,1,55.0000016784668,0|0,1:0|0:0,0:0:0:0:
415,17,60876,1,4,0:3:0:0:
415,17,61051,2,0,P|365:4|301:25,1,110.000003356934
222,85,61748,1,0,0:0:0:0:
296,173,62097,1,0,0:0:0:0:
296,173,62272,2,0,L|284:300,1,110.000003356934,4|0,0:3|1:0,0:0:0:0:
223,373,62969,6,0,P|184:365|150:374,1,55.0000016784668,4|0,3:2|0:0,0:0:0:0:
124,335,63318,2,0,P|85:343|51:334,1,55.0000016784668,0|0,1:0|0:0,0:0:0:0:
22,326,63666,1,4,0:3:0:0:
22,326,63841,2,0,L|10:198,1,110.000003356934
60,190,64365,2,0,L|71:62,1,110.000003356934,4|0,0:3|1:0,0:0:0:0:
166,28,65062,2,0,P|218:15|271:30,1,110.000003356934,4|0,0:3|1:0,0:0:0:0:
365,86,65760,38,0,L|359:165,1,55.0000016784668,4|0,0:3|0:0,0:0:0:0:
313,169,66109,2,0,L|319:248,1,55.0000016784668,0|0,1:0|0:0,0:0:0:0:
328,282,66457,1,4,0:3:0:0:
328,282,66632,2,0,B|275:295|248:268|248:268|222:242|169:255,1,165.000005035401
98,172,67504,1,0,1:0:0:0:
0,223,67853,1,4,3:2:0:0:
24,330,68202,1,4,3:0:0:0:
132,351,68551,6,0,P|184:338|237:353,1,110.000003356934,4|0,3:2|1:0,0:0:0:0:
288,328,69074,1,2,0:0:0:0:
288,328,69248,2,0,L|276:200,1,110.000003356934,4|0,0:3|1:0,0:0:0:0:
185,158,69946,2,0,L|196:30,1,110.000003356934,4|0,0:3|1:0,0:0:0:0:
251,36,70469,1,2,0:0:0:0:
251,36,70644,2,0,P|290:28|324:37,1,55.0000016784668,4|2,0:3|0:0,0:0:0:0:
352,3,70992,2,0,P|391:11|425:2,1,55.0000016784668,0|2,1:0|0:0,0:0:0:0:
460,15,71341,38,0,P|475:67|462:120,1,110.000003356934,4|0,3:0|1:0,0:0:0:0:
383,198,72039,1,0,0:0:0:0:
471,264,72388,2,0,L|477:343,1,55.0000016784668,0|2,1:0|0:0,0:0:0:0:
431,349,72737,1,4,0:3:0:0:
431,349,72911,2,0,B|378:335|351:362|351:362|325:388|272:375,1,165.000005035401,2|2,0:0|3:1,0:0:0:0:
180,321,73783,1,0,1:0:0:0:
84,375,74132,6,0,P|68:322|81:269,1,110.000003356934,4|0,3:2|1:0,0:0:0:0:
41,239,74655,1,2,0:0:0:0:
41,239,74830,2,0,P|56:186|43:133,1,110.000003356934,4|0,0:3|1:0,0:0:0:0:
90,34,75527,2,0,L|218:22,1,110.000003356934,4|0,0:3|1:0,0:0:0:0:
251,55,76050,1,2,0:0:0:0:
251,55,76225,2,0,P|243:94|252:128,1,55.0000016784668,0|0,0:0|1:0,0:0:0:0:
206,147,76574,2,0,P|214:186|205:220,1,55.0000016784668,0|0,1:0|1:0,0:0:0:0:
200,249,76923,21,4,3:2:0:0:
367,357,77620,1,2,0:0:0:0:
458,315,77969,2,0,L|448:203,1,100,8|4,3:0|0:3,0:0:0:0:
424,178,78492,1,2,1:0:0:0:
424,178,78667,2,0,L|430:98,1,50,2|2,1:0|1:0,0:0:0:0:
432,78,79016,1,2,1:0:0:0:
236,36,79713,38,0,P|189:49|129:29,1,100,4|0,3:2|1:0,0:0:0:0:
96,12,80237,1,0,0:0:0:0:
0,24,80585,1,0,1:0:0:0:
0,24,80760,2,0,L|9:135,1,100,0|4,1:0|0:3,0:0:0:0:
11,173,81283,1,0,0:0:0:0:
98,221,81633,1,0,0:0:0:0:
69,316,81981,2,0,L|-10:322,2,50,0|0|0,0:0|1:0|0:0,0:0:0:0:
108,346,82504,6,0,L|219:355,1,100,4|0,0:3|0:0,0:0:0:0:
257,360,83028,1,0,0:0:0:0:
325,287,83376,1,0,1:0:0:0:
325,287,83551,2,0,P|338:239|318:180,1,100,0|4,1:0|3:2,0:0:0:0:
258,116,84248,1,0,1:0:0:0:
306,28,84597,2,0,P|345:20|379:29,1,50,4|2,0:3|0:0,0:0:0:0:
401,2,84946,2,0,P|440:10|474:1,1,50,0|2,1:0|0:0,0:0:0:0:
495,29,85295,38,0,L|485:140,1,100,4|0,3:2|1:0,0:0:0:0:
482,178,85819,1,0,0:0:0:0:
388,204,86167,1,0,1:0:0:0:
388,204,86341,2,0,L|397:315,1,100,0|4,1:0|0:3,0:0:0:0:
401,353,86865,1,0,0:0:0:0:
303,374,87213,1,0,0:0:0:0:
233,301,87562,2,0,L|226:221,2,50,0|0|0,0:0|1:0|0:0,0:0:0:0:
194,333,88085,6,0,P|147:346|87:326,1,100,4|0,0:3|0:0,0:0:0:0:
53,310,88610,1,0,0:0:0:0:
35,216,88958,1,0,1:0:0:0:
35,216,89132,2,0,L|44:104,1,100,0|4,1:0|3:2,0:0:0:0:
81,84,89655,1,4,0:3:0:0:
81,84,89830,2,0,P|120:76|154:85,1,50,2|2,1:0|3:1,0:0:0:0:
178,90,90179,1,2,1:0:0:0:
250,158,90527,2,0,L|256:237,1,50,2|2,1:0|1:0,0:0:0:0:
