osu file format v14

[General]
AudioFilename: audio.mp3
AudioLeadIn: 0
PreviewTime: 46714
Countdown: 0
SampleSet: Normal
StackLeniency: 0.7
Mode: 1
LetterboxInBreaks: 0
WidescreenStoryboard: 1

[Editor]
Bookmarks: 9857,11426,20568,29711,38854,47997,68568,79997,89140,98283,118854,127997,137140,146283,155426,173711,180568,199997
DistanceSpacing: 0.9
BeatDivisor: 8
GridSize: 32
TimelineZoom: 4.299998

[Metadata]
Title:Manemane Psychotropic
TitleUnicode:マネマネサイコトロピック
Artist:Kairiki bear feat. GUMI
ArtistUnicode:かいりきベア feat. GUMI
Creator:Quorum
Version:Muzukashii
Source:
Tags:arach vized japanese rock jrock j-rock vocaloid megpoid gumi グミ kairikibear saikotoropikku fake fake ボーカロイド
BeatmapID:2776509
BeatmapSetID:1340224

[Difficulty]
HPDrainRate:6
CircleSize:5
OverallDifficulty:4.5
ApproachRate:5
SliderMultiplier:1.4
SliderTickRate:1

[Events]
//Background and Video events
0,0,"bg.jpg",0,80
//Break Periods
//Storyboard Layer 0 (Background)
//Storyboard Layer 1 (Fail)
//Storyboard Layer 2 (Pass)
//Storyboard Layer 3 (Foreground)
//Storyboard Layer 4 (Overlay)
//Storyboard Sound Samples

[TimingPoints]
475,285.714285714286,4,1,0,40,1,0
475,-111.111111111111,4,1,0,40,0,0
9000,285.714285714286,4,1,0,60,1,8
10142,285.714285714286,4,1,0,80,1,0
10142,-100,4,1,0,80,0,0
19284,-105.263157894737,4,1,0,80,0,0
28427,-100,4,1,0,80,0,0
37284,-103.092783505155,4,1,0,80,0,0
37427,-106.382978723404,4,1,0,80,0,0
37570,-111.111111111111,4,1,0,80,0,0
46713,-100,4,1,0,80,0,1
66284,-100,4,1,0,80,0,0
67284,-100,4,1,0,80,0,1
69284,-100,4,1,0,80,0,1
69570,-111.111111111111,4,1,0,80,0,0
78713,-105.263157894737,4,1,0,80,0,0
91999,-106.382978723404,4,1,0,80,0,0
92141,-107.52688172043,4,1,0,80,0,0
92284,-108.695652173913,4,1,0,80,0,0
92427,-111.111111111111,4,1,0,80,0,0
95856,-105.263157894737,4,1,0,80,0,0
96713,-104.166666666667,4,1,0,80,0,0
96784,-103.092783505155,4,1,0,80,0,0
96856,-102.040816326531,4,1,0,80,0,0
96999,-100,4,1,0,80,0,1
116570,-100,4,1,0,80,0,0
117284,-105.263157894737,4,1,0,80,0,0
117426,-107.52688172043,4,1,0,80,0,0
117570,-111.111111111111,4,1,0,80,0,0
122141,-105.263157894737,4,1,0,80,0,0
140427,-100,4,1,0,80,0,1
144999,-111.111111111111,4,1,0,80,0,0
145141,-111.111111111111,4,1,0,65,0,0
149570,-111.111111111111,4,1,0,80,0,0
152999,-105.263157894737,4,1,0,80,0,0
154106,-100,4,1,0,80,0,0
154142,-100,4,1,0,80,0,1
178284,-100,4,1,0,80,0,0
178999,-100,4,1,0,80,0,0
179284,-105.263157894737,4,1,0,80,0,0

[HitObjects]
256,192,475,5,8,0:0:0:0:
248,189,665,1,0,0:0:0:0:
256,192,760,1,8,0:0:0:0:
256,192,951,1,0,0:0:0:0:
256,192,1236,1,0,0:0:0:0:
255,202,1522,1,8,0:0:0:0:
256,192,1617,1,8,0:0:0:0:
256,192,1903,1,0,0:0:0:0:
256,192,2094,1,8,0:0:0:0:
266,206,2379,1,0,0:0:0:0:
256,192,2475,1,8,0:0:0:0:
256,192,2760,1,8,0:0:0:0:
223,197,3046,1,8,0:0:0:0:
256,192,3332,1,0,0:0:0:0:
256,192,3903,1,8,0:0:0:0:
234,187,4189,1,8,0:0:0:0:
256,192,4475,1,0,0:0:0:0:
256,192,4665,1,8,0:0:0:0:
256,192,4760,1,8,0:0:0:0:
256,192,4951,1,0,0:0:0:0:
256,192,5046,1,0,0:0:0:0:
256,192,5332,1,8,0:0:0:0:
256,192,5522,1,0,0:0:0:0:
256,192,5808,1,8,0:0:0:0:
273,186,6094,1,0,0:0:0:0:
256,192,6189,1,8,0:0:0:0:
256,192,6475,1,0,0:0:0:0:
256,192,6665,1,8,0:0:0:0:
256,192,6951,1,8,0:0:0:0:
256,192,7046,1,8,0:0:0:0:
256,192,7332,1,8,0:0:0:0:
256,192,7903,1,0,0:0:0:0:
256,192,8475,12,0,9714,0:0:0:0:
324,175,9857,5,8,0:0:0:0:
256,192,10142,5,12,0:0:0:0:
256,192,10284,1,0,0:0:0:0:
256,192,10427,1,8,0:0:0:0:
256,192,10570,1,8,0:0:0:0:
256,192,10856,1,0,0:0:0:0:
256,192,11142,1,8,0:0:0:0:
256,192,11284,1,8,0:0:0:0:
256,192,11427,1,0,0:0:0:0:
256,192,11570,1,8,0:0:0:0:
256,192,11713,1,8,0:0:0:0:
256,192,12142,1,8,0:0:0:0:
256,192,12284,1,8,0:0:0:0:
256,192,12427,1,0,0:0:0:0:
256,192,12713,1,8,0:0:0:0:
256,192,12999,1,0,0:0:0:0:
256,192,13284,1,0,0:0:0:0:
256,192,13570,1,12,0:0:0:0:
253,174,13856,1,12,0:0:0:0:
256,192,14142,1,0,0:0:0:0:
256,192,14284,1,8,0:0:0:0:
260,201,14356,1,8,0:0:0:0:
256,192,14427,1,8,0:0:0:0:
264,202,14570,1,0,0:0:0:0:
256,192,14713,1,12,0:0:0:0:
254,210,14856,1,0,0:0:0:0:
256,192,14999,1,8,0:0:0:0:
256,192,15142,1,8,0:0:0:0:
256,192,15427,1,0,0:0:0:0:
266,180,15713,1,0,0:0:0:0:
256,192,15856,1,8,0:0:0:0:
256,192,15999,1,0,0:0:0:0:
256,192,16142,1,8,0:0:0:0:
256,192,16284,1,8,0:0:0:0:
256,192,16713,1,8,0:0:0:0:
256,192,16856,1,0,0:0:0:0:
256,192,16999,1,0,0:0:0:0:
256,192,17284,1,8,0:0:0:0:
256,192,17570,1,8,0:0:0:0:
256,192,17856,1,0,0:0:0:0:
256,192,18142,1,12,0:0:0:0:
256,192,18713,1,8,0:0:0:0:
256,192,18856,1,0,0:0:0:0:
264,196,18927,1,0,0:0:0:0:
256,192,18999,1,0,0:0:0:0:
256,192,19284,1,12,0:0:0:0:
256,192,19570,1,8,0:0:0:0:
256,192,19856,1,8,0:0:0:0:
256,192,19999,1,0,0:0:0:0:
256,192,20142,1,8,0:0:0:0:
256,192,20427,1,8,0:0:0:0:
256,192,20570,1,8,0:0:0:0:
256,192,20713,1,0,0:0:0:0:
256,192,20856,1,0,0:0:0:0:
256,192,20999,1,8,0:0:0:0:
256,192,21284,1,0,0:0:0:0:
256,192,21570,1,8,0:0:0:0:
256,192,21713,1,0,0:0:0:0:
256,192,21856,1,8,0:0:0:0:
256,192,21999,1,0,0:0:0:0:
256,192,22142,1,0,0:0:0:0:
256,192,22427,1,8,0:0:0:0:
256,192,22713,1,8,0:0:0:0:
256,192,22856,1,0,0:0:0:0:
256,192,22999,1,8,0:0:0:0:
256,192,23142,1,0,0:0:0:0:
256,192,23570,1,8,0:0:0:0:
256,192,23856,1,12,0:0:0:0:
256,192,24142,1,8,0:0:0:0:
256,192,24284,1,0,0:0:0:0:
256,192,24427,1,8,0:0:0:0:
256,192,24570,1,0,0:0:0:0:
253,200,24642,1,0,0:0:0:0:
256,192,24713,1,0,0:0:0:0:
256,192,24856,1,0,0:0:0:0:
256,192,24999,1,8,0:0:0:0:
256,192,25284,1,8,0:0:0:0:
256,192,25427,1,0,0:0:0:0:
256,192,25570,1,8,0:0:0:0:
256,192,25713,1,8,0:0:0:0:
256,192,25999,1,0,0:0:0:0:
256,192,26142,1,12,0:0:0:0:
256,192,26427,1,8,0:0:0:0:
256,192,26570,1,8,0:0:0:0:
256,192,26713,1,8,0:0:0:0:
256,192,26999,1,0,0:0:0:0:
256,192,27284,1,8,0:0:0:0:
256,192,27856,1,8,0:0:0:0:
248,184,27999,1,8,0:0:0:0:
256,192,28142,1,0,0:0:0:0:
256,192,28427,1,12,0:0:0:0:
256,192,28713,1,8,0:0:0:0:
256,192,28856,1,8,0:0:0:0:
256,192,28999,1,0,0:0:0:0:
256,192,29284,1,8,0:0:0:0:
256,192,29570,1,8,0:0:0:0:
256,192,29713,1,0,0:0:0:0:
256,192,29856,1,0,0:0:0:0:
256,192,29999,1,8,0:0:0:0:
256,192,30427,1,0,0:0:0:0:
256,192,30713,1,8,0:0:0:0:
256,192,30999,1,8,0:0:0:0:
256,192,31142,1,0,0:0:0:0:
256,192,31284,1,0,0:0:0:0:
256,192,31570,1,8,0:0:0:0:
263,183,31713,1,0,0:0:0:0:
256,192,31856,1,0,0:0:0:0:
256,192,31999,1,8,0:0:0:0:
256,192,32142,1,8,0:0:0:0:
256,192,32284,1,0,0:0:0:0:
256,192,32713,1,8,0:0:0:0:
256,192,32999,1,12,0:0:0:0:
256,192,33284,1,8,0:0:0:0:
256,192,33427,1,8,0:0:0:0:
256,192,33570,1,0,0:0:0:0:
256,192,33856,1,8,0:0:0:0:
256,192,33999,1,0,0:0:0:0:
256,192,34142,1,8,0:0:0:0:
256,192,34284,1,8,0:0:0:0:
256,192,34427,1,0,0:0:0:0:
256,192,34570,1,8,0:0:0:0:
260,186,34713,1,8,0:0:0:0:
256,192,34999,1,8,0:0:0:0:
256,192,35142,1,0,0:0:0:0:
256,192,35284,1,12,0:0:0:0:
256,192,35570,1,0,0:0:0:0:
256,192,35713,1,8,0:0:0:0:
256,192,35999,1,0,0:0:0:0:
256,192,36284,1,0,0:0:0:0:
256,192,36427,1,8,0:0:0:0:
256,192,36713,1,0,0:0:0:0:
256,192,36856,1,8,0:0:0:0:
256,192,37284,1,0,0:0:0:0:
256,192,37427,1,0,0:0:0:0:
256,192,37570,1,12,0:0:0:0:
255,197,37856,1,0,0:0:0:0:
255,197,38142,1,8,0:0:0:0:
255,197,38284,1,8,0:0:0:0:
255,197,38427,1,0,0:0:0:0:
250,184,38570,1,8,0:0:0:0:
262,187,38713,1,0,0:0:0:0:
250,184,38999,1,8,0:0:0:0:
250,184,39142,1,0,0:0:0:0:
241,195,39570,1,0,0:0:0:0:
241,195,39856,1,8,0:0:0:0:
241,195,40142,1,8,0:0:0:0:
254,191,40284,1,8,0:0:0:0:
254,191,40427,1,0,0:0:0:0:
254,191,40713,1,0,0:0:0:0:
254,191,40999,1,8,0:0:0:0:
254,191,41284,1,8,0:0:0:0:
254,191,41427,1,0,0:0:0:0:
254,191,41856,1,0,0:0:0:0:
254,191,42142,1,12,0:0:0:0:
254,191,42427,1,8,0:0:0:0:
254,191,42570,1,8,0:0:0:0:
254,191,42713,1,8,0:0:0:0:
254,191,42999,1,8,0:0:0:0:
254,191,43142,1,0,0:0:0:0:
254,191,43284,1,8,0:0:0:0:
254,191,43427,1,8,0:0:0:0:
254,191,43570,1,0,0:0:0:0:
254,191,43713,1,8,0:0:0:0:
254,191,44142,1,0,0:0:0:0:
254,191,44427,1,12,0:0:0:0:
254,191,45570,1,4,0:0:0:0:
254,191,45713,1,8,0:0:0:0:
254,191,45999,1,0,0:0:0:0:
256,192,46142,12,0,46642,0:0:0:0:
254,191,46713,5,12,0:0:0:0:
254,191,46999,1,8,0:0:0:0:
254,191,47142,1,8,0:0:0:0:
264,194,47284,1,0,0:0:0:0:
254,191,47427,1,8,0:0:0:0:
254,191,47713,1,0,0:0:0:0:
254,191,47856,1,8,0:0:0:0:
254,191,47999,1,8,0:0:0:0:
264,194,48070,1,8,0:0:0:0:
254,191,48142,1,8,0:0:0:0:
254,191,48284,1,0,0:0:0:0:
254,191,48427,1,8,0:0:0:0:
255,197,48570,1,0,0:0:0:0:
254,191,48713,1,8,0:0:0:0:
254,191,48999,1,8,0:0:0:0:
243,201,49142,1,0,0:0:0:0:
244,188,49213,1,0,0:0:0:0:
254,191,49284,1,0,0:0:0:0:
254,191,49427,1,8,0:0:0:0:
254,191,49713,1,0,0:0:0:0:
254,191,49999,1,0,0:0:0:0:
254,191,50142,1,8,0:0:0:0:
254,191,50284,1,0,0:0:0:0:
254,191,50427,1,8,0:0:0:0:
261,185,50570,1,0,0:0:0:0:
248,201,50856,1,0,0:0:0:0:
256,198,51284,1,12,0:0:0:0:
257,209,51570,1,8,0:0:0:0:
257,209,51713,1,0,0:0:0:0:
257,209,51856,1,0,0:0:0:0:
257,208,51999,1,8,0:0:0:0:
257,208,52284,1,0,0:0:0:0:
257,209,52427,1,0,0:0:0:0:
257,209,52570,1,8,0:0:0:0:
262,220,52642,1,8,0:0:0:0:
257,209,52713,1,8,0:0:0:0:
257,209,52856,1,0,0:0:0:0:
257,208,52999,1,8,0:0:0:0:
274,227,53142,1,0,0:0:0:0:
257,208,53284,1,0,0:0:0:0:
257,209,53570,1,0,0:0:0:0:
257,209,53713,1,8,0:0:0:0:
269,209,53856,1,0,0:0:0:0:
257,208,53999,1,0,0:0:0:0:
257,208,54142,1,8,0:0:0:0:
264,206,54284,1,0,0:0:0:0:
257,209,54427,1,0,0:0:0:0:
257,209,54570,1,8,0:0:0:0:
268,217,54999,1,8,0:0:0:0:
268,217,55142,1,0,0:0:0:0:
268,217,55284,1,8,0:0:0:0:
270,173,55427,1,0,0:0:0:0:
268,217,55570,1,0,0:0:0:0:
253,206,55856,1,12,0:0:0:0:
255,208,56142,1,8,0:0:0:0:
255,208,56284,1,0,0:0:0:0:
256,216,56427,1,0,0:0:0:0:
255,208,56570,1,8,0:0:0:0:
255,208,56856,1,0,0:0:0:0:
255,208,56999,1,8,0:0:0:0:
255,208,57142,1,0,0:0:0:0:
261,216,57213,1,0,0:0:0:0:
255,208,57284,1,0,0:0:0:0:
255,208,57427,1,8,0:0:0:0:
255,208,57570,1,8,0:0:0:0:
255,208,57856,1,0,0:0:0:0:
264,218,58142,1,8,0:0:0:0:
264,218,58284,1,0,0:0:0:0:
273,164,58356,1,0,0:0:0:0:
264,218,58427,1,0,0:0:0:0:
264,218,58570,1,8,0:0:0:0:
255,208,58856,1,0,0:0:0:0:
252,209,59142,1,8,0:0:0:0:
252,209,59284,1,0,0:0:0:0:
252,209,59427,1,0,0:0:0:0:
252,209,59570,1,8,0:0:0:0:
255,208,59713,1,8,0:0:0:0:
252,209,59999,1,0,0:0:0:0:
252,209,60427,1,12,0:0:0:0:
261,226,60713,1,8,0:0:0:0:
261,226,60856,1,0,0:0:0:0:
261,226,60999,1,0,0:0:0:0:
261,226,61142,1,8,0:0:0:0:
257,208,61427,1,0,0:0:0:0:
257,209,61570,1,8,0:0:0:0:
257,209,61856,1,8,0:0:0:0:
257,209,61999,1,0,0:0:0:0:
257,208,62142,1,8,0:0:0:0:
257,208,62427,1,8,0:0:0:0:
265,213,62713,1,8,0:0:0:0:
261,226,62856,1,8,0:0:0:0:
282,221,62999,1,0,0:0:0:0:
264,214,63142,1,8,0:0:0:0:
264,214,63284,1,8,0:0:0:0:
282,221,63427,1,0,0:0:0:0:
264,214,63570,1,8,0:0:0:0:
264,214,63713,1,8,0:0:0:0:
264,214,64142,1,8,0:0:0:0:
264,214,64284,1,0,0:0:0:0:
264,214,64427,1,8,0:0:0:0:
265,213,64713,1,8,0:0:0:0:
264,214,64999,1,12,0:0:0:0:
264,214,65284,1,8,0:0:0:0:
264,214,65427,1,0,0:0:0:0:
264,214,65570,1,8,0:0:0:0:
265,213,65713,1,0,0:0:0:0:
264,214,65856,1,8,0:0:0:0:
264,214,66142,1,4,0:0:0:0:
264,214,66284,1,4,0:0:0:0:
266,204,67284,1,12,0:0:0:0:
268,196,67427,1,12,0:0:0:0:
268,196,67713,1,0,0:0:0:0:
269,186,67999,1,0,0:0:0:0:
269,187,68142,1,8,0:0:0:0:
259,189,68427,1,12,0:0:0:0:
258,189,68713,1,0,0:0:0:0:
258,189,68856,1,12,0:0:0:0:
258,197,69142,1,0,0:0:0:0:
259,189,69284,1,8,0:0:0:0:
258,189,69570,1,12,0:0:0:0:
248,186,69856,1,0,0:0:0:0:
248,186,70142,1,0,0:0:0:0:
248,186,70427,1,0,0:0:0:0:
248,186,70713,1,0,0:0:0:0:
248,186,70999,1,0,0:0:0:0:
248,186,71284,1,8,0:0:0:0:
248,186,71856,1,8,0:0:0:0:
248,186,72142,1,0,0:0:0:0:
248,186,72427,1,0,0:0:0:0:
248,186,72713,1,8,0:0:0:0:
248,186,72999,1,0,0:0:0:0:
248,186,73284,1,8,0:0:0:0:
255,174,73427,1,0,0:0:0:0:
248,186,73856,1,0,0:0:0:0:
248,186,74142,1,8,0:0:0:0:
248,186,74427,1,0,0:0:0:0:
248,186,74713,1,8,0:0:0:0:
248,186,74999,1,0,0:0:0:0:
248,186,75284,1,8,0:0:0:0:
248,186,75570,1,0,0:0:0:0:
249,172,75713,1,0,0:0:0:0:
248,186,75856,1,8,0:0:0:0:
248,186,76142,1,0,0:0:0:0:
246,169,76427,1,12,0:0:0:0:
246,169,76713,1,8,0:0:0:0:
246,169,76999,1,8,0:0:0:0:
265,180,77142,1,0,0:0:0:0:
265,170,77427,1,0,0:0:0:0:
246,169,77570,1,8,0:0:0:0:
246,169,78427,1,8,0:0:0:0:
256,192,78713,1,12,0:0:0:0:
256,192,78999,1,8,0:0:0:0:
256,192,79142,1,0,0:0:0:0:
256,192,79284,1,8,0:0:0:0:
256,192,79570,1,8,0:0:0:0:
256,192,79713,1,8,0:0:0:0:
256,192,79856,1,0,0:0:0:0:
256,192,79999,1,0,0:0:0:0:
256,192,80142,1,8,0:0:0:0:
256,192,80284,1,8,0:0:0:0:
256,192,80713,1,0,0:0:0:0:
256,192,80999,1,8,0:0:0:0:
256,192,81284,1,8,0:0:0:0:
256,192,81427,1,0,0:0:0:0:
256,192,81570,1,0,0:0:0:0:
256,192,81856,1,8,0:0:0:0:
256,192,81999,1,8,0:0:0:0:
256,192,82142,1,0,0:0:0:0:
256,192,82284,1,8,0:0:0:0:
256,192,82427,1,0,0:0:0:0:
256,192,82570,1,0,0:0:0:0:
256,192,82999,1,8,0:0:0:0:
256,192,83284,1,12,0:0:0:0:
256,192,83570,1,0,0:0:0:0:
256,192,83713,1,0,0:0:0:0:
256,192,83856,1,8,0:0:0:0:
256,192,84142,1,8,0:0:0:0:
256,192,84284,1,0,0:0:0:0:
256,192,84427,1,8,0:0:0:0:
256,192,84713,1,8,0:0:0:0:
256,192,84856,1,8,0:0:0:0:
260,186,84999,1,8,0:0:0:0:
256,192,85142,1,0,0:0:0:0:
256,192,85284,1,0,0:0:0:0:
256,192,85427,1,0,0:0:0:0:
256,192,85570,1,8,0:0:0:0:
256,192,85856,1,8,0:0:0:0:
256,192,85999,1,8,0:0:0:0:
264,186,86142,1,0,0:0:0:0:
256,192,86284,1,8,0:0:0:0:
256,192,86427,1,0,0:0:0:0:
256,192,86713,1,12,0:0:0:0:
256,192,86856,1,4,0:0:0:0:
256,192,87142,1,12,0:0:0:0:
256,192,87427,1,0,0:0:0:0:
256,192,87570,1,0,0:0:0:0:
256,192,87856,1,4,0:0:0:0:
270,189,87999,1,4,0:0:0:0:
258,188,88713,1,8,0:0:0:0:
266,184,88856,1,0,0:0:0:0:
266,184,88999,1,12,0:0:0:0:
302,148,89284,1,0,0:0:0:0:
302,148,89427,1,0,0:0:0:0:
302,148,89713,1,0,0:0:0:0:
302,148,89856,1,8,0:0:0:0:
302,148,90142,1,4,0:0:0:0:
302,148,90284,1,4,0:0:0:0:
305,142,90999,1,8,0:0:0:0:
305,142,91142,1,0,0:0:0:0:
305,142,91284,1,12,0:0:0:0:
305,142,91570,1,8,0:0:0:0:
305,142,91713,1,0,0:0:0:0:
305,142,91999,1,0,0:0:0:0:
305,142,92142,1,8,0:0:0:0:
305,142,92284,1,0,0:0:0:0:
305,142,92427,1,12,0:0:0:0:
306,137,92999,1,8,0:0:0:0:
306,137,93570,1,12,0:0:0:0:
306,137,93856,1,8,0:0:0:0:
306,137,94142,1,0,0:0:0:0:
306,137,94427,1,0,0:0:0:0:
306,132,95856,1,4,0:0:0:0:
306,132,95999,1,8,0:0:0:0:
306,132,96284,1,0,0:0:0:0:
306,132,96713,1,0,0:0:0:0:
306,132,96784,1,0,0:0:0:0:
306,132,96856,1,0,0:0:0:0:
254,191,96999,5,12,0:0:0:0:
254,191,97284,1,8,0:0:0:0:
254,191,97427,1,0,0:0:0:0:
269,193,97570,1,0,0:0:0:0:
254,191,97713,1,8,0:0:0:0:
254,191,97999,1,0,0:0:0:0:
254,191,98142,1,8,0:0:0:0:
254,191,98284,1,8,0:0:0:0:
269,193,98356,1,8,0:0:0:0:
254,191,98427,1,8,0:0:0:0:
254,191,98570,1,0,0:0:0:0:
254,191,98713,1,8,0:0:0:0:
257,202,98856,1,0,0:0:0:0:
254,191,98999,1,0,0:0:0:0:
254,191,99284,1,0,0:0:0:0:
248,187,99427,1,0,0:0:0:0:
249,187,99499,1,0,0:0:0:0:
254,191,99570,1,0,0:0:0:0:
254,191,99713,1,8,0:0:0:0:
254,191,99999,1,0,0:0:0:0:
254,191,100284,1,0,0:0:0:0:
254,191,100427,1,8,0:0:0:0:
254,191,100570,1,0,0:0:0:0:
254,191,100713,1,8,0:0:0:0:
261,185,100856,1,0,0:0:0:0:
261,185,101142,1,0,0:0:0:0:
256,198,101570,1,12,0:0:0:0:
257,209,101856,1,8,0:0:0:0:
257,209,101999,1,8,0:0:0:0:
257,208,102284,1,0,0:0:0:0:
257,208,102570,1,0,0:0:0:0:
257,209,102713,1,8,0:0:0:0:
264,156,102856,1,8,0:0:0:0:
256,191,102927,1,8,0:0:0:0:
257,209,102999,1,8,0:0:0:0:
257,209,103142,1,0,0:0:0:0:
257,208,103284,1,8,0:0:0:0:
257,208,103570,1,0,0:0:0:0:
257,209,103856,1,0,0:0:0:0:
257,209,103999,1,8,0:0:0:0:
270,190,104142,1,0,0:0:0:0:
257,208,104284,1,0,0:0:0:0:
257,208,104427,1,8,0:0:0:0:
270,190,104570,1,0,0:0:0:0:
257,209,104713,1,0,0:0:0:0:
257,209,104856,1,8,0:0:0:0:
264,214,105284,1,8,0:0:0:0:
264,214,105427,1,0,0:0:0:0:
264,214,105570,1,8,0:0:0:0:
265,213,105856,1,8,0:0:0:0:
264,214,106142,1,12,0:0:0:0:
255,208,106427,1,8,0:0:0:0:
255,208,106570,1,0,0:0:0:0:
264,214,106713,1,0,0:0:0:0:
255,208,106856,1,8,0:0:0:0:
255,208,107142,1,0,0:0:0:0:
255,208,107284,1,8,0:0:0:0:
255,208,107427,1,0,0:0:0:0:
269,210,107499,1,0,0:0:0:0:
255,208,107570,1,0,0:0:0:0:
255,208,107713,1,0,0:0:0:0:
255,208,107856,1,8,0:0:0:0:
255,208,108142,1,0,0:0:0:0:
264,218,108427,1,0,0:0:0:0:
264,218,108570,1,8,0:0:0:0:
265,214,108642,1,8,0:0:0:0:
264,218,108713,1,8,0:0:0:0:
264,218,108856,1,0,0:0:0:0:
255,208,109142,1,0,0:0:0:0:
249,194,109427,1,0,0:0:0:0:
252,209,109570,1,8,0:0:0:0:
252,209,109713,1,0,0:0:0:0:
255,208,109856,1,0,0:0:0:0:
252,209,109999,1,8,0:0:0:0:
255,208,110284,1,0,0:0:0:0:
252,209,110713,1,12,0:0:0:0:
261,226,110999,1,8,0:0:0:0:
261,226,111142,1,8,0:0:0:0:
261,226,111427,1,8,0:0:0:0:
261,226,111570,1,8,0:0:0:0:
257,208,111713,1,0,0:0:0:0:
257,209,111856,1,8,0:0:0:0:
257,209,111999,1,8,0:0:0:0:
262,199,112070,1,8,0:0:0:0:
257,209,112142,1,8,0:0:0:0:
257,209,112284,1,0,0:0:0:0:
257,208,112427,1,8,0:0:0:0:
257,208,112713,1,0,0:0:0:0:
265,213,112999,1,0,0:0:0:0:
261,226,113142,1,8,0:0:0:0:
262,217,113284,1,0,0:0:0:0:
264,214,113427,1,0,0:0:0:0:
264,214,113570,1,8,0:0:0:0:
262,217,113713,1,0,0:0:0:0:
264,214,113856,1,0,0:0:0:0:
264,214,113999,1,8,0:0:0:0:
264,214,114427,1,8,0:0:0:0:
264,214,114570,1,0,0:0:0:0:
264,214,114713,1,8,0:0:0:0:
264,214,114999,1,8,0:0:0:0:
265,213,115284,1,12,0:0:0:0:
264,214,115570,1,8,0:0:0:0:
264,214,115713,1,0,0:0:0:0:
264,214,115856,1,8,0:0:0:0:
265,213,115999,1,0,0:0:0:0:
264,214,116142,1,8,0:0:0:0:
264,214,116284,1,0,0:0:0:0:
264,214,116427,1,4,0:0:0:0:
264,214,116570,1,4,0:0:0:0:
268,209,117284,1,0,0:0:0:0:
267,206,117427,1,0,0:0:0:0:
267,206,117570,1,12,0:0:0:0:
258,213,117999,1,8,0:0:0:0:
268,209,118284,1,0,0:0:0:0:
266,211,118427,1,0,0:0:0:0:
268,209,118713,1,12,0:0:0:0:
276,182,119142,1,8,0:0:0:0:
266,211,119427,1,0,0:0:0:0:
264,217,119570,1,8,0:0:0:0:
263,217,119856,1,12,0:0:0:0:
281,213,120284,1,8,0:0:0:0:
264,217,120570,1,8,0:0:0:0:
263,217,120713,1,0,0:0:0:0:
263,217,120999,1,12,0:0:0:0:
264,217,121427,1,8,0:0:0:0:
263,217,121713,1,8,0:0:0:0:
263,217,121856,1,0,0:0:0:0:
317,215,121999,1,0,0:0:0:0:
264,217,122142,1,12,0:0:0:0:
263,207,122427,1,8,0:0:0:0:
267,219,122570,1,8,0:0:0:0:
269,190,122713,1,0,0:0:0:0:
269,221,122856,1,8,0:0:0:0:
269,221,123142,1,0,0:0:0:0:
269,221,123284,1,8,0:0:0:0:
268,203,123427,1,0,0:0:0:0:
269,221,123570,1,8,0:0:0:0:
267,219,123713,1,0,0:0:0:0:
269,221,123856,1,8,0:0:0:0:
269,221,124142,1,8,0:0:0:0:
269,223,124427,1,8,0:0:0:0:
269,221,124570,1,0,0:0:0:0:
276,246,124856,1,0,0:0:0:0:
276,246,124999,1,8,0:0:0:0:
276,243,125284,1,8,0:0:0:0:
276,243,125427,1,8,0:0:0:0:
276,246,125856,1,0,0:0:0:0:
276,243,126142,1,8,0:0:0:0:
276,243,126284,1,8,0:0:0:0:
276,243,126356,1,8,0:0:0:0:
276,243,126427,1,8,0:0:0:0:
256,192,126713,1,12,0:0:0:0:
256,192,126999,1,8,0:0:0:0:
256,192,127142,1,8,0:0:0:0:
256,192,127427,1,0,0:0:0:0:
256,192,127713,1,0,0:0:0:0:
256,192,127856,1,8,0:0:0:0:
256,192,127999,1,0,0:0:0:0:
256,192,128142,1,8,0:0:0:0:
256,192,128284,1,8,0:0:0:0:
256,192,128570,1,0,0:0:0:0:
256,192,128713,1,8,0:0:0:0:
256,192,128856,1,8,0:0:0:0:
256,192,128999,1,0,0:0:0:0:
256,192,129284,1,8,0:0:0:0:
256,192,129570,1,0,0:0:0:0:
256,192,129856,1,0,0:0:0:0:
256,192,130142,1,12,0:0:0:0:
256,192,130427,1,12,0:0:0:0:
256,192,130713,1,4,0:0:0:0:
256,192,131284,1,12,0:0:0:0:
277,183,131570,1,8,0:0:0:0:
277,183,131642,1,8,0:0:0:0:
277,183,131713,1,8,0:0:0:0:
277,183,131856,1,0,0:0:0:0:
277,183,131999,1,8,0:0:0:0:
277,183,132142,1,0,0:0:0:0:
277,183,132284,1,0,0:0:0:0:
285,181,132570,1,8,0:0:0:0:
285,181,132713,1,0,0:0:0:0:
285,181,132784,1,0,0:0:0:0:
285,181,132856,1,0,0:0:0:0:
285,181,132999,1,8,0:0:0:0:
285,181,133142,1,8,0:0:0:0:
285,181,133284,1,0,0:0:0:0:
285,181,133427,1,8,0:0:0:0:
275,180,133713,1,8,0:0:0:0:
275,180,133856,1,0,0:0:0:0:
275,180,133999,1,0,0:0:0:0:
275,180,134142,1,8,0:0:0:0:
275,180,134284,1,0,0:0:0:0:
275,180,134356,1,0,0:0:0:0:
275,180,134427,1,0,0:0:0:0:
275,180,134570,1,0,0:0:0:0:
275,180,134713,1,12,0:0:0:0:
275,180,134999,1,12,0:0:0:0:
275,180,135284,1,0,0:0:0:0:
275,180,135856,1,12,0:0:0:0:
280,171,136142,1,0,0:0:0:0:
300,167,136284,1,8,0:0:0:0:
285,181,136570,1,0,0:0:0:0:
275,180,136713,1,8,0:0:0:0:
273,177,136856,1,0,0:0:0:0:
273,177,136999,1,0,0:0:0:0:
268,193,137284,1,8,0:0:0:0:
279,187,137427,1,0,0:0:0:0:
279,187,137570,1,8,0:0:0:0:
279,187,137713,1,8,0:0:0:0:
279,187,137856,1,0,0:0:0:0:
279,187,137999,1,0,0:0:0:0:
279,187,138284,1,0,0:0:0:0:
279,187,138427,1,8,0:0:0:0:
278,178,138713,1,0,0:0:0:0:
278,178,138856,1,8,0:0:0:0:
278,178,138999,1,8,0:0:0:0:
278,178,139427,1,8,0:0:0:0:
278,178,139570,1,8,0:0:0:0:
278,178,139713,1,0,0:0:0:0:
278,178,139856,1,8,0:0:0:0:
278,178,140142,1,0,0:0:0:0:
296,184,140427,1,0,0:0:0:0:
296,184,140570,1,8,0:0:0:0:
291,188,140642,1,8,0:0:0:0:
292,181,140713,1,8,0:0:0:0:
292,182,140999,1,0,0:0:0:0:
296,184,141142,1,8,0:0:0:0:
288,185,141213,1,8,0:0:0:0:
296,184,141284,1,8,0:0:0:0:
292,198,141427,1,0,0:0:0:0:
292,181,141570,1,8,0:0:0:0:
292,182,141856,1,0,0:0:0:0:
281,177,141927,1,0,0:0:0:0:
296,184,141999,1,0,0:0:0:0:
296,184,142142,1,8,0:0:0:0:
290,181,142713,1,8,0:0:0:0:
290,181,142856,1,0,0:0:0:0:
283,174,142927,1,0,0:0:0:0:
292,181,142999,1,0,0:0:0:0:
302,199,143142,1,8,0:0:0:0:
290,181,143284,1,0,0:0:0:0:
290,181,143427,1,8,0:0:0:0:
277,171,143499,1,8,0:0:0:0:
290,181,143570,1,8,0:0:0:0:
293,191,143856,1,8,0:0:0:0:
293,191,143999,1,0,0:0:0:0:
279,172,144070,1,0,0:0:0:0:
292,190,144142,1,0,0:0:0:0:
292,190,144284,1,8,0:0:0:0:
293,191,144427,1,8,0:0:0:0:
283,177,144499,1,8,0:0:0:0:
283,177,144570,1,8,0:0:0:0:
283,177,144713,1,0,0:0:0:0:
261,187,144999,5,12,0:0:0:0:
256,192,149284,1,0,0:0:0:0:
256,192,149427,1,0,0:0:0:0:
256,192,149570,1,12,0:0:0:0:
256,192,149856,1,0,0:0:0:0:
256,192,150142,1,0,0:0:0:0:
256,192,150427,1,0,0:0:0:0:
256,192,150713,1,12,0:0:0:0:
256,192,150999,1,0,0:0:0:0:
256,192,151284,1,0,0:0:0:0:
256,192,151570,1,0,0:0:0:0:
256,192,151856,1,12,0:0:0:0:
299,194,152999,1,0,0:0:0:0:
299,194,153142,1,8,0:0:0:0:
319,174,153284,1,0,0:0:0:0:
299,194,153570,1,0,0:0:0:0:
254,191,154142,5,12,0:0:0:0:
254,191,154427,1,8,0:0:0:0:
254,191,154570,1,8,0:0:0:0:
290,197,154713,1,0,0:0:0:0:
254,191,154856,1,8,0:0:0:0:
254,191,155142,1,0,0:0:0:0:
254,191,155284,1,8,0:0:0:0:
254,191,155427,1,8,0:0:0:0:
273,192,155499,1,8,0:0:0:0:
254,191,155570,1,8,0:0:0:0:
254,191,155713,1,0,0:0:0:0:
254,191,155856,1,8,0:0:0:0:
254,191,156142,1,0,0:0:0:0:
254,191,156427,1,8,0:0:0:0:
261,200,156570,1,0,0:0:0:0:
271,195,156642,1,0,0:0:0:0:
254,191,156713,1,0,0:0:0:0:
254,191,156856,1,8,0:0:0:0:
254,191,157142,1,0,0:0:0:0:
254,191,157427,1,0,0:0:0:0:
254,191,157570,1,8,0:0:0:0:
254,191,157713,1,0,0:0:0:0:
254,191,157856,1,8,0:0:0:0:
261,185,157999,1,0,0:0:0:0:
261,185,158284,1,0,0:0:0:0:
256,198,158713,1,12,0:0:0:0:
257,209,158999,1,8,0:0:0:0:
257,209,159142,1,8,0:0:0:0:
257,208,159427,1,8,0:0:0:0:
257,208,159570,1,0,0:0:0:0:
257,208,159713,1,8,0:0:0:0:
253,204,159784,1,8,0:0:0:0:
257,209,159856,1,8,0:0:0:0:
257,209,159999,1,0,0:0:0:0:
257,209,160142,1,8,0:0:0:0:
257,209,160284,1,0,0:0:0:0:
257,208,160427,1,8,0:0:0:0:
257,208,160713,1,8,0:0:0:0:
257,209,160999,1,0,0:0:0:0:
257,209,161142,1,8,0:0:0:0:
263,182,161284,1,0,0:0:0:0:
257,208,161427,1,8,0:0:0:0:
257,208,161570,1,8,0:0:0:0:
263,182,161713,1,0,0:0:0:0:
257,209,161856,1,8,0:0:0:0:
257,209,161999,1,8,0:0:0:0:
264,214,162427,1,8,0:0:0:0:
264,214,162570,1,0,0:0:0:0:
264,214,162713,1,8,0:0:0:0:
265,213,162999,1,0,0:0:0:0:
264,214,163284,1,12,0:0:0:0:
255,208,163570,1,8,0:0:0:0:
255,208,163713,1,8,0:0:0:0:
273,218,163856,1,0,0:0:0:0:
255,208,163999,1,8,0:0:0:0:
255,208,164284,1,0,0:0:0:0:
255,208,164427,1,8,0:0:0:0:
255,208,164570,1,0,0:0:0:0:
264,223,164642,1,0,0:0:0:0:
255,208,164713,1,0,0:0:0:0:
255,208,164856,1,0,0:0:0:0:
255,208,164999,1,8,0:0:0:0:
255,208,165284,1,0,0:0:0:0:
264,218,165570,1,8,0:0:0:0:
255,208,165713,1,0,0:0:0:0:
255,208,165784,1,0,0:0:0:0:
264,218,165856,1,0,0:0:0:0:
264,218,165999,1,8,0:0:0:0:
268,223,166142,1,0,0:0:0:0:
255,208,166284,1,0,0:0:0:0:
252,209,166570,1,0,0:0:0:0:
252,209,166713,1,8,0:0:0:0:
252,209,166856,1,8,0:0:0:0:
252,209,166999,1,0,0:0:0:0:
255,208,167142,1,8,0:0:0:0:
252,209,167427,1,0,0:0:0:0:
252,209,167856,1,12,0:0:0:0:
261,226,168142,1,8,0:0:0:0:
261,226,168284,1,8,0:0:0:0:
261,226,168570,1,8,0:0:0:0:
257,208,168856,1,0,0:0:0:0:
257,209,168999,1,8,0:0:0:0:
257,209,169142,1,8,0:0:0:0:
257,209,169284,1,8,0:0:0:0:
257,209,169427,1,0,0:0:0:0:
257,208,169570,1,8,0:0:0:0:
257,208,169856,1,0,0:0:0:0:
265,213,170142,1,8,0:0:0:0:
261,226,170284,1,8,0:0:0:0:
268,218,170427,1,0,0:0:0:0:
264,214,170570,1,8,0:0:0:0:
264,214,170713,1,8,0:0:0:0:
268,218,170856,1,0,0:0:0:0:
264,214,170999,1,8,0:0:0:0:
264,214,171142,1,8,0:0:0:0:
264,214,171570,1,8,0:0:0:0:
264,214,171713,1,8,0:0:0:0:
264,214,171856,1,0,0:0:0:0:
265,213,172142,1,8,0:0:0:0:
264,214,172427,1,12,0:0:0:0:
264,214,172713,1,8,0:0:0:0:
264,214,172856,1,0,0:0:0:0:
264,214,173284,1,0,0:0:0:0:
264,214,173570,1,12,0:0:0:0:
262,205,173856,1,0,0:0:0:0:
262,205,173999,1,8,0:0:0:0:
262,205,174142,1,8,0:0:0:0:
262,205,174284,1,0,0:0:0:0:
262,205,174427,1,0,0:0:0:0:
262,205,174713,1,12,0:0:0:0:
262,205,174999,1,8,0:0:0:0:
262,205,175142,1,0,0:0:0:0:
262,205,175570,1,0,0:0:0:0:
262,205,175856,1,12,0:0:0:0:
262,205,176142,1,8,0:0:0:0:
262,205,176284,1,8,0:0:0:0:
262,205,176427,1,0,0:0:0:0:
262,205,176570,1,0,0:0:0:0:
266,208,176713,1,0,0:0:0:0:
262,205,176999,1,12,0:0:0:0:
262,205,177284,1,8,0:0:0:0:
262,205,177427,1,8,0:0:0:0:
262,205,177856,1,0,0:0:0:0:
262,205,178142,1,4,0:0:0:0:
262,205,178284,1,4,0:0:0:0:
266,196,178999,1,0,0:0:0:0:
266,196,179070,1,0,0:0:0:0:
266,196,179142,1,0,0:0:0:0:
256,192,179284,1,12,0:0:0:0:
236,198,179427,1,0,0:0:0:0:
256,192,179570,1,8,0:0:0:0:
256,192,179713,1,8,0:0:0:0:
256,192,179999,1,0,0:0:0:0:
256,192,180284,1,8,0:0:0:0:
256,192,180427,1,8,0:0:0:0:
256,192,180570,1,0,0:0:0:0:
256,192,180713,1,8,0:0:0:0:
256,192,180856,1,8,0:0:0:0:
256,192,181284,1,8,0:0:0:0:
256,192,181427,1,0,0:0:0:0:
256,192,181570,1,8,0:0:0:0:
256,192,181856,1,8,0:0:0:0:
256,192,182142,1,0,0:0:0:0:
256,192,182427,1,0,0:0:0:0:
256,192,182713,1,12,0:0:0:0:
256,192,182999,1,12,0:0:0:0:
256,192,183284,1,0,0:0:0:0:
256,192,183427,1,8,0:0:0:0:
267,182,183499,1,8,0:0:0:0:
256,192,183570,1,8,0:0:0:0:
256,192,183713,1,0,0:0:0:0:
256,192,183856,1,12,0:0:0:0:
244,195,183999,1,0,0:0:0:0:
256,192,184142,1,8,0:0:0:0:
256,192,184284,1,8,0:0:0:0:
256,192,184570,1,0,0:0:0:0:
256,192,184856,1,0,0:0:0:0:
256,192,184999,1,8,0:0:0:0:
256,192,185142,1,0,0:0:0:0:
256,192,185284,1,8,0:0:0:0:
256,192,185427,1,8,0:0:0:0:
256,192,185856,1,8,0:0:0:0:
256,192,185999,1,0,0:0:0:0:
256,192,186142,1,8,0:0:0:0:
256,192,186427,1,8,0:0:0:0:
256,192,186713,1,8,0:0:0:0:
256,192,186999,1,0,0:0:0:0:
256,192,187284,5,12,0:0:0:0:
256,192,187570,1,12,0:0:0:0:
256,192,187856,1,0,0:0:0:0:
256,192,187999,1,8,0:0:0:0:
256,192,188070,1,8,0:0:0:0:
256,192,188142,1,8,0:0:0:0:
262,196,188284,1,0,0:0:0:0:
256,192,188427,1,12,0:0:0:0:
247,203,188570,1,0,0:0:0:0:
256,192,188713,1,8,0:0:0:0:
256,192,188856,1,8,0:0:0:0:
256,192,189142,1,0,0:0:0:0:
256,192,189427,1,0,0:0:0:0:
256,192,189570,1,8,0:0:0:0:
256,192,189713,1,0,0:0:0:0:
256,192,189856,1,8,0:0:0:0:
256,192,189999,1,8,0:0:0:0:
256,192,190427,1,0,0:0:0:0:
256,192,190570,1,0,0:0:0:0:
256,192,190713,1,8,0:0:0:0:
256,192,190999,1,8,0:0:0:0:
256,192,191284,1,0,0:0:0:0:
256,192,191570,1,0,0:0:0:0:
256,192,191856,1,12,0:0:0:0:
256,192,192142,1,12,0:0:0:0:
256,192,192427,1,0,0:0:0:0:
256,192,192570,1,8,0:0:0:0:
256,192,192642,1,8,0:0:0:0:
256,192,192713,1,8,0:0:0:0:
256,192,192856,1,0,0:0:0:0:
256,192,192999,1,12,0:0:0:0:
247,203,193142,1,0,0:0:0:0:
256,192,193284,1,8,0:0:0:0:
256,192,193427,1,8,0:0:0:0:
256,192,193713,1,0,0:0:0:0:
256,192,193999,1,0,0:0:0:0:
256,192,194142,1,8,0:0:0:0:
256,192,194284,1,8,0:0:0:0:
256,192,194427,1,0,0:0:0:0:
256,192,194570,1,8,0:0:0:0:
256,192,194999,1,8,0:0:0:0:
256,192,195142,1,0,0:0:0:0:
256,192,195284,1,8,0:0:0:0:
256,192,195570,1,8,0:0:0:0:
256,192,195856,1,8,0:0:0:0:
256,192,196142,1,0,0:0:0:0:
256,192,196427,5,12,0:0:0:0:
256,192,196713,1,12,0:0:0:0:
248,189,196856,1,0,0:0:0:0:
256,192,196999,1,0,0:0:0:0:
256,192,197142,1,8,0:0:0:0:
256,192,197213,1,8,0:0:0:0:
256,192,197284,1,8,0:0:0:0:
264,169,197570,1,12,0:0:0:0:
264,169,197856,1,12,0:0:0:0:
264,169,197999,1,0,0:0:0:0:
264,169,198142,1,8,0:0:0:0:
264,169,198284,1,8,0:0:0:0:
272,165,198356,1,8,0:0:0:0:
264,169,198427,1,8,0:0:0:0:
264,169,198570,1,0,0:0:0:0:
