osu file format v14

[General]
AudioFilename: audio.mp3
AudioLeadIn: 0
PreviewTime: 46714
Countdown: 0
SampleSet: Normal
StackLeniency: 0.7
Mode: 1
LetterboxInBreaks: 0
WidescreenStoryboard: 0

[Editor]
Bookmarks: 9857,11426,20568,29711,38854,47997,68568,79997,89140,98283,118854,127997,137140,146283,155426,173711,180568,199997
DistanceSpacing: 0.9
BeatDivisor: 8
GridSize: 32
TimelineZoom: 3.799998

[Metadata]
Title:Manemane Psychotropic
TitleUnicode:マネマネサイコトロピック
Artist:Kairiki bear feat. GUMI
ArtistUnicode:かいりきベア feat. GUMI
Creator:Quorum
Version:Inner Oni
Source:
Tags:arach vized japanese rock jrock j-rock vocaloid megpoid gumi グミ kairikibear saikotoropikku fake fake ボーカロイド
BeatmapID:2776507
BeatmapSetID:1340224

[Difficulty]
HPDrainRate:6
CircleSize:5
OverallDifficulty:6
ApproachRate:5
SliderMultiplier:1.4
SliderTickRate:1

[Events]
//Background and Video events
0,0,"bg.jpg",0,80
//Break Periods
//Storyboard Layer 0 (Background)
//Storyboard Layer 1 (Fail)
//Storyboard Layer 2 (Pass)
//Storyboard Layer 3 (Foreground)
//Storyboard Layer 4 (Overlay)
//Storyboard Sound Samples

[TimingPoints]
475,285.714285714286,4,1,0,40,1,0
475,-111.111111111111,4,1,0,40,0,0
9000,285.714285714286,4,1,0,60,1,8
10142,285.714285714286,4,1,0,80,1,0
10142,-90.9090909090909,4,1,0,80,0,0
19284,-100,4,1,0,80,0,0
28141,-99.009900990099,4,1,0,80,0,0
28213,-98.0392156862745,4,1,0,80,0,0
28284,-97.0873786407767,4,1,0,80,0,0
28355,-96.1538461538461,4,1,0,80,0,0
28426,-95.2380952380952,4,1,0,80,0,0
36284,-95.2380952380952,4,1,0,80,0,0
36356,-95.9964673300022,4,1,0,80,0,0
36427,-96.7670140602471,4,1,0,80,0,0
36570,-98.3458232528864,4,1,0,80,0,0
36713,-99.9770052887836,4,1,0,80,0,0
36856,-101.663106763545,4,1,0,80,0,0
37141,-105.212102337708,4,1,0,80,0,0
37213,-106.138408730521,4,1,0,80,0,0
37284,-107.081170739856,4,1,0,80,0,0
37356,-108.108108108108,4,1,0,80,0,0
37427,-109.017847311783,4,1,0,80,0,0
37499,-110.012695465057,4,1,0,80,0,0
37570,-111.025867916966,4,1,0,80,0,0
46713,-90.9090909090909,4,1,0,80,0,1
66284,-90.9090909090909,4,1,0,80,0,0
67284,-100,4,1,0,80,0,1
69284,-100,4,1,0,80,0,1
69356,-102.510481696753,4,1,0,80,0,1
69427,-105.150259721142,4,1,0,80,0,1
69499,-107.929470249781,4,1,0,80,0,1
69570,-110.859705933544,4,1,0,80,0,0
78713,-100,4,1,0,80,0,0
92142,-100,4,1,0,80,0,0
92213,-102.564102564103,4,1,0,80,0,0
92284,-105.263157894737,4,1,0,80,0,0
92356,-108.108108108108,4,1,0,80,0,0
92427,-111.111111111111,4,1,0,80,0,0
96713,-100,4,1,0,80,0,0
96784,-97.6095423088561,4,1,0,80,0,0
96856,-95.3307022059524,4,1,0,80,0,0
96927,-93.1559271856011,4,1,0,80,0,0
96999,-91.0780821506086,4,1,0,80,0,1
116570,-90.9090909090909,4,1,0,80,0,0
117284,-103.092783505155,4,1,0,80,0,0
117427,-106.382978723404,4,1,0,80,0,0
117570,-111.111111111111,4,1,0,80,0,0
125713,-111.111111111111,4,1,0,80,0,0
125856,-107.692357396473,4,1,0,80,0,0
125999,-104.477596346627,4,1,0,80,0,0
126141,-101.449304767914,4,1,0,80,0,0
126284,-98.5915215235151,4,1,0,80,0,0
126356,-97.2222627314984,4,1,0,80,0,0
126427,-95.8904240945786,4,1,0,80,0,0
126570,-93.3332960000149,4,1,0,80,0,0
126713,-90.9090909090909,4,1,0,80,0,0
140427,-90.9090909090909,4,1,0,80,0,1
144999,-90.9090909090909,4,1,0,80,0,0
145141,-111.111111111111,4,1,0,65,0,0
149570,-111.111111111111,4,1,0,80,0,0
152999,-111.111111111111,4,1,0,80,0,0
153141,-108.123303815671,4,1,0,80,0,0
153284,-105.29186378181,4,1,0,80,0,0
153427,-102.605039343902,4,1,0,80,0,0
153570,-100.051826846306,4,1,0,80,0,0
153713,-97.6226921995564,4,1,0,80,0,0
153856,-95.3086236195737,4,1,0,80,0,0
153927,-94.1922916796181,4,1,0,80,0,0
153999,-93.1018077578012,4,1,0,80,0,0
154070,-92.0362843847558,4,1,0,80,0,0
154106,-90.9090909090909,4,1,0,80,0,0
154142,-90.9947914581369,4,1,0,80,0,1
172427,-90.9947914581369,4,1,0,80,0,1
178284,-90.9947914581369,4,1,0,80,0,0
178999,-90.9947914581369,4,1,0,80,0,0
179284,-90.9947914581369,4,1,0,80,0,0

[HitObjects]
256,192,475,5,8,0:0:0:0:
256,192,665,1,0,0:0:0:0:
256,192,760,1,8,0:0:0:0:
256,192,951,1,0,0:0:0:0:
256,192,1236,1,0,0:0:0:0:
256,192,1522,1,0,0:0:0:0:
256,192,1617,1,8,0:0:0:0:
256,192,1808,1,0,0:0:0:0:
256,192,1903,1,0,0:0:0:0:
256,192,2094,1,8,0:0:0:0:
256,192,2379,1,8,0:0:0:0:
256,192,2427,1,8,0:0:0:0:
256,192,2475,1,8,0:0:0:0:
256,192,2665,1,0,0:0:0:0:
256,192,2760,1,8,0:0:0:0:
256,192,3046,1,8,0:0:0:0:
256,192,3332,1,0,0:0:0:0:
256,192,3617,1,0,0:0:0:0:
256,192,3903,1,8,0:0:0:0:
256,192,4189,1,8,0:0:0:0:
256,192,4475,1,0,0:0:0:0:
256,192,4665,1,8,0:0:0:0:
256,192,4713,1,8,0:0:0:0:
256,192,4760,1,8,0:0:0:0:
256,192,4951,1,0,0:0:0:0:
256,192,5046,1,0,0:0:0:0:
256,192,5236,1,0,0:0:0:0:
256,192,5332,1,8,0:0:0:0:
256,192,5522,1,0,0:0:0:0:
256,192,5808,1,8,0:0:0:0:
256,192,6094,1,0,0:0:0:0:
256,192,6189,1,8,0:0:0:0:
256,192,6379,1,0,0:0:0:0:
256,192,6475,1,0,0:0:0:0:
256,192,6665,1,8,0:0:0:0:
256,192,6951,1,8,0:0:0:0:
256,192,6998,1,8,0:0:0:0:
256,192,7046,1,8,0:0:0:0:
256,192,7236,1,0,0:0:0:0:
256,192,7332,1,8,0:0:0:0:
256,192,7617,1,0,0:0:0:0:
256,192,7903,1,0,0:0:0:0:
256,192,8189,1,0,0:0:0:0:
256,192,8475,12,0,9714,0:0:0:0:
154,170,9857,5,8,0:0:0:0:
256,192,10142,5,12,0:0:0:0:
256,192,10284,1,0,0:0:0:0:
256,192,10356,1,0,0:0:0:0:
256,192,10427,1,8,0:0:0:0:
256,192,10570,1,8,0:0:0:0:
256,192,10713,1,0,0:0:0:0:
256,192,10856,1,8,0:0:0:0:
256,192,10999,1,0,0:0:0:0:
256,192,11142,1,0,0:0:0:0:
270,192,11213,1,0,0:0:0:0:
256,192,11284,1,8,0:0:0:0:
256,192,11427,1,0,0:0:0:0:
256,192,11570,1,8,0:0:0:0:
256,192,11713,1,8,0:0:0:0:
256,192,11999,1,0,0:0:0:0:
256,192,12070,1,8,0:0:0:0:
256,192,12142,1,0,0:0:0:0:
256,192,12284,1,8,0:0:0:0:
256,192,12427,1,8,0:0:0:0:
256,192,12570,1,0,0:0:0:0:
249,187,12642,1,0,0:0:0:0:
256,192,12713,1,8,0:0:0:0:
251,196,12856,1,0,0:0:0:0:
256,192,12999,1,8,0:0:0:0:
256,192,13142,1,8,0:0:0:0:
272,185,13213,1,0,0:0:0:0:
256,192,13284,1,0,0:0:0:0:
256,192,13427,1,0,0:0:0:0:
256,192,13570,1,12,0:0:0:0:
256,192,13856,1,12,0:0:0:0:
261,195,13999,1,0,0:0:0:0:
256,192,14142,1,0,0:0:0:0:
256,192,14284,1,8,0:0:0:0:
256,192,14356,1,8,0:0:0:0:
256,192,14427,1,0,0:0:0:0:
256,192,14570,1,0,0:0:0:0:
256,192,14713,5,12,0:0:0:0:
256,192,14856,1,0,0:0:0:0:
256,192,14927,1,0,0:0:0:0:
256,192,14999,1,8,0:0:0:0:
256,192,15142,1,8,0:0:0:0:
256,192,15284,1,0,0:0:0:0:
256,192,15427,1,8,0:0:0:0:
256,192,15570,1,0,0:0:0:0:
256,192,15713,1,0,0:0:0:0:
256,192,15856,1,8,0:0:0:0:
256,192,15999,1,0,0:0:0:0:
255,198,16070,1,0,0:0:0:0:
256,192,16142,1,8,0:0:0:0:
256,192,16284,1,8,0:0:0:0:
256,192,16570,1,8,0:0:0:0:
256,192,16642,1,0,0:0:0:0:
256,192,16713,1,8,0:0:0:0:
256,192,16856,1,0,0:0:0:0:
256,192,16999,1,8,0:0:0:0:
256,192,17142,1,0,0:0:0:0:
256,192,17213,1,0,0:0:0:0:
256,192,17284,1,8,0:0:0:0:
256,192,17427,1,0,0:0:0:0:
256,192,17570,1,8,0:0:0:0:
256,192,17713,1,0,0:0:0:0:
249,187,17784,1,0,0:0:0:0:
256,192,17856,1,0,0:0:0:0:
256,192,17999,1,0,0:0:0:0:
256,192,18142,1,12,0:0:0:0:
256,192,18427,1,12,0:0:0:0:
248,189,18570,1,0,0:0:0:0:
256,192,18713,1,0,0:0:0:0:
256,192,18856,1,8,0:0:0:0:
256,192,18927,1,8,0:0:0:0:
256,192,18999,1,0,0:0:0:0:
256,192,19284,1,12,0:0:0:0:
256,192,19570,1,8,0:0:0:0:
256,192,19713,1,0,0:0:0:0:
256,192,19856,1,8,0:0:0:0:
256,192,19927,1,8,0:0:0:0:
256,192,19999,1,0,0:0:0:0:
256,192,20070,1,0,0:0:0:0:
256,192,20142,1,8,0:0:0:0:
256,192,20284,1,8,0:0:0:0:
256,192,20427,1,0,0:0:0:0:
256,192,20570,1,8,0:0:0:0:
256,192,20642,1,0,0:0:0:0:
256,192,20713,1,8,0:0:0:0:
256,192,20856,1,8,0:0:0:0:
256,192,20927,1,0,0:0:0:0:
256,192,20999,1,8,0:0:0:0:
256,192,21284,1,0,0:0:0:0:
256,192,21356,1,0,0:0:0:0:
256,192,21427,1,8,0:0:0:0:
261,200,21499,1,0,0:0:0:0:
256,192,21570,1,8,0:0:0:0:
256,192,21713,1,0,0:0:0:0:
256,192,21856,1,8,0:0:0:0:
256,192,21999,1,0,0:0:0:0:
256,192,22070,1,0,0:0:0:0:
256,192,22142,1,8,0:0:0:0:
256,192,22284,1,0,0:0:0:0:
256,192,22427,1,8,0:0:0:0:
256,192,22570,1,0,0:0:0:0:
256,192,22713,1,0,0:0:0:0:
256,192,22856,1,8,0:0:0:0:
256,192,22927,1,8,0:0:0:0:
256,192,22999,1,8,0:0:0:0:
256,192,23142,1,0,0:0:0:0:
256,192,23284,1,0,0:0:0:0:
256,192,23570,1,8,0:0:0:0:
256,192,23642,1,8,0:0:0:0:
256,192,23713,1,0,0:0:0:0:
256,192,23784,1,0,0:0:0:0:
256,192,23856,1,12,0:0:0:0:
256,192,23999,1,0,0:0:0:0:
256,192,24142,1,8,0:0:0:0:
256,192,24284,1,0,0:0:0:0:
256,192,24356,1,0,0:0:0:0:
256,192,24427,1,8,0:0:0:0:
256,192,24570,1,8,0:0:0:0:
256,192,24642,1,8,0:0:0:0:
256,192,24713,1,8,0:0:0:0:
256,192,24856,1,0,0:0:0:0:
256,192,24999,1,8,0:0:0:0:
256,192,25142,1,0,0:0:0:0:
256,192,25284,1,8,0:0:0:0:
256,192,25356,1,8,0:0:0:0:
256,192,25427,1,0,0:0:0:0:
239,164,25499,1,0,0:0:0:0:
256,192,25570,1,8,0:0:0:0:
256,192,25713,1,8,0:0:0:0:
256,192,25856,1,0,0:0:0:0:
256,192,25999,1,0,0:0:0:0:
256,192,26070,1,0,0:0:0:0:
256,192,26142,1,12,0:0:0:0:
256,192,26284,1,0,0:0:0:0:
256,192,26427,1,8,0:0:0:0:
256,192,26570,1,8,0:0:0:0:
256,192,26642,1,0,0:0:0:0:
256,192,26713,1,8,0:0:0:0:
256,192,26856,1,0,0:0:0:0:
256,192,26999,1,8,0:0:0:0:
256,192,27142,1,8,0:0:0:0:
256,192,27284,1,0,0:0:0:0:
256,192,27570,1,8,0:0:0:0:
256,192,27856,1,0,0:0:0:0:
256,192,27999,1,0,0:0:0:0:
256,192,28142,1,8,0:0:0:0:
256,192,28213,1,8,0:0:0:0:
256,192,28284,1,0,0:0:0:0:
256,192,28356,1,0,0:0:0:0:
256,192,28427,1,12,0:0:0:0:
256,192,28570,1,0,0:0:0:0:
256,192,28713,1,8,0:0:0:0:
256,192,28856,1,0,0:0:0:0:
256,192,28927,1,0,0:0:0:0:
256,192,28999,1,8,0:0:0:0:
256,192,29142,1,0,0:0:0:0:
256,192,29284,1,8,0:0:0:0:
256,192,29427,1,0,0:0:0:0:
256,192,29499,1,0,0:0:0:0:
256,192,29570,1,0,0:0:0:0:
256,192,29713,1,8,0:0:0:0:
256,192,29856,1,8,0:0:0:0:
256,192,29927,1,0,0:0:0:0:
256,192,29999,1,8,0:0:0:0:
256,192,30142,1,0,0:0:0:0:
256,192,30284,1,8,0:0:0:0:
256,192,30427,1,8,0:0:0:0:
256,192,30499,1,8,0:0:0:0:
256,192,30570,1,0,0:0:0:0:
252,196,30642,1,0,0:0:0:0:
256,192,30713,1,8,0:0:0:0:
256,192,30856,1,0,0:0:0:0:
256,192,30999,1,8,0:0:0:0:
256,192,31142,1,0,0:0:0:0:
256,192,31213,1,8,0:0:0:0:
256,192,31284,1,8,0:0:0:0:
256,192,31427,1,0,0:0:0:0:
256,192,31570,1,8,0:0:0:0:
256,192,31713,1,8,0:0:0:0:
256,192,31856,1,0,0:0:0:0:
256,192,31927,1,0,0:0:0:0:
256,192,31999,1,8,0:0:0:0:
256,192,32142,1,8,0:0:0:0:
256,192,32284,1,0,0:0:0:0:
256,192,32356,1,0,0:0:0:0:
256,192,32427,1,0,0:0:0:0:
256,192,32570,1,8,0:0:0:0:
256,192,32713,1,8,0:0:0:0:
256,192,32784,1,0,0:0:0:0:
256,192,32856,1,0,0:0:0:0:
256,192,32927,1,0,0:0:0:0:
256,192,32999,1,12,0:0:0:0:
256,192,33284,1,8,0:0:0:0:
256,192,33427,1,8,0:0:0:0:
256,192,33499,1,0,0:0:0:0:
256,192,33570,1,0,0:0:0:0:
256,192,33713,1,8,0:0:0:0:
256,192,33856,1,0,0:0:0:0:
256,192,33999,1,8,0:0:0:0:
256,192,34070,1,8,0:0:0:0:
256,192,34142,1,8,0:0:0:0:
256,192,34284,1,0,0:0:0:0:
256,192,34427,1,0,0:0:0:0:
256,192,34570,1,8,0:0:0:0:
256,192,34642,1,0,0:0:0:0:
260,186,34713,1,8,0:0:0:0:
256,192,34784,1,8,0:0:0:0:
256,192,34856,1,0,0:0:0:0:
256,192,34999,1,8,0:0:0:0:
256,192,35142,1,0,0:0:0:0:
256,192,35213,1,0,0:0:0:0:
256,192,35284,1,12,0:0:0:0:
256,192,35427,1,0,0:0:0:0:
256,192,35570,1,0,0:0:0:0:
256,192,35713,1,8,0:0:0:0:
256,192,35784,1,0,0:0:0:0:
256,192,35927,1,0,0:0:0:0:
256,192,35999,1,8,0:0:0:0:
256,192,36142,1,0,0:0:0:0:
256,192,36284,1,8,0:0:0:0:
256,192,36356,1,8,0:0:0:0:
256,192,36427,1,8,0:0:0:0:
256,192,36570,1,0,0:0:0:0:
256,192,36713,1,0,0:0:0:0:
256,192,36856,1,8,0:0:0:0:
246,192,37142,1,8,0:0:0:0:
256,192,37213,1,0,0:0:0:0:
256,192,37284,1,8,0:0:0:0:
249,190,37356,1,8,0:0:0:0:
256,192,37427,1,0,0:0:0:0:
256,192,37499,1,0,0:0:0:0:
256,192,37570,1,12,0:0:0:0:
255,197,37856,1,0,0:0:0:0:
255,197,38142,1,8,0:0:0:0:
255,197,38284,1,8,0:0:0:0:
255,197,38427,1,0,0:0:0:0:
255,197,38570,1,0,0:0:0:0:
250,184,38713,1,8,0:0:0:0:
239,197,38856,1,8,0:0:0:0:
250,184,38999,1,8,0:0:0:0:
250,184,39142,1,0,0:0:0:0:
241,195,39284,1,8,0:0:0:0:
241,195,39570,1,0,0:0:0:0:
239,197,39713,1,8,0:0:0:0:
239,197,39784,1,8,0:0:0:0:
241,195,39856,1,0,0:0:0:0:
241,195,39999,1,0,0:0:0:0:
241,195,40142,1,8,0:0:0:0:
254,191,40284,1,8,0:0:0:0:
254,191,40356,1,0,0:0:0:0:
254,191,40427,1,0,0:0:0:0:
254,191,40570,1,0,0:0:0:0:
254,191,40713,1,8,0:0:0:0:
254,191,40856,1,8,0:0:0:0:
254,191,40999,1,0,0:0:0:0:
245,193,41142,1,0,0:0:0:0:
260,197,41213,1,0,0:0:0:0:
254,191,41284,1,8,0:0:0:0:
254,191,41427,1,0,0:0:0:0:
254,191,41570,1,8,0:0:0:0:
254,191,41713,1,8,0:0:0:0:
254,191,41856,1,0,0:0:0:0:
254,191,41999,1,0,0:0:0:0:
254,191,42142,1,12,0:0:0:0:
254,191,42427,1,8,0:0:0:0:
254,191,42570,1,0,0:0:0:0:
254,191,42713,1,8,0:0:0:0:
254,191,42856,1,8,0:0:0:0:
254,191,42927,1,0,0:0:0:0:
254,191,42999,1,8,0:0:0:0:
254,191,43142,1,0,0:0:0:0:
254,191,43284,1,8,0:0:0:0:
254,191,43427,1,0,0:0:0:0:
254,191,43499,1,0,0:0:0:0:
254,191,43570,1,8,0:0:0:0:
254,191,43713,1,0,0:0:0:0:
254,191,43856,1,8,0:0:0:0:
254,191,44142,1,0,0:0:0:0:
254,191,44284,1,0,0:0:0:0:
254,191,44427,1,12,0:0:0:0:
254,191,45570,1,4,0:0:0:0:
254,191,45713,5,8,0:0:0:0:
254,191,45856,1,0,0:0:0:0:
254,191,45999,1,0,0:0:0:0:
256,192,46142,12,0,46642,0:0:0:0:
254,191,46713,5,12,0:0:0:0:
254,191,46856,1,0,0:0:0:0:
254,191,46999,1,8,0:0:0:0:
254,191,47142,1,8,0:0:0:0:
254,191,47213,1,0,0:0:0:0:
254,191,47284,1,8,0:0:0:0:
254,191,47427,1,8,0:0:0:0:
254,191,47570,1,0,0:0:0:0:
254,191,47713,1,0,0:0:0:0:
254,191,47784,1,0,0:0:0:0:
254,191,47856,1,8,0:0:0:0:
254,191,47999,1,8,0:0:0:0:
254,191,48070,1,0,0:0:0:0:
254,191,48142,1,8,0:0:0:0:
254,191,48213,1,0,0:0:0:0:
254,191,48284,1,0,0:0:0:0:
254,191,48427,1,8,0:0:0:0:
254,191,48570,1,0,0:0:0:0:
254,191,48642,1,0,0:0:0:0:
254,191,48713,1,8,0:0:0:0:
254,191,48784,1,8,0:0:0:0:
254,191,48856,1,8,0:0:0:0:
254,191,48927,1,0,0:0:0:0:
254,191,48999,1,8,0:0:0:0:
254,191,49142,1,0,0:0:0:0:
254,191,49284,1,8,0:0:0:0:
254,191,49427,1,8,0:0:0:0:
254,191,49499,1,0,0:0:0:0:
254,191,49642,1,0,0:0:0:0:
254,191,49713,1,8,0:0:0:0:
254,191,49856,1,8,0:0:0:0:
254,191,49999,1,0,0:0:0:0:
254,191,50070,1,0,0:0:0:0:
254,191,50142,1,12,0:0:0:0:
254,191,50284,1,4,0:0:0:0:
254,191,50427,1,12,0:0:0:0:
261,185,50570,1,4,0:0:0:0:
261,185,50856,1,0,0:0:0:0:
262,194,50927,1,8,0:0:0:0:
248,201,50999,1,8,0:0:0:0:
256,198,51070,1,0,0:0:0:0:
256,198,51142,1,8,0:0:0:0:
256,198,51213,1,0,0:0:0:0:
256,198,51284,1,12,0:0:0:0:
257,209,51570,1,8,0:0:0:0:
257,209,51713,1,8,0:0:0:0:
257,209,51784,1,8,0:0:0:0:
257,209,51856,1,0,0:0:0:0:
257,208,51999,1,8,0:0:0:0:
257,208,52142,1,0,0:0:0:0:
257,208,52284,1,8,0:0:0:0:
257,209,52356,1,0,0:0:0:0:
257,209,52427,1,8,0:0:0:0:
257,209,52499,1,8,0:0:0:0:
257,209,52570,1,0,0:0:0:0:
257,209,52713,1,8,0:0:0:0:
257,209,52856,1,0,0:0:0:0:
257,208,52927,1,0,0:0:0:0:
257,208,52999,1,8,0:0:0:0:
257,208,53142,1,0,0:0:0:0:
257,208,53213,1,8,0:0:0:0:
257,208,53284,1,8,0:0:0:0:
257,209,53356,1,0,0:0:0:0:
257,209,53427,1,8,0:0:0:0:
257,209,53570,1,0,0:0:0:0:
257,209,53713,1,8,0:0:0:0:
257,209,53784,1,8,0:0:0:0:
257,200,53856,1,0,0:0:0:0:
257,208,53999,1,0,0:0:0:0:
257,208,54142,1,8,0:0:0:0:
257,208,54213,1,0,0:0:0:0:
257,196,54284,1,0,0:0:0:0:
257,209,54427,1,0,0:0:0:0:
257,209,54570,1,8,0:0:0:0:
257,209,54642,1,8,0:0:0:0:
254,190,54713,1,8,0:0:0:0:
253,169,54856,1,8,0:0:0:0:
269,216,54927,1,0,0:0:0:0:
268,217,54999,1,8,0:0:0:0:
268,217,55142,1,0,0:0:0:0:
261,166,55213,1,0,0:0:0:0:
268,217,55284,1,8,0:0:0:0:
262,212,55427,1,0,0:0:0:0:
268,217,55570,1,8,0:0:0:0:
262,212,55642,1,8,0:0:0:0:
261,201,55713,1,0,0:0:0:0:
253,206,55784,1,0,0:0:0:0:
253,206,55856,1,12,0:0:0:0:
255,208,56142,1,8,0:0:0:0:
255,208,56284,1,0,0:0:0:0:
255,208,56356,1,0,0:0:0:0:
255,208,56427,1,8,0:0:0:0:
255,208,56570,1,0,0:0:0:0:
255,208,56713,1,8,0:0:0:0:
255,208,56856,1,0,0:0:0:0:
255,208,56927,1,0,0:0:0:0:
255,208,56999,1,8,0:0:0:0:
255,208,57142,1,8,0:0:0:0:
254,224,57213,1,0,0:0:0:0:
255,208,57284,1,8,0:0:0:0:
255,208,57356,1,0,0:0:0:0:
255,208,57427,1,0,0:0:0:0:
255,208,57570,1,8,0:0:0:0:
255,208,57713,1,0,0:0:0:0:
255,208,57784,1,8,0:0:0:0:
255,208,57856,1,8,0:0:0:0:
255,208,57927,1,0,0:0:0:0:
255,208,57999,1,0,0:0:0:0:
255,208,58070,1,0,0:0:0:0:
264,218,58142,1,8,0:0:0:0:
264,218,58284,1,8,0:0:0:0:
264,218,58427,1,0,0:0:0:0:
264,218,58570,1,8,0:0:0:0:
264,218,58642,1,0,0:0:0:0:
255,208,58784,1,0,0:0:0:0:
255,208,58856,1,8,0:0:0:0:
255,208,58999,1,8,0:0:0:0:
252,209,59142,1,0,0:0:0:0:
252,209,59213,1,0,0:0:0:0:
252,209,59284,1,12,0:0:0:0:
252,209,59427,1,4,0:0:0:0:
252,209,59570,1,12,0:0:0:0:
255,208,59713,1,12,0:0:0:0:
255,208,59999,1,8,0:0:0:0:
252,209,60070,1,0,0:0:0:0:
252,209,60142,1,8,0:0:0:0:
252,209,60213,1,8,0:0:0:0:
252,209,60284,1,0,0:0:0:0:
252,209,60356,1,0,0:0:0:0:
252,209,60427,1,12,0:0:0:0:
261,226,60713,1,8,0:0:0:0:
261,226,60856,1,8,0:0:0:0:
261,226,60927,1,8,0:0:0:0:
261,226,60999,1,0,0:0:0:0:
261,226,61142,1,8,0:0:0:0:
261,226,61284,1,8,0:0:0:0:
257,208,61427,1,0,0:0:0:0:
257,209,61499,1,0,0:0:0:0:
257,209,61570,1,8,0:0:0:0:
257,209,61642,1,8,0:0:0:0:
257,209,61713,1,0,0:0:0:0:
257,209,61856,1,8,0:0:0:0:
257,209,61999,1,0,0:0:0:0:
257,208,62070,1,0,0:0:0:0:
257,208,62142,1,8,0:0:0:0:
257,208,62284,1,0,0:0:0:0:
257,208,62356,1,8,0:0:0:0:
257,208,62427,1,8,0:0:0:0:
257,209,62499,1,8,0:0:0:0:
257,209,62570,1,0,0:0:0:0:
261,226,62713,1,0,0:0:0:0:
265,213,62856,1,8,0:0:0:0:
278,238,62927,1,8,0:0:0:0:
264,214,62999,1,0,0:0:0:0:
264,214,63142,1,0,0:0:0:0:
264,214,63284,1,8,0:0:0:0:
278,238,63356,1,0,0:0:0:0:
264,214,63427,1,8,0:0:0:0:
264,214,63570,1,0,0:0:0:0:
264,214,63713,1,8,0:0:0:0:
278,238,63784,1,8,0:0:0:0:
265,213,63856,1,8,0:0:0:0:
264,214,63999,1,0,0:0:0:0:
267,220,64070,1,8,0:0:0:0:
264,214,64142,1,8,0:0:0:0:
264,214,64284,1,0,0:0:0:0:
278,216,64356,1,0,0:0:0:0:
264,214,64427,1,8,0:0:0:0:
264,214,64570,1,0,0:0:0:0:
264,214,64642,1,0,0:0:0:0:
265,213,64713,1,8,0:0:0:0:
265,213,64784,1,8,0:0:0:0:
264,214,64856,1,8,0:0:0:0:
264,214,64927,1,0,0:0:0:0:
264,214,64999,1,12,0:0:0:0:
264,214,65284,1,8,0:0:0:0:
264,214,65427,1,0,0:0:0:0:
264,214,65570,1,8,0:0:0:0:
265,213,65713,1,0,0:0:0:0:
270,205,65784,1,0,0:0:0:0:
264,214,65856,1,8,0:0:0:0:
264,214,65999,1,0,0:0:0:0:
264,214,66142,1,4,0:0:0:0:
264,214,66284,1,4,0:0:0:0:
266,204,67284,1,12,0:0:0:0:
268,196,67427,1,12,0:0:0:0:
268,196,67713,1,0,0:0:0:0:
269,186,67999,1,0,0:0:0:0:
269,187,68142,1,8,0:0:0:0:
259,189,68213,1,0,0:0:0:0:
259,189,68284,1,0,0:0:0:0:
259,189,68356,1,0,0:0:0:0:
259,189,68427,1,12,0:0:0:0:
258,189,68570,1,8,0:0:0:0:
258,189,68713,1,0,0:0:0:0:
258,189,68856,1,12,0:0:0:0:
258,197,69142,1,0,0:0:0:0:
259,189,69284,1,8,0:0:0:0:
259,189,69356,1,8,0:0:0:0:
258,189,69427,1,0,0:0:0:0:
258,189,69499,1,0,0:0:0:0:
258,189,69570,1,12,0:0:0:0:
248,186,69856,1,0,0:0:0:0:
248,186,70142,1,0,0:0:0:0:
291,175,70284,1,8,0:0:0:0:
248,186,70427,1,8,0:0:0:0:
256,173,70570,1,0,0:0:0:0:
248,186,70713,1,8,0:0:0:0:
236,186,70856,1,0,0:0:0:0:
248,186,70999,1,8,0:0:0:0:
248,186,71284,1,8,0:0:0:0:
248,186,71570,1,0,0:0:0:0:
248,186,71856,1,8,0:0:0:0:
248,186,72142,1,0,0:0:0:0:
248,186,72427,1,0,0:0:0:0:
255,171,72570,1,0,0:0:0:0:
248,186,72713,1,8,0:0:0:0:
255,171,72856,1,8,0:0:0:0:
248,186,72999,1,0,0:0:0:0:
253,172,73142,1,8,0:0:0:0:
248,186,73284,1,8,0:0:0:0:
255,174,73427,1,0,0:0:0:0:
248,186,73856,1,0,0:0:0:0:
248,186,74142,1,8,0:0:0:0:
248,186,74427,1,0,0:0:0:0:
252,174,74570,1,0,0:0:0:0:
248,186,74713,1,8,0:0:0:0:
248,186,74999,1,0,0:0:0:0:
248,186,75284,1,8,0:0:0:0:
248,186,75570,1,0,0:0:0:0:
249,172,75713,1,0,0:0:0:0:
248,186,75856,1,8,0:0:0:0:
253,172,75999,1,8,0:0:0:0:
248,186,76142,1,0,0:0:0:0:
253,172,76284,1,0,0:0:0:0:
246,169,76427,1,12,0:0:0:0:
246,169,76713,1,8,0:0:0:0:
283,181,76856,1,8,0:0:0:0:
246,169,76999,1,8,0:0:0:0:
265,180,77142,1,0,0:0:0:0:
265,170,77427,1,0,0:0:0:0:
246,169,77570,1,8,0:0:0:0:
246,169,78427,1,8,0:0:0:0:
256,192,78713,1,12,0:0:0:0:
256,192,78856,1,0,0:0:0:0:
256,192,78999,1,8,0:0:0:0:
256,192,79142,1,0,0:0:0:0:
256,192,79213,1,0,0:0:0:0:
256,192,79284,1,8,0:0:0:0:
256,192,79427,1,0,0:0:0:0:
256,192,79570,1,8,0:0:0:0:
256,192,79713,1,8,0:0:0:0:
256,192,79784,1,0,0:0:0:0:
256,192,79856,1,8,0:0:0:0:
256,192,79999,1,8,0:0:0:0:
256,192,80142,1,8,0:0:0:0:
256,192,80213,1,8,0:0:0:0:
256,192,80284,1,8,0:0:0:0:
256,192,80427,1,0,0:0:0:0:
256,192,80570,1,0,0:0:0:0:
256,192,80713,1,8,0:0:0:0:
256,192,80784,1,8,0:0:0:0:
256,192,80856,1,8,0:0:0:0:
252,196,80927,1,0,0:0:0:0:
256,192,80999,1,8,0:0:0:0:
256,192,81142,1,0,0:0:0:0:
256,192,81284,1,8,0:0:0:0:
256,192,81427,1,0,0:0:0:0:
256,192,81499,1,8,0:0:0:0:
256,192,81570,1,8,0:0:0:0:
264,192,81642,1,8,0:0:0:0:
256,192,81713,1,0,0:0:0:0:
256,192,81856,1,8,0:0:0:0:
256,192,81999,1,8,0:0:0:0:
256,192,82070,1,8,0:0:0:0:
256,192,82142,1,0,0:0:0:0:
256,192,82284,1,8,0:0:0:0:
256,192,82427,1,0,0:0:0:0:
256,192,82499,1,0,0:0:0:0:
256,192,82570,1,8,0:0:0:0:
256,192,82713,1,0,0:0:0:0:
256,192,82856,1,8,0:0:0:0:
256,192,82999,1,8,0:0:0:0:
256,192,83070,1,8,0:0:0:0:
256,192,83142,1,0,0:0:0:0:
256,192,83213,1,0,0:0:0:0:
256,192,83284,1,12,0:0:0:0:
256,192,83570,1,8,0:0:0:0:
256,192,83713,1,0,0:0:0:0:
256,192,83784,1,0,0:0:0:0:
256,192,83856,1,8,0:0:0:0:
256,192,83999,1,8,0:0:0:0:
256,192,84142,1,8,0:0:0:0:
256,192,84284,1,0,0:0:0:0:
256,192,84356,1,0,0:0:0:0:
256,192,84427,1,8,0:0:0:0:
260,177,84499,1,8,0:0:0:0:
256,192,84570,1,0,0:0:0:0:
256,192,84713,1,8,0:0:0:0:
256,192,84856,1,8,0:0:0:0:
256,192,84927,1,0,0:0:0:0:
260,186,84999,1,8,0:0:0:0:
256,192,85070,1,8,0:0:0:0:
256,192,85142,1,0,0:0:0:0:
256,192,85284,1,8,0:0:0:0:
256,192,85427,1,0,0:0:0:0:
256,192,85499,1,0,0:0:0:0:
256,192,85570,1,8,0:0:0:0:
256,192,85856,1,8,0:0:0:0:
256,192,85999,1,8,0:0:0:0:
264,186,86070,1,8,0:0:0:0:
256,192,86142,1,0,0:0:0:0:
256,192,86213,1,0,0:0:0:0:
256,192,86284,1,8,0:0:0:0:
256,192,86427,1,0,0:0:0:0:
256,192,86570,1,8,0:0:0:0:
256,192,86642,1,0,0:0:0:0:
256,192,86713,1,12,0:0:0:0:
256,192,86856,1,4,0:0:0:0:
256,192,87142,1,12,0:0:0:0:
256,192,87427,1,0,0:0:0:0:
256,192,87570,1,0,0:0:0:0:
256,192,87856,1,4,0:0:0:0:
270,189,87999,1,4,0:0:0:0:
258,188,88713,1,0,0:0:0:0:
279,158,88784,1,8,0:0:0:0:
266,184,88856,1,0,0:0:0:0:
266,184,88927,1,0,0:0:0:0:
266,184,88999,1,12,0:0:0:0:
302,148,89142,1,8,0:0:0:0:
302,148,89284,1,0,0:0:0:0:
302,148,89427,1,0,0:0:0:0:
302,148,89713,1,0,0:0:0:0:
302,148,89856,1,8,0:0:0:0:
302,148,89927,1,8,0:0:0:0:
302,148,89999,1,0,0:0:0:0:
302,148,90142,1,4,0:0:0:0:
302,148,90284,1,4,0:0:0:0:
305,142,90999,1,0,0:0:0:0:
314,148,91070,1,8,0:0:0:0:
305,142,91142,1,8,0:0:0:0:
305,142,91213,1,0,0:0:0:0:
305,142,91284,1,12,0:0:0:0:
305,142,91427,1,0,0:0:0:0:
305,142,91570,1,8,0:0:0:0:
305,142,91713,1,0,0:0:0:0:
305,142,91999,1,0,0:0:0:0:
305,142,92142,1,8,0:0:0:0:
305,142,92213,1,8,0:0:0:0:
305,142,92284,1,0,0:0:0:0:
305,142,92356,1,0,0:0:0:0:
305,142,92427,1,12,0:0:0:0:
306,137,92713,1,0,0:0:0:0:
306,137,92999,1,8,0:0:0:0:
306,137,93284,1,0,0:0:0:0:
306,137,93570,1,12,0:0:0:0:
306,137,93856,1,0,0:0:0:0:
306,137,94142,1,8,0:0:0:0:
306,137,94427,1,0,0:0:0:0:
306,132,95856,1,4,0:0:0:0:
306,132,95999,1,8,0:0:0:0:
306,132,96142,1,0,0:0:0:0:
306,132,96284,1,0,0:0:0:0:
306,132,96713,1,0,0:0:0:0:
306,132,96784,1,0,0:0:0:0:
306,132,96856,1,0,0:0:0:0:
306,132,96927,1,0,0:0:0:0:
254,191,96999,5,12,0:0:0:0:
254,191,97142,1,0,0:0:0:0:
254,191,97284,1,8,0:0:0:0:
254,191,97427,1,8,0:0:0:0:
254,191,97499,1,0,0:0:0:0:
254,191,97570,1,8,0:0:0:0:
254,191,97713,1,8,0:0:0:0:
254,191,97856,1,0,0:0:0:0:
254,191,97999,1,0,0:0:0:0:
254,191,98070,1,0,0:0:0:0:
254,191,98142,1,8,0:0:0:0:
254,191,98284,1,8,0:0:0:0:
254,191,98356,1,0,0:0:0:0:
254,191,98427,1,8,0:0:0:0:
254,191,98499,1,0,0:0:0:0:
254,191,98570,1,0,0:0:0:0:
254,191,98713,1,8,0:0:0:0:
254,191,98856,1,0,0:0:0:0:
254,191,98927,1,0,0:0:0:0:
254,191,98999,1,8,0:0:0:0:
254,191,99070,1,8,0:0:0:0:
254,191,99142,1,8,0:0:0:0:
254,191,99213,1,0,0:0:0:0:
254,191,99284,1,8,0:0:0:0:
254,191,99427,1,0,0:0:0:0:
254,191,99570,1,8,0:0:0:0:
254,191,99713,1,8,0:0:0:0:
254,191,99784,1,0,0:0:0:0:
254,191,99927,1,0,0:0:0:0:
254,191,99999,1,8,0:0:0:0:
254,191,100142,1,8,0:0:0:0:
254,191,100284,1,0,0:0:0:0:
254,191,100356,1,0,0:0:0:0:
254,191,100427,1,12,0:0:0:0:
254,191,100570,1,4,0:0:0:0:
254,191,100713,1,12,0:0:0:0:
261,185,100856,1,4,0:0:0:0:
261,185,101142,1,0,0:0:0:0:
262,194,101213,1,8,0:0:0:0:
248,201,101284,1,0,0:0:0:0:
256,198,101356,1,0,0:0:0:0:
256,198,101427,1,8,0:0:0:0:
256,198,101499,1,0,0:0:0:0:
256,198,101570,1,12,0:0:0:0:
257,209,101856,1,8,0:0:0:0:
257,209,101999,1,8,0:0:0:0:
257,209,102070,1,8,0:0:0:0:
257,209,102142,1,0,0:0:0:0:
257,208,102284,1,8,0:0:0:0:
257,208,102427,1,0,0:0:0:0:
257,208,102570,1,8,0:0:0:0:
257,209,102642,1,0,0:0:0:0:
257,209,102713,1,8,0:0:0:0:
280,218,102784,1,0,0:0:0:0:
257,209,102856,1,0,0:0:0:0:
257,209,102999,1,8,0:0:0:0:
257,209,103142,1,0,0:0:0:0:
257,208,103213,1,0,0:0:0:0:
257,208,103284,1,8,0:0:0:0:
257,208,103427,1,0,0:0:0:0:
257,208,103570,1,8,0:0:0:0:
257,209,103642,1,8,0:0:0:0:
257,209,103713,1,0,0:0:0:0:
257,209,103856,1,0,0:0:0:0:
257,209,103999,1,8,0:0:0:0:
257,209,104070,1,8,0:0:0:0:
257,200,104142,1,8,0:0:0:0:
257,208,104284,1,0,0:0:0:0:
257,208,104427,1,8,0:0:0:0:
257,208,104499,1,0,0:0:0:0:
257,196,104570,1,0,0:0:0:0:
257,209,104713,1,0,0:0:0:0:
257,209,104856,1,8,0:0:0:0:
257,209,104927,1,0,0:0:0:0:
254,190,104999,1,8,0:0:0:0:
253,169,105142,1,0,0:0:0:0:
269,216,105213,1,8,0:0:0:0:
268,217,105284,1,8,0:0:0:0:
268,217,105427,1,0,0:0:0:0:
261,166,105499,1,0,0:0:0:0:
268,217,105570,1,8,0:0:0:0:
262,212,105713,1,0,0:0:0:0:
268,217,105856,1,8,0:0:0:0:
262,212,105927,1,8,0:0:0:0:
261,201,105999,1,0,0:0:0:0:
253,206,106070,1,0,0:0:0:0:
253,206,106142,1,12,0:0:0:0:
255,208,106427,1,8,0:0:0:0:
255,208,106570,1,0,0:0:0:0:
255,208,106642,1,0,0:0:0:0:
255,208,106713,1,8,0:0:0:0:
255,208,106856,1,0,0:0:0:0:
255,208,106999,1,8,0:0:0:0:
255,208,107142,1,0,0:0:0:0:
255,208,107213,1,0,0:0:0:0:
255,208,107284,1,0,0:0:0:0:
255,208,107427,1,8,0:0:0:0:
254,224,107499,1,0,0:0:0:0:
255,208,107570,1,8,0:0:0:0:
255,208,107642,1,0,0:0:0:0:
255,208,107713,1,0,0:0:0:0:
255,208,107856,1,8,0:0:0:0:
255,208,107999,1,0,0:0:0:0:
255,208,108070,1,8,0:0:0:0:
255,208,108142,1,8,0:0:0:0:
255,208,108213,1,0,0:0:0:0:
255,208,108284,1,8,0:0:0:0:
255,208,108356,1,0,0:0:0:0:
264,218,108427,1,8,0:0:0:0:
264,218,108570,1,8,0:0:0:0:
269,215,108642,1,8,0:0:0:0:
264,218,108713,1,0,0:0:0:0:
264,218,108856,1,8,0:0:0:0:
264,218,108927,1,8,0:0:0:0:
255,208,109070,1,0,0:0:0:0:
255,208,109142,1,0,0:0:0:0:
255,208,109284,1,8,0:0:0:0:
252,209,109427,1,0,0:0:0:0:
252,209,109499,1,0,0:0:0:0:
252,209,109570,1,12,0:0:0:0:
252,209,109713,1,4,0:0:0:0:
255,208,109856,1,12,0:0:0:0:
252,209,109999,1,12,0:0:0:0:
255,208,110284,1,8,0:0:0:0:
252,209,110356,1,0,0:0:0:0:
252,209,110427,1,8,0:0:0:0:
252,209,110499,1,8,0:0:0:0:
252,209,110570,1,0,0:0:0:0:
252,209,110642,1,0,0:0:0:0:
252,209,110713,1,12,0:0:0:0:
261,226,110999,1,8,0:0:0:0:
261,226,111142,1,8,0:0:0:0:
261,226,111213,1,8,0:0:0:0:
261,226,111284,1,0,0:0:0:0:
261,226,111427,1,8,0:0:0:0:
225,190,111499,1,0,0:0:0:0:
261,226,111570,1,8,0:0:0:0:
257,208,111713,1,0,0:0:0:0:
257,209,111784,1,0,0:0:0:0:
257,209,111856,1,8,0:0:0:0:
257,209,111927,1,8,0:0:0:0:
257,209,111999,1,8,0:0:0:0:
230,230,112070,1,0,0:0:0:0:
257,209,112142,1,8,0:0:0:0:
257,209,112284,1,0,0:0:0:0:
257,208,112356,1,0,0:0:0:0:
257,208,112427,1,8,0:0:0:0:
257,208,112570,1,0,0:0:0:0:
257,208,112713,1,8,0:0:0:0:
257,209,112784,1,8,0:0:0:0:
257,209,112856,1,8,0:0:0:0:
261,226,112999,1,0,0:0:0:0:
265,213,113142,1,8,0:0:0:0:
278,238,113213,1,8,0:0:0:0:
264,214,113284,1,0,0:0:0:0:
264,214,113427,1,0,0:0:0:0:
264,214,113570,1,8,0:0:0:0:
278,238,113642,1,0,0:0:0:0:
264,214,113713,1,8,0:0:0:0:
264,214,113856,1,0,0:0:0:0:
264,214,113999,1,8,0:0:0:0:
278,238,114070,1,8,0:0:0:0:
265,213,114142,1,8,0:0:0:0:
264,214,114284,1,0,0:0:0:0:
267,220,114356,1,8,0:0:0:0:
264,214,114427,1,8,0:0:0:0:
264,214,114570,1,0,0:0:0:0:
278,216,114642,1,0,0:0:0:0:
264,214,114713,1,8,0:0:0:0:
264,214,114856,1,0,0:0:0:0:
264,214,114927,1,0,0:0:0:0:
265,213,114999,1,8,0:0:0:0:
265,213,115070,1,8,0:0:0:0:
264,214,115142,1,0,0:0:0:0:
264,214,115213,1,0,0:0:0:0:
264,214,115284,1,12,0:0:0:0:
264,214,115570,1,8,0:0:0:0:
264,214,115713,1,0,0:0:0:0:
264,214,115856,1,8,0:0:0:0:
265,213,115999,1,0,0:0:0:0:
262,221,116070,1,0,0:0:0:0:
264,214,116142,1,8,0:0:0:0:
264,214,116284,1,0,0:0:0:0:
264,214,116427,1,4,0:0:0:0:
264,214,116570,1,4,0:0:0:0:
268,209,117284,1,0,0:0:0:0:
267,206,117427,1,0,0:0:0:0:
267,206,117570,1,12,0:0:0:0:
268,209,117856,1,0,0:0:0:0:
258,213,117999,1,8,0:0:0:0:
268,209,118284,1,0,0:0:0:0:
266,211,118427,1,0,0:0:0:0:
268,209,118713,1,12,0:0:0:0:
281,202,118856,1,0,0:0:0:0:
268,209,118999,1,0,0:0:0:0:
276,182,119142,1,8,0:0:0:0:
266,211,119427,1,0,0:0:0:0:
264,217,119570,1,8,0:0:0:0:
263,217,119856,1,12,0:0:0:0:
281,213,119999,1,8,0:0:0:0:
263,217,120142,1,0,0:0:0:0:
281,213,120284,1,8,0:0:0:0:
264,217,120570,1,8,0:0:0:0:
263,217,120713,1,0,0:0:0:0:
279,212,120856,1,0,0:0:0:0:
263,217,120999,1,12,0:0:0:0:
279,212,121142,1,8,0:0:0:0:
262,212,121284,1,0,0:0:0:0:
264,217,121427,1,8,0:0:0:0:
263,217,121713,1,8,0:0:0:0:
263,217,121856,1,0,0:0:0:0:
263,217,121927,1,0,0:0:0:0:
263,217,121999,1,0,0:0:0:0:
264,217,122070,1,0,0:0:0:0:
264,217,122142,1,12,0:0:0:0:
263,207,122427,1,8,0:0:0:0:
267,219,122570,1,8,0:0:0:0:
269,221,122642,1,8,0:0:0:0:
267,219,122713,1,0,0:0:0:0:
269,221,122856,1,8,0:0:0:0:
269,221,122927,1,0,0:0:0:0:
269,221,122999,1,8,0:0:0:0:
269,221,123142,1,0,0:0:0:0:
269,221,123284,1,8,0:0:0:0:
269,221,123427,1,8,0:0:0:0:
267,219,123499,1,8,0:0:0:0:
269,221,123570,1,8,0:0:0:0:
267,219,123713,1,0,0:0:0:0:
269,221,123856,1,8,0:0:0:0:
269,221,123927,1,0,0:0:0:0:
269,221,123999,1,8,0:0:0:0:
269,221,124142,1,8,0:0:0:0:
269,223,124284,1,8,0:0:0:0:
269,221,124356,1,8,0:0:0:0:
269,221,124427,1,0,0:0:0:0:
269,221,124570,1,8,0:0:0:0:
276,246,124856,1,0,0:0:0:0:
276,246,124999,1,8,0:0:0:0:
276,243,125284,1,0,0:0:0:0:
276,243,125427,1,8,0:0:0:0:
274,220,125713,1,0,0:0:0:0:
276,246,125856,1,8,0:0:0:0:
276,246,125999,1,0,0:0:0:0:
276,243,126142,1,8,0:0:0:0:
276,243,126284,1,8,0:0:0:0:
276,243,126356,1,8,0:0:0:0:
276,243,126427,1,8,0:0:0:0:
276,246,126570,1,8,0:0:0:0:
256,192,126713,1,12,0:0:0:0:
301,161,126856,1,0,0:0:0:0:
256,192,126999,1,8,0:0:0:0:
256,192,127142,1,0,0:0:0:0:
256,192,127427,1,8,0:0:0:0:
256,192,127713,1,0,0:0:0:0:
256,192,127856,1,8,0:0:0:0:
256,192,127999,1,0,0:0:0:0:
256,192,128142,1,8,0:0:0:0:
256,192,128284,1,8,0:0:0:0:
256,192,128570,1,0,0:0:0:0:
256,192,128642,1,8,0:0:0:0:
256,192,128713,1,8,0:0:0:0:
256,192,128856,1,0,0:0:0:0:
256,192,128999,1,8,0:0:0:0:
256,192,129142,1,0,0:0:0:0:
256,192,129284,1,8,0:0:0:0:
226,185,129427,1,0,0:0:0:0:
256,192,129570,1,8,0:0:0:0:
256,192,129856,1,0,0:0:0:0:
253,184,129999,1,0,0:0:0:0:
256,192,130142,1,12,0:0:0:0:
256,192,130427,1,12,0:0:0:0:
256,192,130570,1,0,0:0:0:0:
256,192,130713,1,0,0:0:0:0:
256,192,130856,1,8,0:0:0:0:
256,192,130927,1,8,0:0:0:0:
256,192,130999,1,0,0:0:0:0:
256,192,131142,1,0,0:0:0:0:
267,191,131213,1,0,0:0:0:0:
256,192,131284,1,12,0:0:0:0:
277,183,131427,1,0,0:0:0:0:
277,183,131570,1,8,0:0:0:0:
277,183,131642,1,8,0:0:0:0:
277,183,131713,1,0,0:0:0:0:
277,183,131856,1,0,0:0:0:0:
277,183,131999,1,8,0:0:0:0:
277,183,132070,1,0,0:0:0:0:
277,183,132142,1,8,0:0:0:0:
277,183,132284,1,8,0:0:0:0:
285,181,132570,1,8,0:0:0:0:
285,181,132713,1,0,0:0:0:0:
285,181,132784,1,0,0:0:0:0:
285,181,132856,1,8,0:0:0:0:
285,181,132927,1,0,0:0:0:0:
285,181,132999,1,8,0:0:0:0:
285,181,133142,1,8,0:0:0:0:
285,181,133213,1,8,0:0:0:0:
285,181,133284,1,0,0:0:0:0:
285,181,133427,1,8,0:0:0:0:
275,180,133713,1,8,0:0:0:0:
275,180,133856,1,0,0:0:0:0:
268,174,133927,1,0,0:0:0:0:
275,180,133999,1,0,0:0:0:0:
275,180,134142,1,8,0:0:0:0:
275,180,134284,1,8,0:0:0:0:
275,180,134356,1,8,0:0:0:0:
275,180,134427,1,0,0:0:0:0:
275,180,134570,1,0,0:0:0:0:
275,180,134713,1,12,0:0:0:0:
275,180,134856,1,0,0:0:0:0:
261,186,134927,1,0,0:0:0:0:
275,180,134999,1,12,0:0:0:0:
275,180,135142,1,8,0:0:0:0:
275,180,135284,1,0,0:0:0:0:
275,180,135427,1,8,0:0:0:0:
275,180,135499,1,0,0:0:0:0:
275,180,135570,1,8,0:0:0:0:
275,180,135713,1,0,0:0:0:0:
275,180,135856,1,12,0:0:0:0:
269,190,136142,1,0,0:0:0:0:
275,180,136284,1,8,0:0:0:0:
275,180,136427,1,0,0:0:0:0:
280,185,136570,1,0,0:0:0:0:
275,180,136713,1,8,0:0:0:0:
273,177,136856,1,0,0:0:0:0:
281,174,136927,1,0,0:0:0:0:
273,177,136999,1,8,0:0:0:0:
279,188,137142,1,0,0:0:0:0:
279,187,137284,1,8,0:0:0:0:
279,187,137427,1,0,0:0:0:0:
281,174,137499,1,0,0:0:0:0:
279,187,137570,1,8,0:0:0:0:
280,173,137642,1,8,0:0:0:0:
279,187,137713,1,0,0:0:0:0:
279,187,137856,1,8,0:0:0:0:
279,187,137999,1,8,0:0:0:0:
279,188,138070,1,8,0:0:0:0:
279,188,138142,1,0,0:0:0:0:
278,180,138213,1,8,0:0:0:0:
279,187,138284,1,0,0:0:0:0:
279,187,138427,1,0,0:0:0:0:
278,180,138499,1,0,0:0:0:0:
279,187,138570,1,8,0:0:0:0:
278,178,138713,1,0,0:0:0:0:
278,178,138856,1,0,0:0:0:0:
278,178,138927,1,8,0:0:0:0:
278,178,138999,1,8,0:0:0:0:
279,187,139070,1,0,0:0:0:0:
278,178,139142,1,8,0:0:0:0:
278,178,139284,1,0,0:0:0:0:
278,178,139427,1,0,0:0:0:0:
278,178,139499,1,0,0:0:0:0:
278,178,139570,1,8,0:0:0:0:
278,178,139713,1,8,0:0:0:0:
281,160,139784,1,0,0:0:0:0:
278,178,139856,1,8,0:0:0:0:
278,178,139999,1,0,0:0:0:0:
278,178,140142,1,8,0:0:0:0:
282,180,140284,1,0,0:0:0:0:
282,180,140356,1,0,0:0:0:0:
278,166,140427,1,8,0:0:0:0:
298,185,140499,1,8,0:0:0:0:
277,166,140570,1,0,0:0:0:0:
277,166,140642,1,0,0:0:0:0:
298,185,140713,1,8,0:0:0:0:
298,185,140784,1,8,0:0:0:0:
298,185,140856,1,0,0:0:0:0:
298,185,140927,1,0,0:0:0:0:
298,181,140999,1,8,0:0:0:0:
298,181,141070,1,8,0:0:0:0:
298,181,141142,1,0,0:0:0:0:
298,181,141213,1,0,0:0:0:0:
298,181,141284,1,8,0:0:0:0:
298,181,141356,1,8,0:0:0:0:
298,181,141427,1,8,0:0:0:0:
298,185,141499,1,0,0:0:0:0:
298,185,141570,1,8,0:0:0:0:
298,185,141642,1,8,0:0:0:0:
298,185,141713,1,8,0:0:0:0:
321,209,141784,1,0,0:0:0:0:
298,185,141856,1,8,0:0:0:0:
298,185,141927,1,8,0:0:0:0:
298,181,141999,1,0,0:0:0:0:
298,181,142070,1,0,0:0:0:0:
298,181,142142,1,8,0:0:0:0:
298,181,142213,1,8,0:0:0:0:
298,181,142284,1,8,0:0:0:0:
298,181,142356,1,8,0:0:0:0:
298,185,142427,1,0,0:0:0:0:
298,185,142499,1,0,0:0:0:0:
298,185,142570,1,0,0:0:0:0:
298,185,142642,1,0,0:0:0:0:
298,185,142713,1,8,0:0:0:0:
298,185,142784,1,8,0:0:0:0:
298,185,142856,1,0,0:0:0:0:
298,181,142927,1,0,0:0:0:0:
298,181,142999,1,8,0:0:0:0:
298,181,143070,1,8,0:0:0:0:
298,181,143142,1,8,0:0:0:0:
298,181,143213,1,0,0:0:0:0:
298,181,143284,1,8,0:0:0:0:
298,185,143356,1,8,0:0:0:0:
298,185,143427,1,0,0:0:0:0:
298,185,143499,1,0,0:0:0:0:
298,185,143570,1,8,0:0:0:0:
298,185,143642,1,8,0:0:0:0:
298,185,143713,1,8,0:0:0:0:
298,185,143784,1,0,0:0:0:0:
298,185,143856,1,8,0:0:0:0:
298,181,143927,1,8,0:0:0:0:
298,181,143999,1,0,0:0:0:0:
298,181,144070,1,0,0:0:0:0:
298,181,144142,1,8,0:0:0:0:
298,181,144213,1,8,0:0:0:0:
298,185,144284,1,8,0:0:0:0:
298,185,144356,1,0,0:0:0:0:
298,185,144427,1,8,0:0:0:0:
298,185,144499,1,8,0:0:0:0:
298,185,144570,1,8,0:0:0:0:
298,185,144642,1,8,0:0:0:0:
298,185,144713,1,0,0:0:0:0:
298,185,144784,1,0,0:0:0:0:
298,181,144856,1,0,0:0:0:0:
272,204,144927,1,0,0:0:0:0:
298,181,144999,1,12,0:0:0:0:
256,192,149284,1,0,0:0:0:0:
256,192,149427,1,0,0:0:0:0:
256,192,149570,1,12,0:0:0:0:
256,192,149856,1,0,0:0:0:0:
256,192,150142,1,0,0:0:0:0:
256,192,150427,1,0,0:0:0:0:
256,192,150713,1,12,0:0:0:0:
256,192,150999,1,0,0:0:0:0:
256,192,151284,1,0,0:0:0:0:
256,192,151570,1,0,0:0:0:0:
256,192,151856,1,12,0:0:0:0:
299,194,152999,1,0,0:0:0:0:
299,194,153142,1,8,0:0:0:0:
299,194,153284,1,0,0:0:0:0:
299,194,153427,1,0,0:0:0:0:
299,194,153570,1,0,0:0:0:0:
299,194,153856,1,8,0:0:0:0:
299,194,153927,1,8,0:0:0:0:
299,194,153999,1,0,0:0:0:0:
299,194,154070,1,0,0:0:0:0:
223,166,154142,1,12,0:0:0:0:
254,191,154427,1,8,0:0:0:0:
254,191,154570,1,8,0:0:0:0:
254,191,154642,1,0,0:0:0:0:
254,191,154713,1,8,0:0:0:0:
254,191,154856,1,8,0:0:0:0:
254,191,154999,1,0,0:0:0:0:
254,191,155142,1,0,0:0:0:0:
254,191,155213,1,0,0:0:0:0:
254,191,155284,1,8,0:0:0:0:
254,191,155427,1,8,0:0:0:0:
254,191,155499,1,0,0:0:0:0:
254,191,155570,1,8,0:0:0:0:
254,191,155642,1,0,0:0:0:0:
254,191,155713,1,0,0:0:0:0:
254,191,155856,1,8,0:0:0:0:
254,191,155999,1,0,0:0:0:0:
254,191,156070,1,0,0:0:0:0:
254,191,156142,1,8,0:0:0:0:
254,191,156213,1,8,0:0:0:0:
254,191,156284,1,8,0:0:0:0:
254,191,156356,1,0,0:0:0:0:
254,191,156427,1,8,0:0:0:0:
254,191,156570,1,0,0:0:0:0:
254,191,156713,1,8,0:0:0:0:
254,191,156856,1,8,0:0:0:0:
254,191,156927,1,0,0:0:0:0:
254,191,157070,1,0,0:0:0:0:
254,191,157142,1,8,0:0:0:0:
254,191,157284,1,8,0:0:0:0:
254,191,157427,1,0,0:0:0:0:
254,191,157499,1,0,0:0:0:0:
254,191,157570,1,12,0:0:0:0:
254,191,157713,1,4,0:0:0:0:
254,191,157856,1,12,0:0:0:0:
261,185,157999,1,4,0:0:0:0:
261,185,158284,1,8,0:0:0:0:
262,194,158356,1,8,0:0:0:0:
248,201,158427,1,0,0:0:0:0:
256,198,158499,1,8,0:0:0:0:
256,198,158570,1,8,0:0:0:0:
256,198,158642,1,0,0:0:0:0:
256,198,158713,1,12,0:0:0:0:
257,209,158999,1,8,0:0:0:0:
257,210,159070,1,0,0:0:0:0:
257,209,159142,1,8,0:0:0:0:
257,209,159213,1,8,0:0:0:0:
257,209,159284,1,0,0:0:0:0:
257,208,159427,1,8,0:0:0:0:
257,214,159499,1,0,0:0:0:0:
257,208,159570,1,8,0:0:0:0:
257,208,159713,1,8,0:0:0:0:
257,209,159784,1,0,0:0:0:0:
257,209,159856,1,8,0:0:0:0:
257,209,159927,1,8,0:0:0:0:
257,209,159999,1,0,0:0:0:0:
257,209,160142,1,8,0:0:0:0:
257,209,160284,1,0,0:0:0:0:
257,208,160356,1,0,0:0:0:0:
257,208,160427,1,8,0:0:0:0:
257,208,160570,1,8,0:0:0:0:
257,208,160713,1,8,0:0:0:0:
257,209,160784,1,8,0:0:0:0:
257,209,160856,1,0,0:0:0:0:
257,209,160999,1,0,0:0:0:0:
257,209,161142,1,8,0:0:0:0:
257,209,161213,1,8,0:0:0:0:
257,200,161284,1,8,0:0:0:0:
257,208,161427,1,0,0:0:0:0:
257,208,161570,1,8,0:0:0:0:
257,208,161642,1,0,0:0:0:0:
257,196,161713,1,0,0:0:0:0:
257,209,161856,1,0,0:0:0:0:
257,209,161999,1,8,0:0:0:0:
257,209,162070,1,0,0:0:0:0:
254,190,162142,1,8,0:0:0:0:
253,169,162284,1,0,0:0:0:0:
269,216,162356,1,8,0:0:0:0:
268,217,162427,1,8,0:0:0:0:
268,217,162570,1,0,0:0:0:0:
261,166,162642,1,0,0:0:0:0:
268,217,162713,1,8,0:0:0:0:
262,212,162856,1,0,0:0:0:0:
268,217,162999,1,8,0:0:0:0:
262,212,163070,1,8,0:0:0:0:
261,201,163142,1,0,0:0:0:0:
253,206,163213,1,0,0:0:0:0:
253,206,163284,1,12,0:0:0:0:
255,208,163570,1,8,0:0:0:0:
255,208,163713,1,0,0:0:0:0:
255,208,163784,1,0,0:0:0:0:
255,208,163856,1,8,0:0:0:0:
255,208,163999,1,0,0:0:0:0:
255,208,164142,1,8,0:0:0:0:
255,208,164284,1,0,0:0:0:0:
255,208,164356,1,0,0:0:0:0:
255,208,164427,1,8,0:0:0:0:
255,208,164570,1,8,0:0:0:0:
254,224,164642,1,0,0:0:0:0:
255,208,164713,1,8,0:0:0:0:
255,208,164784,1,0,0:0:0:0:
255,208,164856,1,0,0:0:0:0:
255,208,164999,1,8,0:0:0:0:
255,208,165142,1,0,0:0:0:0:
255,208,165213,1,8,0:0:0:0:
255,208,165284,1,8,0:0:0:0:
255,208,165356,1,0,0:0:0:0:
255,208,165427,1,0,0:0:0:0:
255,208,165499,1,0,0:0:0:0:
264,218,165570,1,8,0:0:0:0:
264,218,165713,1,8,0:0:0:0:
264,218,165856,1,0,0:0:0:0:
264,218,165999,1,0,0:0:0:0:
264,218,166070,1,8,0:0:0:0:
255,208,166213,1,0,0:0:0:0:
255,208,166284,1,0,0:0:0:0:
255,208,166427,1,0,0:0:0:0:
252,209,166570,1,8,0:0:0:0:
252,209,166642,1,8,0:0:0:0:
252,209,166713,1,4,0:0:0:0:
252,209,166856,1,12,0:0:0:0:
252,209,166999,1,4,0:0:0:0:
255,208,167142,1,12,0:0:0:0:
255,208,167427,1,8,0:0:0:0:
252,209,167499,1,0,0:0:0:0:
252,209,167570,1,8,0:0:0:0:
252,209,167642,1,8,0:0:0:0:
252,209,167713,1,8,0:0:0:0:
252,209,167784,1,0,0:0:0:0:
252,209,167856,1,12,0:0:0:0:
261,226,168142,1,8,0:0:0:0:
261,226,168284,1,8,0:0:0:0:
261,226,168356,1,8,0:0:0:0:
261,226,168427,1,0,0:0:0:0:
261,226,168570,1,8,0:0:0:0:
261,226,168713,1,8,0:0:0:0:
257,208,168856,1,0,0:0:0:0:
257,209,168927,1,8,0:0:0:0:
257,209,168999,1,8,0:0:0:0:
257,209,169070,1,8,0:0:0:0:
257,209,169142,1,0,0:0:0:0:
257,209,169284,1,8,0:0:0:0:
257,209,169427,1,0,0:0:0:0:
257,208,169499,1,0,0:0:0:0:
257,208,169570,1,8,0:0:0:0:
257,208,169713,1,0,0:0:0:0:
257,208,169784,1,0,0:0:0:0:
257,208,169856,1,8,0:0:0:0:
257,209,169927,1,8,0:0:0:0:
257,209,169999,1,0,0:0:0:0:
261,226,170142,1,0,0:0:0:0:
265,213,170284,1,8,0:0:0:0:
278,238,170356,1,8,0:0:0:0:
264,214,170427,1,0,0:0:0:0:
264,214,170570,1,0,0:0:0:0:
264,214,170713,1,8,0:0:0:0:
278,238,170784,1,0,0:0:0:0:
264,214,170856,1,8,0:0:0:0:
264,214,170999,1,0,0:0:0:0:
264,214,171142,1,8,0:0:0:0:
278,238,171213,1,8,0:0:0:0:
265,213,171284,1,8,0:0:0:0:
264,214,171427,1,0,0:0:0:0:
267,220,171499,1,8,0:0:0:0:
264,214,171570,1,8,0:0:0:0:
264,214,171713,1,0,0:0:0:0:
278,216,171784,1,0,0:0:0:0:
264,214,171856,1,8,0:0:0:0:
264,214,171999,1,0,0:0:0:0:
264,214,172070,1,0,0:0:0:0:
265,213,172142,1,8,0:0:0:0:
265,213,172213,1,8,0:0:0:0:
264,214,172284,1,8,0:0:0:0:
264,214,172356,1,0,0:0:0:0:
264,214,172427,1,12,0:0:0:0:
264,214,172713,1,8,0:0:0:0:
264,214,172856,1,0,0:0:0:0:
264,214,172999,1,8,0:0:0:0:
265,213,173142,1,0,0:0:0:0:
253,209,173213,1,0,0:0:0:0:
264,214,173284,1,8,0:0:0:0:
264,214,173427,1,0,0:0:0:0:
264,214,173570,1,12,0:0:0:0:
264,214,173713,1,0,0:0:0:0:
253,209,173784,1,0,0:0:0:0:
262,205,173856,1,0,0:0:0:0:
262,205,173999,1,8,0:0:0:0:
253,209,174070,1,0,0:0:0:0:
262,205,174142,1,8,0:0:0:0:
262,205,174284,1,0,0:0:0:0:
253,209,174356,1,0,0:0:0:0:
262,205,174427,1,8,0:0:0:0:
253,209,174499,1,8,0:0:0:0:
262,205,174570,1,0,0:0:0:0:
253,209,174642,1,0,0:0:0:0:
262,205,174713,1,12,0:0:0:0:
262,205,174999,1,8,0:0:0:0:
262,205,175142,1,0,0:0:0:0:
262,205,175284,1,8,0:0:0:0:
262,205,175427,1,0,0:0:0:0:
264,207,175499,1,8,0:0:0:0:
262,205,175570,1,8,0:0:0:0:
262,205,175713,1,0,0:0:0:0:
262,205,175856,1,12,0:0:0:0:
262,205,175999,1,0,0:0:0:0:
266,208,176070,1,0,0:0:0:0:
262,205,176142,1,8,0:0:0:0:
262,205,176284,1,8,0:0:0:0:
266,208,176356,1,0,0:0:0:0:
262,205,176427,1,8,0:0:0:0:
262,205,176570,1,0,0:0:0:0:
266,208,176642,1,8,0:0:0:0:
266,208,176713,1,0,0:0:0:0:
266,208,176784,1,8,0:0:0:0:
262,205,176856,1,8,0:0:0:0:
266,208,176927,1,0,0:0:0:0:
262,205,176999,1,12,0:0:0:0:
262,205,177284,1,8,0:0:0:0:
262,205,177427,1,0,0:0:0:0:
262,205,177570,1,8,0:0:0:0:
276,212,177642,1,8,0:0:0:0:
262,205,177713,1,0,0:0:0:0:
262,205,177856,1,8,0:0:0:0:
262,205,177927,1,0,0:0:0:0:
262,205,177999,1,8,0:0:0:0:
262,205,178070,1,8,0:0:0:0:
262,205,178142,1,4,0:0:0:0:
262,205,178284,1,4,0:0:0:0:
266,196,178999,1,0,0:0:0:0:
266,196,179070,1,0,0:0:0:0:
266,196,179142,1,0,0:0:0:0:
266,196,179213,1,0,0:0:0:0:
256,192,179284,5,12,0:0:0:0:
256,192,179427,1,0,0:0:0:0:
256,192,179499,1,0,0:0:0:0:
256,192,179570,1,8,0:0:0:0:
256,192,179713,1,8,0:0:0:0:
256,192,179856,1,0,0:0:0:0:
256,192,179999,1,8,0:0:0:0:
256,192,180142,1,0,0:0:0:0:
256,192,180284,1,0,0:0:0:0:
270,192,180356,1,0,0:0:0:0:
256,192,180427,1,8,0:0:0:0:
256,192,180570,1,0,0:0:0:0:
256,192,180713,1,8,0:0:0:0:
256,192,180856,1,8,0:0:0:0:
256,192,181142,1,0,0:0:0:0:
256,192,181213,1,8,0:0:0:0:
256,192,181284,1,0,0:0:0:0:
256,192,181427,1,0,0:0:0:0:
256,192,181570,1,8,0:0:0:0:
256,192,181713,1,0,0:0:0:0:
250,180,181784,1,0,0:0:0:0:
256,192,181856,1,8,0:0:0:0:
266,199,181999,1,0,0:0:0:0:
256,192,182142,1,8,0:0:0:0:
256,192,182284,1,8,0:0:0:0:
250,180,182356,1,0,0:0:0:0:
256,192,182427,1,0,0:0:0:0:
266,199,182570,1,0,0:0:0:0:
256,192,182713,1,12,0:0:0:0:
256,192,182999,1,12,0:0:0:0:
285,200,183142,1,0,0:0:0:0:
256,192,183284,1,0,0:0:0:0:
256,192,183427,1,8,0:0:0:0:
256,192,183499,1,8,0:0:0:0:
256,192,183570,1,0,0:0:0:0:
256,192,183713,1,0,0:0:0:0:
256,192,183856,5,12,0:0:0:0:
272,202,183999,1,0,0:0:0:0:
256,192,184142,1,8,0:0:0:0:
256,192,184284,1,8,0:0:0:0:
256,192,184427,1,0,0:0:0:0:
256,192,184570,1,8,0:0:0:0:
256,192,184642,1,0,0:0:0:0:
256,192,184713,1,0,0:0:0:0:
256,192,184856,1,0,0:0:0:0:
256,192,184999,1,8,0:0:0:0:
256,192,185142,1,0,0:0:0:0:
255,198,185213,1,0,0:0:0:0:
256,192,185284,1,8,0:0:0:0:
256,192,185427,1,8,0:0:0:0:
256,192,185713,1,8,0:0:0:0:
256,192,185784,1,0,0:0:0:0:
256,192,185856,1,8,0:0:0:0:
256,192,185999,1,0,0:0:0:0:
256,192,186142,1,8,0:0:0:0:
256,192,186284,1,0,0:0:0:0:
256,192,186356,1,0,0:0:0:0:
256,192,186427,1,8,0:0:0:0:
256,192,186570,1,0,0:0:0:0:
256,192,186713,1,8,0:0:0:0:
256,192,186856,1,0,0:0:0:0:
265,183,186927,1,0,0:0:0:0:
256,192,186999,1,0,0:0:0:0:
256,192,187142,1,0,0:0:0:0:
256,192,187284,1,12,0:0:0:0:
256,192,187570,5,12,0:0:0:0:
248,189,187713,1,0,0:0:0:0:
256,192,187856,1,0,0:0:0:0:
256,192,187999,1,8,0:0:0:0:
256,192,188070,1,8,0:0:0:0:
256,192,188142,1,0,0:0:0:0:
256,192,188284,1,0,0:0:0:0:
256,192,188427,5,12,0:0:0:0:
256,192,188570,1,0,0:0:0:0:
256,192,188713,1,8,0:0:0:0:
256,192,188856,1,8,0:0:0:0:
256,192,188999,1,0,0:0:0:0:
256,192,189142,1,8,0:0:0:0:
256,192,189284,1,0,0:0:0:0:
256,192,189427,1,0,0:0:0:0:
270,192,189499,1,0,0:0:0:0:
256,192,189570,1,8,0:0:0:0:
256,192,189713,1,0,0:0:0:0:
256,192,189856,1,8,0:0:0:0:
256,192,189999,1,8,0:0:0:0:
256,192,190284,1,0,0:0:0:0:
256,192,190356,1,8,0:0:0:0:
256,192,190427,1,0,0:0:0:0:
256,192,190570,1,8,0:0:0:0:
256,192,190713,1,8,0:0:0:0:
256,192,190856,1,0,0:0:0:0:
256,192,190927,1,0,0:0:0:0:
256,192,190999,1,8,0:0:0:0:
256,198,191142,1,0,0:0:0:0:
256,192,191284,1,0,0:0:0:0:
256,192,191427,1,8,0:0:0:0:
283,182,191499,1,0,0:0:0:0:
256,192,191570,1,0,0:0:0:0:
256,198,191713,1,0,0:0:0:0:
256,192,191856,1,12,0:0:0:0:
256,192,192142,5,12,0:0:0:0:
256,198,192284,1,0,0:0:0:0:
256,192,192427,1,0,0:0:0:0:
256,192,192570,1,8,0:0:0:0:
256,192,192642,1,8,0:0:0:0:
256,192,192713,1,0,0:0:0:0:
256,192,192856,1,0,0:0:0:0:
256,192,192999,5,12,0:0:0:0:
248,198,193142,1,0,0:0:0:0:
292,154,193213,1,0,0:0:0:0:
256,192,193284,5,8,0:0:0:0:
256,192,193427,1,8,0:0:0:0:
264,169,193570,1,0,0:0:0:0:
256,192,193713,1,8,0:0:0:0:
256,192,193856,1,0,0:0:0:0:
256,192,193999,1,0,0:0:0:0:
256,192,194070,1,0,0:0:0:0:
256,192,194142,1,8,0:0:0:0:
256,192,194284,1,8,0:0:0:0:
256,192,194356,1,8,0:0:0:0:
256,192,194427,1,0,0:0:0:0:
256,192,194570,1,8,0:0:0:0:
256,192,194856,1,8,0:0:0:0:
256,192,194927,1,0,0:0:0:0:
256,192,194999,1,8,0:0:0:0:
256,192,195142,1,0,0:0:0:0:
256,192,195284,1,8,0:0:0:0:
256,192,195427,1,0,0:0:0:0:
283,165,195499,1,0,0:0:0:0:
256,192,195570,1,8,0:0:0:0:
256,192,195713,1,0,0:0:0:0:
256,192,195856,1,8,0:0:0:0:
256,192,195999,1,8,0:0:0:0:
275,165,196070,1,0,0:0:0:0:
256,192,196142,1,0,0:0:0:0:
256,192,196284,1,0,0:0:0:0:
256,192,196427,1,12,0:0:0:0:
256,192,196713,1,12,0:0:0:0:
248,189,196856,1,0,0:0:0:0:
256,192,196999,1,0,0:0:0:0:
256,192,197142,1,8,0:0:0:0:
256,192,197213,1,8,0:0:0:0:
256,192,197284,1,0,0:0:0:0:
264,169,197427,1,0,0:0:0:0:
264,169,197570,1,12,0:0:0:0:
264,169,197856,1,12,0:0:0:0:
264,169,197999,1,8,0:0:0:0:
264,169,198070,1,0,0:0:0:0:
264,169,198142,1,8,0:0:0:0:
250,186,198213,1,0,0:0:0:0:
264,169,198284,1,8,0:0:0:0:
272,165,198356,1,8,0:0:0:0:
264,169,198427,1,8,0:0:0:0:
252,142,198499,1,0,0:0:0:0:
264,169,198570,1,8,0:0:0:0:
