osu file format v14

[General]
AudioFilename: audio.mp3
AudioLeadIn: 0
PreviewTime: 154171
Countdown: 0
SampleSet: Soft
StackLeniency: 0.4
Mode: 0
LetterboxInBreaks: 0
WidescreenStoryboard: 1

[Editor]
DistanceSpacing: 1.1
BeatDivisor: 4
GridSize: 8
TimelineZoom: 2.1

[Metadata]
Title:Manemane Psychotropic
TitleUnicode:マネマネサイコトロピック
Artist:Kairiki bear feat. GUMI
ArtistUnicode:かいりきベア feat. GUMI
Creator:Livermorium
Version:Normal
Source:
Tags:vocaloid Kairikibear megpoid jrock j-rock rock japanese imitation
BeatmapID:2737280
BeatmapSetID:1315151

[Difficulty]
HPDrainRate:4
CircleSize:3
OverallDifficulty:4.5
ApproachRate:6
SliderMultiplier:1.2
SliderTickRate:1

[Events]
//Background and Video events
0,0,"gumi.jpg",0,0
//Break Periods
2,146514,149835
//Storyboard Layer 0 (Background)
//Storyboard Layer 1 (Fail)
//Storyboard Layer 2 (Pass)
//Storyboard Layer 3 (Foreground)
//Storyboard Layer 4 (Overlay)
//Storyboard Sound Samples

[TimingPoints]
11457,285.714285714286,4,2,1,90,1,0
20599,-105.263157894737,4,2,1,75,0,0
22314,-105.263157894737,4,2,3,75,0,0
22599,-105.263157894737,4,2,1,75,0,0
24028,-105.263157894737,4,2,3,75,0,0
24171,-105.263157894737,4,2,1,75,0,0
26314,-105.263157894737,4,2,3,75,0,0
26599,-105.263157894737,4,2,3,75,0,0
26742,-105.263157894737,4,2,1,75,0,0
38885,-111.111111111111,4,2,1,75,0,0
48028,-100,4,2,1,90,0,1
63457,-100,4,2,3,90,0,1
63599,-100,4,2,1,90,0,1
66314,-100,4,2,20,90,0,1
67457,-100,4,2,1,90,0,0
70171,-100,4,2,3,90,0,0
70314,-100,4,2,1,90,0,0
70885,-125,4,2,1,65,0,0
75385,-125,4,2,1,5,0,0
75457,-125,4,2,1,65,0,0
77742,-125,4,2,1,75,0,0
78885,-125,4,2,1,75,0,0
79742,-125,4,2,1,75,0,0
80028,-105.263157894737,4,2,1,75,0,0
88028,-105.263157894737,4,2,3,75,0,0
88171,-105.263157894737,4,2,1,75,0,0
90314,-105.263157894737,4,2,3,75,0,0
90457,-105.263157894737,4,2,1,75,0,0
93742,-117.647058823529,4,2,1,60,0,0
96028,-117.647058823529,4,2,1,30,0,0
97171,-100,4,2,1,75,0,0
98314,-95.2380952380952,4,2,1,90,0,1
113742,-95.2380952380952,4,2,3,90,0,1
113885,-95.2380952380952,4,2,1,90,0,1
116599,-95.2380952380952,4,2,20,90,0,1
117742,-100,4,2,1,90,0,0
118885,-111.111111111111,4,2,1,60,0,0
128028,-100,4,2,1,75,0,0
137171,-111.111111111111,4,2,1,75,0,0
141742,-90.9090909090909,4,2,1,75,0,1
142885,-90.9090909090909,4,2,1,85,0,1
143457,-90.9090909090909,4,2,1,75,0,1
146314,-90.9090909090909,4,2,1,75,0,0
150885,-133.333333333333,4,2,1,50,0,0
152028,-133.333333333333,4,2,3,50,0,0
152171,-133.333333333333,4,2,1,50,0,0
154314,-90.9090909090909,4,2,1,75,0,0
155457,-90.9090909090909,4,2,1,90,0,1
173742,-90.9090909090909,4,2,20,90,0,1
179457,-100,4,2,1,90,0,0
180599,-100,4,2,1,75,0,0
200314,-100,4,2,1,70,0,0
200885,-100,4,2,1,65,0,0
201457,-100,4,2,1,50,0,0
202028,-100,4,2,1,35,0,0
202599,-100,4,2,1,20,0,0
202814,-100,4,2,1,10,0,0

[Colours]
Combo1 : 209,156,216
Combo2 : 107,170,239
Combo3 : 227,143,81
Combo4 : 173,219,98

[HitObjects]
256,192,11171,5,0,1:0:0:0:
311,113,11456,6,0,P|367:93|430:117,1,120,6|2,3:2|1:2,0:0:0:0:
428,158,11885,2,0,P|408:214|432:277,1,120,2|2,0:2|0:2,0:0:0:0:
355,334,12457,1,2,0:2:0:0:
355,334,12599,2,0,L|292:327,1,60,2|2,3:2|0:2,0:0:0:0:
260,296,12885,2,0,L|195:299,1,60,2|2,1:2|0:2,0:0:0:0:
132,228,13314,1,2,0:2:0:0:
132,228,13457,2,0,P|125:194|135:165,1,60,2|2,1:2|0:2,0:0:0:0:
163,136,13742,6,0,B|201:140|201:140|243:122|243:122|281:128,2,120,2|2|2,3:2|1:2|3:2,0:0:0:0:
134,97,14457,1,2,0:2:0:0:
134,97,14599,1,2,1:2:0:0:
205,32,14885,2,0,B|243:28|243:28|285:46|285:46|323:40,1,120,6|2,3:2|1:2,0:0:0:0:
405,84,15457,2,0,L|469:76,2,60,2|2|2,1:2|0:2|1:2,0:0:0:0:
336,152,16028,6,0,P|316:208|340:271,1,120,6|2,3:2|1:2,0:0:0:0:
293,289,16457,2,0,P|237:269|174:293,1,120,2|2,0:2|0:2,0:0:0:0:
108,224,17028,1,2,0:2:0:0:
108,224,17171,2,0,L|101:162,1,60,2|2,3:2|0:2,0:0:0:0:
131,126,17457,2,0,L|138:64,1,60,2|2,1:2|0:2,0:0:0:0:
222,21,17885,1,2,0:2:0:0:
222,21,18028,2,0,P|255:13|285:25,1,60,2|2,1:2|0:2,0:0:0:0:
312,55,18314,6,0,L|304:178,2,120,2|2|2,3:2|1:2|3:2,0:0:0:0:
401,19,19171,2,0,L|474:20,1,60,2|2,1:2|0:2,0:0:0:0:
491,57,19457,2,0,L|483:180,1,120,6|2,3:2|1:2,0:0:0:0:
442,261,20028,2,0,L|383:268,1,60,2|2,1:2|0:2,0:0:0:0:
334,276,20314,1,2,1:2:0:0:
262,219,20599,6,0,P|286:167|279:108,2,113.999996955872,6|2|2,3:2|1:2|3:2,0:0:0:0:
227,249,21314,1,2,0:2:0:0:
227,249,21457,1,2,1:2:0:0:
143,213,21742,2,0,L|82:220,2,56.9999984779358,2|2|2,3:2|0:2|1:2,0:0:0:0:
149,121,22314,6,0,L|18:118,2,113.999996955872,4|2|2,3:2|1:2|3:2,0:0:0:0:
185,93,23028,1,2,0:2:0:0:
185,93,23171,2,0,P|221:85|249:96,1,56.9999984779358,2|2,1:2|0:2,0:0:0:0:
277,115,23457,2,0,P|256:169|268:227,1,113.999996955872,2|2,3:2|1:2,0:0:0:0:
335,281,24028,2,0,L|396:273,1,56.9999984779358,8|2,3:1|0:2,0:0:0:0:
424,239,24314,2,0,L|416:176,1,56.9999984779358,2|2,1:2|0:2,0:0:0:0:
440,143,24599,2,0,L|456:23,1,113.999996955872,2|2,3:2|1:2,0:0:0:0:
363,36,25171,6,0,P|333:40|297:30,2,56.9999984779358,6|2|2,3:2|0:2|1:2,0:0:0:0:
455,30,25742,2,0,P|485:26|521:36,2,56.9999984779358,2|2|2,3:2|0:0|1:2,0:0:0:0:
444,77,26171,1,2,0:2:0:0:
444,77,26314,2,0,P|428:136|443:186,1,113.999996955872,4|2,3:2|1:2,0:0:0:0:
407,212,26742,1,2,0:2:0:0:
407,212,26885,2,0,L|341:218,1,56.9999984779358,2|2,3:2|0:2,0:0:0:0:
293,290,27314,1,2,0:2:0:0:
293,290,27457,6,0,L|177:281,1,113.999996955872,6|2,3:2|1:2,0:0:0:0:
149,254,27885,1,2,0:2:0:0:
149,254,28028,1,2,3:2:0:0:
180,168,28314,2,0,L|189:102,1,56.9999984779358,2|2,1:2|0:2,0:0:0:0:
161,74,28599,6,0,L|38:64,2,113.999996955872,2|2|2,3:1|1:2|1:2,0:0:0:0:
197,45,29314,1,10,3:3:0:0:
197,45,29457,2,0,P|225:38|255:44,1,56.9999984779358,10|0,3:3|3:2,0:0:0:0:
293,62,29742,6,0,L|286:119,2,56.9999984779358,6|2|2,3:2|0:2|1:2,0:0:0:0:
384,56,30314,2,0,L|377:-1,2,56.9999984779358,2|2|2,3:2|0:2|1:2,0:0:0:0:
383,147,30885,2,0,L|376:204,1,56.9999984779358,2|2,3:2|0:2,0:0:0:0:
343,236,31171,1,2,1:2:0:0:
343,236,31314,2,0,L|228:222,1,113.999996955872,2|0,0:2|0:0,0:0:0:0:
184,213,31742,1,2,1:2:0:0:
113,270,32028,6,0,P|106:303|111:328,1,56.9999984779358,2|2,3:2|0:2,0:0:0:0:
137,362,32314,2,0,P|166:370|198:363,1,56.9999984779358,2|2,1:2|0:2,0:0:0:0:
234,349,32599,2,0,P|273:340|355:358,1,113.999996955872,2|2,3:2|1:2,0:0:0:0:
409,287,33171,2,0,L|416:227,1,56.9999984779358,2|2,3:2|0:2,0:0:0:0:
395,189,33457,1,2,1:2:0:0:
395,189,33599,2,0,L|386:75,1,113.999996955872,2|0,0:2|0:0,0:0:0:0:
380,29,34028,1,2,1:2:0:0:
289,13,34314,6,0,L|172:21,1,113.999996955872,6|2,3:2|1:2,0:0:0:0:
83,20,34885,2,0,P|66:45|61:78,1,56.9999984779358,2|2,3:2|0:2,0:0:0:0:
58,116,35171,1,2,1:2:0:0:
137,168,35457,6,0,L|200:162,1,56.9999984779358,2|2,3:2|0:2,0:0:0:0:
227,193,35742,2,0,L|290:199,1,56.9999984779358,2|2,1:2|0:2,0:0:0:0:
321,172,36028,2,0,P|317:138|326:111,2,56.9999984779358,2|2|2,3:2|0:2|1:2,0:0:0:0:
391,230,36599,6,0,P|414:283|406:337,1,113.999996955872,6|2,3:2|1:2,0:0:0:0:
360,344,37028,2,0,P|307:321|253:329,1,113.999996955872,2|2,0:2|0:2,0:0:0:0:
173,284,37599,1,2,0:2:0:0:
173,284,37742,2,0,L|181:221,2,56.9999984779358,6|2|2,3:2|3:2|1:2,0:0:0:0:
138,314,38171,1,2,3:2:0:0:
3,337,38599,2,0,P|19:308|19:277,1,56.9999984779358,0|0,1:2|1:0,0:0:0:0:
30,239,38885,6,0,P|11:187|27:137,1,107.999996704102,6|0,3:2|0:0,0:0:0:0:
95,86,39457,2,0,L|91:30,2,53.9999983520508,10|2|10,1:2|0:2|3:2,0:0:0:0:
125,116,39885,1,2,3:2:0:0:
125,116,40028,6,0,P|153:145|224:148,1,107.999996704102,10|10,3:2|3:2,0:0:0:0:
260,145,40457,2,0,P|289:173|292:244,1,107.999996704102,2|0,0:2|0:0,0:0:0:0:
273,275,40885,1,10,3:2:0:0:
341,327,41171,6,0,L|456:311,1,107.999996704102,14|10,3:2|3:2,0:0:0:0:
476,279,41599,1,2,0:2:0:0:
476,279,41742,2,0,L|472:162,1,107.999996704102,10|10,1:2|3:2,0:0:0:0:
438,90,42314,6,0,L|378:82,1,53.9999983520508,10|0,0:2|1:0,0:0:0:0:
345,100,42599,1,10,3:2:0:0:
345,100,42742,2,0,P|261:112|191:79,1,161.999995056153,2|10,0:2|1:2,0:0:0:0:
135,148,43457,6,0,L|140:259,2,107.999996704102,14|10|10,3:2|3:2|1:2,0:0:0:0:
101,120,44171,1,2,0:2:0:0:
101,120,44314,1,10,3:2:0:0:
129,38,44599,6,0,L|192:25,1,53.9999983520508,10|2,3:2|1:2,0:0:0:0:
221,44,44885,1,10,3:2:0:0:
221,44,45028,2,0,P|268:66|331:50,1,107.999996704102,2|0,0:2|0:0,0:0:0:0:
358,32,45457,2,0,L|421:41,1,53.9999983520508,10|2,1:2|1:2,0:0:0:0:
454,46,45742,5,4,0:2:0:0:
314,239,46885,6,0,L|248:230,1,53.9999983520508,4|4,3:2|1:2,0:0:0:0:
217,225,47171,1,4,1:2:0:0:
217,225,47314,1,4,3:2:0:0:
11,123,48028,6,0,P|65:98|124:109,1,120,6|2,3:2|1:2,0:0:0:0:
120,156,48457,2,0,P|110:217|140:269,1,120,2|2,0:2|0:2,0:0:0:0:
235,277,49028,1,2,0:2:0:0:
235,277,49171,6,0,P|249:249|249:217,2,60,2|2|2,3:2|0:2|1:2,0:0:0:0:
263,315,49599,1,2,0:2:0:0:
263,315,49742,2,0,L|400:304,1,120,2|2,3:2|1:2,0:0:0:0:
461,249,50314,5,2,3:2:0:0:
398,177,50599,1,2,1:2:0:0:
398,177,50742,2,0,L|406:57,1,120,2|2,0:2|0:2,0:0:0:0:
310,66,51314,1,2,0:2:0:0:
310,66,51457,6,0,L|247:74,1,60,2|2,1:2|1:2,0:0:0:0:
208,49,51742,2,0,L|145:41,1,60,2|2,1:2|1:2,0:0:0:0:
92,119,52171,1,2,1:2:0:0:
92,119,52314,2,0,L|98:180,1,60,0|2,1:2|3:2,0:0:0:0:
120,221,52599,6,0,P|179:239|237:213,1,120,6|2,3:2|1:2,0:0:0:0:
279,214,53028,2,0,P|299:269|281:325,1,120,2|2,0:2|0:2,0:0:0:0:
194,364,53599,1,2,0:2:0:0:
194,364,53742,6,0,L|125:373,1,60,2|2,3:2|0:2,0:0:0:0:
90,351,54028,2,0,P|78:319|84:291,1,60,2|2,1:2|0:2,0:0:0:0:
101,249,54314,2,0,P|110:208|86:132,1,120,2|2,3:2|1:2,0:0:0:0:
140,54,54885,6,0,L|203:43,1,60,2|10,3:2|0:2,0:0:0:0:
284,87,55314,2,0,L|347:76,1,60,2|10,0:2|3:2,0:0:0:0:
434,107,55742,1,2,1:2:0:0:
434,107,55885,1,10,0:2:0:0:
479,191,56171,5,2,0:2:0:0:
479,191,56314,2,0,L|476:253,1,60,2|2,1:2|0:2,0:0:0:0:
444,287,56599,2,0,P|406:292|379:281,1,60,2|0,1:2|3:0,0:0:0:0:
340,270,56885,2,0,P|311:262|282:268,1,60,10|8,3:3|3:3,0:0:0:0:
239,290,57171,6,0,P|221:224|242:174,1,120,6|2,3:2|1:2,0:0:0:0:
250,131,57599,2,0,P|193:112|137:131,1,120,2|2,0:2|0:2,0:0:0:0:
47,96,58171,1,2,0:2:0:0:
47,96,58314,6,0,L|39:36,2,60,2|2|2,3:2|0:2|1:2,0:0:0:0:
19,135,58742,1,2,0:2:0:0:
19,135,58885,2,0,L|8:267,1,120,2|2,3:2|1:2,0:0:0:0:
96,295,59457,6,0,L|90:355,2,60,2|2|2,3:2|0:2|1:2,0:0:0:0:
126,257,59885,2,0,P|176:238|244:272,1,120,2|2,0:2|0:2,0:0:0:0:
330,278,60457,1,2,0:2:0:0:
330,278,60599,2,0,L|335:217,1,60,2|2,1:2|1:2,0:0:0:0:
370,185,60885,2,0,L|439:178,1,60,2|2,1:2|1:2,0:0:0:0:
487,101,61314,1,2,1:2:0:0:
487,101,61457,2,0,L|494:39,1,60,0|0,1:2|1:0,0:0:0:0:
456,11,61742,6,0,P|398:32|339:16,1,120,6|2,3:2|1:2,0:0:0:0:
303,46,62171,2,0,P|289:103|310:158,1,120,2|2,0:2|0:2,0:0:0:0:
282,250,62742,1,2,0:2:0:0:
282,250,62885,6,0,L|161:238,1,120,2|2,3:2|1:2,0:0:0:0:
106,159,63457,2,0,L|94:38,1,120,4|2,3:2|1:2,0:0:0:0:
189,27,64028,6,0,L|249:38,1,60,2|10,3:2|0:2,0:0:0:0:
312,109,64457,2,0,L|252:120,1,60,2|10,0:2|3:2,0:0:0:0:
184,187,64885,1,2,1:2:0:0:
184,187,65028,1,10,0:2:0:0:
242,270,65314,5,2,0:2:0:0:
242,270,65457,2,0,L|302:281,1,60,2|2,1:2|0:2,0:0:0:0:
330,318,65742,2,0,L|393:307,1,60,2|0,1:2|3:0,0:0:0:0:
416,267,66028,2,0,P|409:236|419:199,1,60,10|8,3:3|3:3,0:0:0:0:
436,165,66314,6,0,P|451:113|432:49,1,120,6|6,1:2|1:2,0:0:0:0:
388,68,66742,2,0,P|336:83|272:64,1,120,0|0,3:2|3:2,0:0:0:0:
234,37,67171,1,6,1:2:0:0:
176,113,67457,5,6,1:2:0:0:
176,113,67599,1,6,1:2:0:0:
259,313,68599,5,6,1:2:0:0:
259,313,68742,2,0,L|135:305,1,120,0|0,1:0|1:0,0:0:0:0:
84,225,69314,1,0,3:0:0:0:
84,225,69457,2,0,L|91:162,1,60,8|8,1:3|1:3,0:0:0:0:
123,130,69742,6,0,P|155:137|186:131,2,60,4|0|0,3:2|3:0|1:0,0:0:0:0:
87,97,70171,2,0,P|81:55|140:1,1,120,4|0,3:2|3:0,0:0:0:0:
179,2,70599,1,0,1:2:0:0:
257,46,70885,6,0,L|353:39,2,96,6|2|2,3:2|3:2|3:2,0:0:0:0:
234,84,71599,1,2,0:2:0:0:
234,84,71742,1,2,3:2:0:0:
282,155,72028,2,0,L|277:212,1,48,2|2,3:2|0:2,0:0:0:0:
300,240,72314,2,0,P|355:253|396:245,2,96,2|2|2,3:2|3:2|3:2,0:0:0:0:
234,296,73171,6,0,B|203:300|203:300|174:290|174:290|136:296,2,96,10|2|2,3:2|3:2|3:2,0:0:0:0:
267,323,73885,1,2,0:2:0:0:
267,323,74028,1,2,3:2:0:0:
352,311,74314,2,0,L|350:363,2,48,2|2|2,3:2|0:2|3:2,0:0:0:0:
379,277,74742,2,0,P|409:222|391:128,1,144,2|10,0:2|3:3,0:0:0:0:
354,69,75457,6,0,L|358:13,2,48,2|2|2,3:2|0:2|3:2,0:0:0:0:
269,89,76028,2,0,L|273:33,2,48,2|2|2,3:2|0:2|3:2,0:0:0:0:
235,168,76599,2,0,L|231:215,2,48,2|2|10,3:2|0:2|3:3,0:0:0:0:
150,188,77171,2,0,L|146:235,2,48,2|2|2,3:2|0:2|3:2,0:0:0:0:
128,150,77599,1,2,0:2:0:0:
128,150,77742,6,0,P|78:140|36:152,1,96,6|2,3:2|3:2,0:0:0:0:
25,238,78314,2,0,L|20:293,1,48,2|2,3:2|0:2,0:0:0:0:
39,324,78599,2,0,L|87:335,1,48,0|2,1:2|0:2,0:0:0:0:
125,316,78885,5,6,3:2:0:0:
312,262,79742,1,2,1:2:0:0:
257,187,80028,6,0,L|251:127,1,56.9999984779358,6|2,3:2|0:2,0:0:0:0:
246,84,80314,1,2,1:2:0:0:
321,32,80599,2,0,P|349:35|377:27,1,56.9999984779358,2|2,3:2|0:2,0:0:0:0:
420,38,80885,2,0,P|428:65|423:95,1,56.9999984779358,2|2,1:2|0:2,0:0:0:0:
408,136,81171,6,0,P|391:200|409:257,1,113.999996955872,2|2,3:2|1:2,0:0:0:0:
424,284,81599,2,0,P|369:308|310:299,1,113.999996955872,2|0,0:2|0:0,0:0:0:0:
275,281,82028,1,2,1:2:0:0:
195,326,82314,6,0,L|133:320,1,56.9999984779358,2|2,3:2|0:2,0:0:0:0:
93,314,82599,1,2,1:2:0:0:
49,233,82885,2,0,P|40:201|48:167,1,56.9999984779358,2|2,3:2|0:2,0:0:0:0:
64,137,83171,2,0,P|73:105|65:71,1,56.9999984779358,2|2,1:2|0:2,0:0:0:0:
51,39,83457,6,0,P|108:49|164:22,1,113.999996955872,2|2,3:2|1:2,0:0:0:0:
201,39,83885,2,0,P|191:96|218:152,1,113.999996955872,2|0,0:2|0:0,0:0:0:0:
246,177,84314,1,2,1:2:0:0:
335,190,84599,6,0,L|403:181,2,56.9999984779358,6|2|2,3:2|0:2|1:2,0:0:0:0:
332,281,85171,2,0,L|264:272,1,56.9999984779358,2|2,3:2|0:2,0:0:0:0:
230,266,85457,1,2,1:2:0:0:
140,250,85742,6,0,L|72:259,2,56.9999984779358,2|2|2,3:2|0:2|1:2,0:0:0:0:
143,159,86314,2,0,L|211:168,1,56.9999984779358,2|2,3:2|0:2,0:0:0:0:
245,174,86599,1,2,1:2:0:0:
336,181,86885,5,2,3:2:0:0:
381,101,87171,1,2,1:2:0:0:
313,37,87457,2,0,L|192:32,1,113.999996955872,2|2,3:2|1:2,0:0:0:0:
113,63,88028,6,0,L|106:7,2,56.9999984779358,4|2|0,3:3|3:2|1:2,0:0:0:0:
88,102,88457,2,0,P|73:162|91:212,1,113.999996955872,2|0,3:2|3:0,0:0:0:0:
122,241,88885,1,0,1:2:0:0:
213,234,89171,5,4,1:2:0:0:
213,234,89314,1,0,1:2:0:0:
315,362,90028,2,0,P|351:356|371:334,1,56.9999984779358,0|0,1:2|3:2,0:0:0:0:
392,305,90314,2,0,L|460:310,2,56.9999984779358,4|0|0,1:3|3:0|3:0,0:0:0:0:
363,269,90742,2,0,P|352:234|376:152,1,113.999996955872,0|0,1:0|3:0,0:0:0:0:
403,129,91171,1,0,1:0:0:0:
368,45,91457,5,4,1:2:0:0:
368,45,91599,1,0,1:2:0:0:
173,23,92314,2,0,L|111:24,1,56.9999984779358,0|2,1:2|3:2,0:0:0:0:
87,59,92599,2,0,L|78:119,1,56.9999984779358,4|0,1:2|3:0,0:0:0:0:
108,154,92885,1,0,3:0:0:0:
108,154,93028,2,0,P|164:167|218:138,1,113.999996955872,0|0,1:0|3:0,0:0:0:0:
255,160,93457,1,0,1:0:0:0:
260,253,93742,6,0,L|267:362,1,102.000001945496,6|2,3:2|3:2,0:0:0:0:
357,367,94314,2,0,L|466:360,1,102.000001945496,6|2,3:3|3:0,0:0:0:0:
493,275,94885,2,0,L|499:173,1,102.000001945496,6|2,3:2|3:2,0:0:0:0:
424,119,95457,2,0,L|323:126,1,102.000001945496,4|2,3:3|1:2,0:0:0:0:
245,75,96028,5,2,0:0:0:0:
83,314,97171,6,0,L|146:307,1,60,4|4,3:2|1:2,0:0:0:0:
196,301,97457,1,4,1:2:0:0:
196,301,97599,1,4,3:2:0:0:
340,362,98028,2,0,P|362:340|379:311,1,60,0|0,1:0|1:0,0:0:0:0:
395,280,98314,6,0,P|412:213|399:159,1,125.999996154785,6|2,3:2|1:2,0:0:0:0:
374,123,98742,1,2,0:2:0:0:
286,149,99028,2,0,P|241:150|185:97,1,125.999996154785,2|2,0:2|0:2,0:0:0:0:
169,56,99457,6,0,L|105:48,1,62.9999980773926,2|2,3:2|0:2,0:0:0:0:
67,70,99742,2,0,P|60:98|67:130,1,62.9999980773926,2|2,1:2|0:2,0:0:0:0:
87,168,100028,2,0,B|112:222|57:228|86:290,1,125.999996154785,2|2,3:2|1:2,0:0:0:0:
157,342,100599,5,2,3:2:0:0:
248,317,100885,1,2,1:2:0:0:
248,317,101028,2,0,L|262:186,1,125.999996154785,2|2,0:2|0:2,0:0:0:0:
311,120,101599,1,2,0:2:0:0:
311,120,101742,6,0,L|375:112,1,62.9999980773926,2|2,1:2|1:2,0:0:0:0:
410,136,102028,1,2,1:2:0:0:
410,136,102171,1,2,1:2:0:0:
380,224,102457,1,2,1:2:0:0:
380,224,102599,2,0,L|385:286,1,62.9999980773926,0|2,1:2|3:2,0:0:0:0:
359,323,102885,6,0,P|313:339|246:305,1,125.999996154785,6|2,3:2|1:2,0:0:0:0:
216,276,103314,1,2,0:2:0:0:
149,218,103599,2,0,P|101:246|36:230,1,125.999996154785,2|2,0:2|0:2,0:0:0:0:
7,195,104028,1,2,3:2:0:0:
25,108,104314,2,0,P|44:79|71:64,1,62.9999980773926,2|2,1:2|0:2,0:0:0:0:
111,56,104599,2,0,P|181:62|247:34,1,125.999996154785,2|2,3:2|1:2,0:0:0:0:
334,35,105171,6,0,L|321:100,1,62.9999980773926,2|10,3:2|0:2,0:0:0:0:
266,167,105599,2,0,L|253:232,1,62.9999980773926,2|10,0:2|3:2,0:0:0:0:
331,282,106028,1,2,1:2:0:0:
331,282,106171,1,10,0:2:0:0:
394,220,106457,1,2,0:2:0:0:
394,220,106599,2,0,L|385:158,1,62.9999980773926,2|2,1:2|0:2,0:0:0:0:
350,128,106885,2,0,P|320:138|290:127,1,62.9999980773926,2|0,1:2|3:0,0:0:0:0:
251,108,107171,2,0,P|223:99|193:112,1,62.9999980773926,10|8,3:3|3:3,0:0:0:0:
158,139,107457,6,0,L|169:266,1,125.999996154785,6|2,3:2|1:2,0:0:0:0:
146,300,107885,1,2,0:2:0:0:
206,367,108171,2,0,L|331:349,1,125.999996154785,2|2,0:2|0:2,0:0:0:0:
360,316,108599,6,0,P|370:289|362:256,1,62.9999980773926,2|2,3:2|0:0,0:0:0:0:
319,239,108885,2,0,P|289:246|260:235,1,62.9999980773926,2|2,1:2|0:2,0:0:0:0:
227,205,109171,2,0,P|250:148|238:82,1,125.999996154785,2|2,3:2|1:2,0:0:0:0:
324,46,109742,6,0,L|391:49,1,62.9999980773926,2|2,3:2|0:2,0:0:0:0:
421,77,110028,1,2,1:2:0:0:
421,77,110171,2,0,P|399:136|420:191,1,125.999996154785,2|2,0:2|0:2,0:0:0:0:
467,270,110742,1,2,0:2:0:0:
467,270,110885,2,0,L|399:278,1,62.9999980773926,2|2,1:2|1:2,0:0:0:0:
362,265,111171,1,2,1:2:0:0:
362,265,111314,1,2,1:2:0:0:
276,304,111599,1,2,1:2:0:0:
276,304,111742,2,0,P|239:312|214:305,1,62.9999980773926,0|2,1:2|3:2,0:0:0:0:
171,298,112028,6,0,P|151:244|167:173,1,125.999996154785,6|2,3:2|1:2,0:0:0:0:
189,141,112457,1,2,0:2:0:0:
276,139,112742,1,2,0:2:0:0:
276,139,112885,1,2,1:2:0:0:
329,208,113171,6,0,L|316:274,2,62.9999980773926,2|2|2,3:2|0:2|1:2,0:0:0:0:
407,171,113742,2,0,P|424:113|404:50,1,125.999996154785,4|2,3:2|1:2,0:0:0:0:
309,48,114314,6,0,L|242:37,1,62.9999980773926,2|10,3:2|0:2,0:0:0:0:
194,121,114742,2,0,L|128:108,1,62.9999980773926,2|10,0:2|3:2,0:0:0:0:
62,177,115171,1,2,1:2:0:0:
62,177,115314,1,10,0:2:0:0:
126,250,115599,5,2,0:2:0:0:
126,250,115742,2,0,L|116:312,1,62.9999980773926,2|2,1:2|0:2,0:0:0:0:
145,346,116028,2,0,P|177:357|207:351,1,62.9999980773926,2|0,1:2|3:0,0:0:0:0:
236,323,116314,2,0,P|227:290|231:260,1,62.9999980773926,10|8,3:3|3:3,0:0:0:0:
254,225,116599,6,0,L|382:202,1,125.999996154785,6|4,1:2|1:2,0:0:0:0:
412,225,117028,2,0,P|429:284|404:353,1,125.999996154785,0|0,3:2|3:2,0:0:0:0:
372,360,117457,1,6,1:2:0:0:
297,320,117742,5,6,1:2:0:0:
297,320,117885,1,6,1:2:0:0:
117,345,118599,2,0,L|111:282,1,60,2|2,1:2|3:2,0:0:0:0:
134,248,118885,6,0,L|142:126,1,107.999996704102,6|2,3:2|3:2,0:0:0:0:
173,111,119314,2,0,P|228:90|283:110,1,107.999996704102,2|2,0:0|0:0,0:0:0:0:
307,129,119742,1,2,3:2:0:0:
335,210,120028,2,0,L|395:207,2,53.9999983520508,6|2|2,3:2|0:0|3:2,0:0:0:0:
314,248,120457,2,0,P|312:309|339:354,1,107.999996704102,2|2,0:0|0:0,0:0:0:0:
371,371,120885,1,2,3:2:0:0:
452,342,121171,6,0,L|512:350,2,53.9999983520508,6|2|2,3:2|0:0|3:2,0:0:0:0:
434,302,121599,2,0,L|450:180,1,107.999996704102,2|2,0:0|0:0,0:0:0:0:
427,156,122028,1,2,3:2:0:0:
445,68,122314,2,0,P|481:59|507:67,2,53.9999983520508,6|2|2,3:2|0:0|3:2,0:0:0:0:
404,53,122742,2,0,L|291:43,1,107.999996704102,2|0,0:0|0:0,0:0:0:0:
261,68,123171,2,0,L|200:76,1,53.9999983520508,2|0,1:2|1:2,0:0:0:0:
168,56,123457,5,6,3:2:0:0:
111,121,123742,1,2,3:2:0:0:
111,121,123885,2,0,P|95:177|114:232,1,107.999996704102,2|2,0:0|0:0,0:0:0:0:
165,289,124457,1,2,0:0:0:0:
165,289,124599,2,0,L|223:278,1,53.9999983520508,6|2,3:2|0:0,0:0:0:0:
243,243,124885,2,0,L|301:254,1,53.9999983520508,2|2,3:2|0:0,0:0:0:0:
327,283,125171,2,0,P|389:303|441:285,1,107.999996704102,2|2,3:2|3:2,0:0:0:0:
486,228,125742,5,6,3:2:0:0:
486,228,125885,1,2,0:0:0:0:
433,159,126171,2,0,L|418:104,1,53.9999983520508,2|2,0:0|3:2,0:0:0:0:
351,172,126599,2,0,L|296:161,2,53.9999983520508,2|2|4,3:2|0:0|3:2,0:0:0:0:
362,214,127028,1,2,0:2:0:0:
362,214,127171,1,2,1:2:0:0:
316,287,127457,2,0,P|285:295|258:289,1,53.9999983520508,2|2,0:0|0:0,0:0:0:0:
223,274,127742,2,0,P|192:266|165:272,1,53.9999983520508,2|2,0:0|0:0,0:0:0:0:
123,281,128028,6,0,P|96:210|105:168,1,120,6|2,3:2|1:2,0:0:0:0:
132,129,128457,1,2,0:2:0:0:
227,140,128742,2,0,P|291:133|331:87,1,120,2|2,0:2|0:2,0:0:0:0:
371,74,129171,2,0,L|440:85,1,60,2|2,3:2|0:2,0:0:0:0:
466,115,129457,2,0,L|473:175,1,60,2|2,1:2|0:2,0:0:0:0:
447,267,129885,1,2,0:2:0:0:
447,267,130028,2,0,L|385:278,1,60,2|2,1:2|0:2,0:0:0:0:
343,257,130314,6,0,P|359:197|345:131,2,120,2|2|2,3:2|1:2|3:2,0:0:0:0:
257,301,131171,2,0,L|196:293,1,60,2|2,1:2|0:0,0:0:0:0:
149,287,131457,2,0,P|100:253|83:183,1,120,6|2,3:2|1:2,0:0:0:0:
80,153,131885,1,2,0:2:0:0:
80,153,132028,2,0,P|80:121|93:96,1,60,2|2,1:2|0:2,0:0:0:0:
133,71,132314,2,0,L|210:75,1,60,2|2,1:2|3:2,0:0:0:0:
238,88,132599,6,0,L|367:75,1,120,6|2,3:2|1:2,0:0:0:0:
446,112,133171,2,0,L|436:173,1,60,2|2,3:2|0:2,0:0:0:0:
412,213,133457,2,0,L|422:274,1,60,2|2,1:2|0:2,0:0:0:0:
359,342,133885,1,2,0:2:0:0:
359,342,134028,2,0,P|288:327|256:285,1,120,2|2,1:2|3:2,0:0:0:0:
240,248,134457,1,2,0:2:0:0:
240,248,134599,2,0,L|171:254,1,60,2|2,1:2|0:2,0:0:0:0:
91,214,135028,5,2,0:2:0:0:
91,214,135171,2,0,L|83:153,1,60,2|2,1:2|0:2,0:0:0:0:
105,111,135457,2,0,P|140:98|168:104,1,60,2|2,3:2|0:2,0:0:0:0:
207,114,135742,1,2,1:2:0:0:
259,194,136028,6,0,L|253:258,1,60,6|2,1:2|3:2,0:0:0:0:
279,294,136314,2,0,P|306:306|342:305,1,60,2|2,1:2|3:2,0:0:0:0:
379,285,136599,2,0,L|386:224,1,60,2|10,1:2|3:3,0:0:0:0:
416,187,136885,1,10,1:3:0:0:
386,105,137171,6,0,P|420:37|450:28,2,107.999996704102,14|8|8,3:2|1:2|3:2,0:0:0:0:
336,182,138028,1,8,1:2:0:0:
263,127,138314,6,0,L|156:115,2,107.999996704102,10|8|10,3:2|1:2|3:2,0:0:0:0:
336,182,139171,1,10,1:2:0:0:
359,265,139457,6,0,L|480:271,2,107.999996704102,10|10|10,3:2|1:2|3:2,0:0:0:0:
326,294,140171,1,2,0:2:0:0:
326,294,140314,1,10,1:2:0:0:
244,329,140599,6,0,L|183:319,1,53.9999983520508,10|2,3:2|0:2,0:0:0:0:
156,293,140885,2,0,L|95:303,1,53.9999983520508,10|2,1:2|0:2,0:0:0:0:
67,276,141171,1,10,3:2:0:0:
70,188,141457,1,10,1:2:0:0:
27,107,141742,6,0,L|32:40,1,66.0000020141602,12|0,1:2|1:2,0:0:0:0:
71,18,142028,2,0,P|111:23|143:17,1,66.0000020141602,8|0,1:2|1:2,0:0:0:0:
182,12,142314,2,0,P|258:16|304:47,1,132.00000402832,8|8,1:2|1:2,0:0:0:0:
349,129,142885,6,0,P|317:152|284:162,1,66.0000020141602,12|0,1:2|1:2,0:0:0:0:
251,165,143171,2,0,L|253:232,1,66.0000020141602,8|0,1:2|1:2,0:0:0:0:
291,267,143457,1,8,1:2:0:0:
385,294,143742,1,8,1:2:0:0:
467,237,144028,6,0,L|458:165,1,66.0000020141602,12|0,1:2|1:2,0:0:0:0:
425,144,144314,2,0,L|433:77,1,66.0000020141602,8|0,1:2|1:2,0:0:0:0:
403,44,144599,2,0,P|366:28|336:32,1,66.0000020141602,8|0,1:2|1:2,0:0:0:0:
301,41,144885,1,8,1:2:0:0:
220,95,145171,6,0,P|245:159|225:216,1,132.00000402832,12|0,1:2|1:2,0:0:0:0:
158,287,145742,1,8,3:3:0:0:
158,287,145885,2,0,L|83:280,1,66.0000020141602,8|2,3:3|3:2,0:0:0:0:
53,254,146171,1,2,3:0:0:0:
53,254,146314,5,6,3:2:0:0:
304,286,150885,6,0,L|310:196,3,90.0000034332277,4|0|0|0,3:2|3:2|3:2|3:2,0:0:0:0:
212,210,152028,2,0,L|205:113,3,90.0000034332277,6|0|0|0,3:1|3:2|3:2|3:2,0:0:0:0:
256,35,153171,5,4,3:2:0:0:
326,234,154314,6,0,L|253:225,1,66.0000020141602,8|0,3:3|1:0,0:0:0:0:
211,244,154599,2,0,L|138:253,1,66.0000020141602,0|0,1:0|1:0,0:0:0:0:
97,229,154885,1,0,1:0:0:0:
79,138,155171,1,0,1:0:0:0:
159,85,155457,6,0,P|231:78|279:108,1,132.00000402832,6|2,3:2|1:2,0:0:0:0:
283,154,155885,2,0,P|246:217|267:287,1,132.00000402832,2|2,0:2|0:2,0:0:0:0:
334,332,156457,1,2,0:2:0:0:
334,332,156599,6,0,L|401:332,1,66.0000020141602,2|2,3:2|0:2,0:0:0:0:
443,314,156885,2,0,L|455:246,1,66.0000020141602,2|2,1:2|0:2,0:0:0:0:
438,205,157171,2,0,L|304:195,1,132.00000402832,2|2,3:2|1:2,0:0:0:0:
232,251,157742,5,2,3:2:0:0:
154,210,158028,1,2,1:2:0:0:
154,210,158171,2,0,P|128:149|156:78,1,132.00000402832,2|2,0:2|0:2,0:0:0:0:
227,41,158742,1,2,0:2:0:0:
227,41,158885,6,0,L|299:50,1,66.0000020141602,2|2,1:2|1:2,0:0:0:0:
328,28,159171,2,0,L|400:18,1,66.0000020141602,2|2,1:2|1:2,0:0:0:0:
467,83,159599,1,2,1:2:0:0:
467,83,159742,2,0,L|460:152,1,66.0000020141602,0|2,1:2|3:2,0:0:0:0:
437,189,160028,6,0,P|369:209|303:179,1,132.00000402832,6|2,3:2|1:2,0:0:0:0:
267,180,160457,2,0,P|244:242|264:306,1,132.00000402832,2|2,0:2|0:2,0:0:0:0:
261,349,160885,1,0,1:2:0:0:
168,354,161171,6,0,L|89:364,1,66.0000020141602,2|2,3:2|0:0,0:0:0:0:
58,347,161457,2,0,P|42:312|51:278,1,66.0000020141602,2|2,1:2|0:2,0:0:0:0:
48,239,161742,2,0,P|58:192|30:105,1,132.00000402832,2|2,3:2|1:2,0:0:0:0:
88,36,162314,6,0,L|160:23,1,66.0000020141602,2|10,3:2|0:2,0:0:0:0:
225,90,162742,1,2,0:2:0:0:
225,90,162885,1,10,3:2:0:0:
316,72,163171,1,2,1:2:0:0:
316,72,163314,1,10,0:2:0:0:
367,150,163599,5,2,0:2:0:0:
367,150,163742,2,0,L|363:220,1,66.0000020141602,2|2,1:2|0:2,0:0:0:0:
327,246,164028,2,0,P|283:251|252:239,1,66.0000020141602,2|0,1:2|3:0,0:0:0:0:
219,228,164314,2,0,P|185:218|152:225,1,66.0000020141602,10|8,3:3|3:3,0:0:0:0:
114,243,164599,6,0,L|126:106,1,132.00000402832,6|2,3:2|1:2,0:0:0:0:
103,70,165028,1,2,0:2:0:0:
183,24,165314,2,0,L|313:41,1,132.00000402832,2|2,0:2|0:2,0:0:0:0:
347,73,165742,6,0,P|355:105|349:137,1,66.0000020141602,2|2,3:2|0:2,0:0:0:0:
316,170,166028,2,0,P|310:207|320:232,1,66.0000020141602,2|2,1:2|0:2,0:0:0:0:
342,273,166314,2,0,P|281:298|210:286,1,132.00000402832,2|2,3:2|1:2,0:0:0:0:
145,348,166885,6,0,L|74:345,1,66.0000020141602,2|0,3:2|0:0,0:0:0:0:
29,333,167171,1,2,1:2:0:0:
29,333,167314,2,0,P|7:270|32:205,1,132.00000402832,2|2,0:2|0:2,0:0:0:0:
59,126,167885,1,2,0:2:0:0:
59,126,168028,2,0,L|127:118,1,66.0000020141602,2|2,1:2|1:2,0:0:0:0:
174,116,168314,1,2,1:2:0:0:
174,116,168457,1,2,1:2:0:0:
239,51,168742,1,2,1:2:0:0:
239,51,168885,2,0,P|279:42|306:50,1,66.0000020141602,0|2,1:2|3:2,0:0:0:0:
323,90,169171,6,0,P|301:148|319:224,1,132.00000402832,6|2,3:2|1:2,0:0:0:0:
340,253,169599,2,0,P|409:270|474:249,1,132.00000402832,2|2,0:2|0:2,0:0:0:0:
507,164,170171,1,2,0:2:0:0:
507,164,170314,6,0,L|495:100,1,66.0000020141602,2|2,3:2|0:2,0:0:0:0:
464,63,170599,2,0,P|425:73|400:65,1,66.0000020141602,2|2,1:2|0:2,0:0:0:0:
358,46,170885,2,0,P|295:28|228:49,1,132.00000402832,2|2,3:2|1:2,0:0:0:0:
197,131,171457,6,0,L|184:202,1,66.0000020141602,2|10,3:2|0:2,0:0:0:0:
223,285,171885,1,2,0:2:0:0:
223,285,172028,1,10,3:2:0:0:
303,341,172314,1,2,1:2:0:0:
303,341,172457,1,10,0:2:0:0:
364,273,172742,5,2,0:2:0:0:
364,273,172885,2,0,L|354:207,1,66.0000020141602,2|2,1:2|0:2,0:0:0:0:
385,173,173171,2,0,P|420:162|452:168,1,66.0000020141602,2|0,1:2|3:0,0:0:0:0:
472,126,173457,2,0,P|461:91|467:59,1,66.0000020141602,10|8,3:3|3:3,0:0:0:0:
423,41,173742,6,0,P|378:58|296:30,1,132.00000402832,6|2,1:2|1:2,0:0:0:0:
258,55,174171,2,0,P|213:72|131:44,1,132.00000402832,2|0,3:2|3:2,0:0:0:0:
100,18,174599,1,2,1:2:0:0:
41,89,174885,5,4,1:2:0:0:
81,172,175171,2,0,L|75:243,1,66.0000020141602,2|2,1:2|3:2,0:0:0:0:
49,280,175457,2,0,L|55:351,1,66.0000020141602,2|2,1:2|3:2,0:0:0:0:
91,376,175742,1,2,1:2:0:0:
182,348,176028,6,0,L|337:347,1,132.00000402832,6|2,1:2|1:2,0:0:0:0:
345,310,176457,2,0,P|408:332|480:303,1,132.00000402832,2|0,3:2|0:0,0:0:0:0:
482,270,176885,1,2,1:2:0:0:
438,188,177171,5,6,1:2:0:0:
345,193,177457,2,0,L|277:184,1,66.0000020141602,2|2,1:2|3:2,0:0:0:0:
237,203,177742,2,0,L|169:212,1,66.0000020141602,2|10,1:2|3:3,0:0:0:0:
136,180,178028,1,2,1:2:0:0:
132,89,178314,6,0,P|175:35|235:31,1,132.00000402832,6|2,1:2|1:2,0:0:0:0:
278,43,178742,2,0,P|332:86|336:146,1,132.00000402832,2|0,3:2|3:2,0:0:0:0:
320,188,179171,1,2,1:2:0:0:
252,256,179457,5,4,1:2:0:0:
252,256,179599,1,4,1:2:0:0:
100,113,180314,1,2,1:2:0:0:
180,64,180599,6,0,P|236:44|299:68,1,120,6|2,3:2|1:2,0:0:0:0:
326,95,181028,2,0,P|306:151|330:214,1,120,2|2,0:2|0:2,0:0:0:0:
350,303,181599,1,2,0:2:0:0:
350,303,181742,2,0,L|413:296,1,60,2|2,3:2|0:2,0:0:0:0:
452,261,182028,2,0,L|515:268,1,60,2|2,1:2|0:2,0:0:0:0:
495,177,182457,1,2,0:2:0:0:
495,177,182599,2,0,P|488:143|498:114,1,60,2|2,1:2|0:2,0:0:0:0:
472,76,182885,6,0,B|417:93|407:52|354:68,1,120,2|2,3:2|1:2,0:0:0:0:
291,140,183457,2,0,L|226:128,2,60,2|2|2,3:2|0:2|1:2,0:0:0:0:
335,225,184028,6,0,B|390:242|400:201|453:217,2,120,6|2|2,3:2|1:2|1:2,0:0:0:0:
293,245,184742,1,2,0:2:0:0:
293,245,184885,1,2,1:2:0:0:
222,179,185171,6,0,P|202:123|226:60,1,120,6|2,3:2|1:2,0:0:0:0:
179,42,185599,2,0,P|123:62|60:38,1,120,2|2,0:2|0:2,0:0:0:0:
9,124,186171,1,2,0:2:0:0:
9,124,186314,2,0,L|2:186,1,60,2|2,3:2|0:2,0:0:0:0:
32,222,186599,2,0,L|39:284,1,60,2|2,1:2|0:2,0:0:0:0:
112,351,187028,1,2,0:2:0:0:
112,351,187171,2,0,P|145:359|175:347,1,60,2|2,1:2|0:2,0:0:0:0:
202,317,187457,6,0,L|194:194,2,120,2|2|2,3:2|1:2|3:2,0:0:0:0:
294,343,188314,2,0,L|366:334,1,60,2|2,1:2|0:2,0:0:0:0:
390,304,188599,2,0,L|382:181,1,120,6|2,3:2|1:2,0:0:0:0:
376,88,189171,2,0,L|317:81,1,60,2|2,1:2|0:2,0:0:0:0:
268,74,189457,1,2,1:2:0:0:
185,117,189742,6,0,P|158:188|167:230,1,120,6|2,3:2|1:2,0:0:0:0:
194,269,190171,1,2,0:2:0:0:
289,258,190457,2,0,P|353:265|393:311,1,120,2|2,0:2|0:2,0:0:0:0:
404,349,190885,2,0,L|335:360,1,60,2|2,3:2|0:2,0:0:0:0:
297,370,191171,2,0,L|237:363,1,60,2|2,1:2|0:2,0:0:0:0:
148,341,191599,1,2,0:2:0:0:
148,341,191742,2,0,L|137:279,1,60,2|2,1:2|0:2,0:0:0:0:
105,245,192028,6,0,P|89:185|103:119,1,120,2|2,3:2|1:2,0:0:0:0:
167,61,192599,2,0,P|188:30|196:5,2,60,2|2|2,3:2|0:2|1:2,0:0:0:0:
224,138,193171,2,0,L|347:126,1,120,6|2,3:2|1:2,0:0:0:0:
397,205,193742,2,0,P|399:244|390:265,1,60,2|2,1:2|0:2,0:0:0:0:
349,286,194028,2,0,L|278:286,1,60,2|2,1:2|3:2,0:0:0:0:
243,269,194314,6,0,P|225:203|246:153,1,120,6|2,3:2|1:2,0:0:0:0:
253,110,194742,2,0,P|196:91|140:110,1,120,2|2,0:2|0:2,0:0:0:0:
90,193,195314,1,2,0:2:0:0:
90,193,195457,6,0,L|82:253,1,60,2|2,3:2|0:2,0:0:0:0:
100,296,195742,2,0,L|162:305,1,60,2|2,1:2|0:2,0:0:0:0:
253,281,196171,1,2,0:2:0:0:
253,281,196314,2,0,L|321:274,1,60,2|2,1:2|0:2,0:0:0:0:
358,290,196599,6,0,P|384:334|452:352,2,120,2|2|2,3:2|1:2|3:2,0:0:0:0:
389,198,197457,2,0,L|395:135,1,60,2|2,1:2|0:2,0:0:0:0:
425,101,197742,2,0,P|460:79|489:6,2,120,6|2|2,3:2|1:2|1:2,0:0:0:0:
381,79,198457,1,2,0:0:0:0:
381,79,198599,1,2,1:2:0:0:
296,124,198885,6,0,P|281:175|225:216,2,120,6|2|0,3:2|1:2|1:2,0:0:0:0:
270,83,199599,1,2,1:2:0:0:
270,83,199742,2,0,L|192:74,1,60,0|2,1:2|0:0,0:0:0:0:
167,98,200028,5,0,3:2:0:0:
256,192,200171,12,0,202885,0:0:0:0:
