osu file format v14

[General]
AudioFilename: audio.mp3
AudioLeadIn: 0
PreviewTime: 154171
Countdown: 0
SampleSet: Soft
StackLeniency: 0.4
Mode: 0
LetterboxInBreaks: 0
WidescreenStoryboard: 1

[Editor]
DistanceSpacing: 0.7
BeatDivisor: 4
GridSize: 8
TimelineZoom: 1.8

[Metadata]
Title:Manemane Psychotropic
TitleUnicode:マネマネサイコトロピック
Artist:Kairiki bear feat. GUMI
ArtistUnicode:かいりきベア feat. GUMI
Creator:Livermorium
Version:I'm Sorry for Cheating...
Source:
Tags:vocaloid Kairikibear megpoid jrock j-rock rock japanese imitation
BeatmapID:2804276
BeatmapSetID:1315151

[Difficulty]
HPDrainRate:5
CircleSize:4.2
OverallDifficulty:9.2
ApproachRate:9.5
SliderMultiplier:1.9
SliderTickRate:1

[Events]
//Background and Video events
0,0,"gumi.jpg",0,0
//Break Periods
2,146514,150074
//Storyboard Layer 0 (Background)
//Storyboard Layer 1 (Fail)
//Storyboard Layer 2 (Pass)
//Storyboard Layer 3 (Foreground)
//Storyboard Layer 4 (Overlay)
//Storyboard Sound Samples

[TimingPoints]
11457,285.714285714286,4,2,1,90,1,0
14885,-80,4,2,1,90,0,0
15099,-80,4,2,1,5,0,0
15171,-100,4,2,1,90,0,0
19457,-80,4,2,1,90,0,0
19671,-80,4,2,1,5,0,0
19742,-100,4,2,1,90,0,0
20599,-80,4,2,1,75,0,0
20814,-80,4,2,1,5,0,0
20885,-111.111111111111,4,2,1,75,0,0
22314,-80,4,2,3,75,0,0
22528,-111.111111111111,4,2,1,5,0,0
22599,-111.111111111111,4,2,1,75,0,0
24028,-111.111111111111,4,2,3,75,0,0
24171,-111.111111111111,4,2,1,75,0,0
26314,-80,4,2,3,75,0,0
26528,-111.111111111111,4,2,1,5,0,0
26599,-111.111111111111,4,2,3,75,0,0
26742,-111.111111111111,4,2,1,75,0,0
27457,-80,4,2,1,75,0,0
27671,-111.111111111111,4,2,1,5,0,0
27742,-111.111111111111,4,2,1,75,0,0
28599,-80,4,2,1,75,0,0
28814,-111.111111111111,4,2,1,5,0,0
28885,-111.111111111111,4,2,1,75,0,0
32814,-111.111111111111,4,2,1,5,0,0
32885,-111.111111111111,4,2,1,75,0,0
36814,-111.111111111111,4,2,1,5,0,0
36885,-111.111111111111,4,2,1,75,0,0
38885,-153.846153846154,4,2,1,75,0,0
48028,-83.3333333333333,4,2,1,90,0,1
48242,-83.3333333333333,4,2,1,5,0,1
48314,-83.3333333333333,4,2,1,90,0,1
50528,-83.3333333333333,4,2,1,5,0,1
50599,-83.3333333333333,4,2,1,90,0,1
52314,-66.6666666666667,4,2,1,90,0,1
52599,-83.3333333333333,4,2,1,90,0,1
52814,-83.3333333333333,4,2,1,5,0,1
52885,-83.3333333333333,4,2,1,90,0,1
61957,-83.3333333333333,4,2,1,5,0,1
62028,-83.3333333333333,4,2,1,90,0,1
63457,-83.3333333333333,4,2,3,90,0,1
63599,-83.3333333333333,4,2,1,90,0,1
66314,-83.3333333333333,4,2,20,90,0,1
67457,-83.3333333333333,4,2,1,90,0,0
67742,-133.333333333333,4,2,1,90,0,0
68599,-100,4,2,1,90,0,0
68957,-100,4,2,1,5,0,0
69028,-100,4,2,1,90,0,0
70171,-100,4,2,3,90,0,0
70242,-100,4,2,1,90,0,0
70885,-125,4,2,1,65,0,0
77742,-100,4,2,1,75,0,0
78885,-200,4,2,1,75,0,0
78957,-200,4,2,1,45,0,0
79742,-200,4,2,1,75,0,0
80028,-100,4,2,1,75,0,0
87099,-100,4,2,1,5,0,0
87171,-100,4,2,1,75,0,0
88028,-100,4,2,3,75,0,0
88171,-100,4,2,1,75,0,0
89171,-90.9090909090909,4,2,1,90,0,0
90314,-90.9090909090909,4,2,3,90,0,0
90457,-90.9090909090909,4,2,1,90,0,0
93742,-166.666666666667,4,2,1,60,0,0
95099,-166.666666666667,4,2,1,5,0,0
95171,-166.666666666667,4,2,1,60,0,0
96028,-166.666666666667,4,2,1,15,0,0
97171,-166.666666666667,4,2,1,70,0,0
98314,-83.3333333333333,4,2,1,90,0,1
100814,-83.3333333333333,4,2,1,5,0,1
100885,-83.3333333333333,4,2,1,90,0,1
103099,-83.3333333333333,4,2,1,5,0,1
103171,-83.3333333333333,4,2,1,90,0,1
113742,-83.3333333333333,4,2,3,90,0,1
113885,-83.3333333333333,4,2,1,90,0,1
116599,-83.3333333333333,4,2,20,90,0,1
117742,-83.3333333333333,4,2,1,90,0,0
118028,-133.333333333333,4,2,1,70,0,0
118885,-117.647058823529,4,2,1,70,0,0
128028,-100,4,2,1,80,0,0
137171,-111.111111111111,4,2,1,65,0,0
141385,-111.111111111111,4,2,1,5,0,0
141457,-111.111111111111,4,2,1,65,0,0
141742,-90.9090909090909,4,2,1,75,0,1
142885,-90.9090909090909,4,2,1,85,0,1
143457,-90.9090909090909,4,2,1,75,0,1
146314,-90.9090909090909,4,2,1,85,0,0
150599,-90.9090909090909,4,2,1,50,0,0
150885,-90.9090909090909,4,2,1,55,0,0
152028,-90.9090909090909,4,2,3,55,0,0
152171,-90.9090909090909,4,2,1,55,0,0
154314,-90.9090909090909,4,2,1,70,0,0
155457,-83.3333333333333,4,2,1,90,0,1
155671,-83.3333333333333,4,2,1,5,0,1
155742,-83.3333333333333,4,2,1,90,0,1
157957,-83.3333333333333,4,2,1,5,0,1
158028,-83.3333333333333,4,2,1,90,0,1
160242,-83.3333333333333,4,2,1,5,0,1
160314,-83.3333333333333,4,2,1,90,0,1
164814,-83.3333333333333,4,2,1,5,0,1
164885,-83.3333333333333,4,2,1,90,0,1
167099,-83.3333333333333,4,2,1,5,0,1
167171,-83.3333333333333,4,2,1,90,0,1
169385,-83.3333333333333,4,2,1,5,0,1
169457,-83.3333333333333,4,2,1,90,0,1
173742,-83.3333333333333,4,2,20,90,0,1
179457,-83.3333333333333,4,2,1,90,0,0
179742,-125,4,2,1,90,0,0
180599,-100,4,2,1,90,0,0
184028,-80,4,2,1,90,0,0
184242,-80,4,2,1,5,0,0
184314,-100,4,2,1,90,0,0
188599,-80,4,2,1,90,0,0
188814,-80,4,2,1,5,0,0
188885,-100,4,2,1,90,0,0
193171,-80,4,2,1,90,0,0
193385,-80,4,2,1,5,0,0
193457,-100,4,2,1,90,0,0
197742,-86.9565217391304,4,2,1,90,0,0
200314,-86.9565217391304,4,2,1,80,0,0
200885,-86.9565217391304,4,2,1,65,0,0
201457,-86.9565217391304,4,2,1,50,0,0
202028,-86.9565217391304,4,2,1,35,0,0
202599,-86.9565217391304,4,2,1,20,0,0
202814,-86.9565217391304,4,2,1,10,0,0

[Colours]
Combo1 : 209,156,216
Combo2 : 107,170,239
Combo3 : 227,143,81
Combo4 : 173,219,98

[HitObjects]
256,192,11171,5,0,1:0:0:0:
256,192,11457,5,6,3:2:0:0:
149,130,11599,1,2,0:2:0:0:
256,74,11742,1,2,1:2:0:0:
158,304,11885,2,0,B|204:287|204:287|251:303,1,95,2|0,0:2|3:2,0:0:0:0:
467,258,12171,2,0,B|421:241|421:241|374:257,1,95,2|0,0:2|1:2,0:0:0:0:
421,328,12457,1,2,0:2:0:0:
273,187,12599,5,2,3:2:0:0:
472,116,12742,1,2,0:2:0:0:
256,192,12885,1,2,1:2:0:0:
487,109,13028,2,0,L|390:106,1,95,2|0,0:2|3:2,0:0:0:0:
141,98,13314,1,2,0:2:0:0:
159,98,13385,1,2,0:2:0:0:
177,98,13457,1,2,1:2:0:0:
120,192,13599,1,2,0:2:0:0:
256,56,13742,6,0,P|305:43|357:60,1,95,2|2,3:2|0:2,0:0:0:0:
168,262,14028,2,0,P|119:275|67:258,1,95,2|2,1:2|0:2,0:0:0:0:
304,126,14314,1,2,3:2:0:0:
304,126,14457,1,2,0:2:0:0:
120,192,14599,1,2,1:2:0:0:
120,192,14742,1,2,0:2:0:0:
378,339,14885,6,0,B|382:200|382:200|414:234,1,178.125,6|0,3:2|0:0,0:0:0:0:
471,276,15171,1,2,1:2:0:0:
240,223,15314,1,2,0:2:0:0:
410,16,15457,1,2,1:2:0:0:
382,201,15599,1,2,0:2:0:0:
378,219,15671,1,2,0:2:0:0:
374,237,15742,1,2,1:2:0:0:
399,92,15885,1,2,3:2:0:0:
191,115,16028,6,0,P|143:111|107:84,1,95,6|2,3:2|0:2,0:0:0:0:
187,30,16314,1,2,1:2:0:0:
86,192,16457,2,0,B|66:236|66:236|24:255,1,95,2|0,0:2|3:2,0:0:0:0:
192,258,16742,2,0,B|212:302|212:302|254:321,1,95,2|0,0:2|1:2,0:0:0:0:
343,346,17028,1,2,0:2:0:0:
258,147,17171,5,2,3:2:0:0:
137,351,17314,1,2,0:2:0:0:
267,130,17457,1,2,1:2:0:0:
127,367,17599,2,0,L|22:363,1,95,2|0,0:2|3:2,0:0:0:0:
192,258,17885,1,2,0:2:0:0:
211,259,17957,1,2,0:2:0:0:
229,260,18028,1,2,1:2:0:0:
87,254,18171,1,2,0:2:0:0:
314,267,18314,6,0,P|338:227|336:173,1,95,2|2,3:2|0:2,0:0:0:0:
206,40,18599,1,2,1:2:0:0:
149,161,18742,1,2,2:2:0:0:
211,24,18885,2,0,P|256:11|301:23,1,95,2|2,3:2|0:2,0:0:0:0:
456,71,19171,1,2,1:2:0:0:
342,113,19314,1,2,0:2:0:0:
437,321,19457,6,0,B|435:261|435:261|461:208|461:208|459:139,1,178.125,6|0,3:2|0:0,0:0:0:0:
456,71,19742,1,2,1:2:0:0:
232,202,19885,1,2,0:2:0:0:
299,301,20028,1,2,1:2:0:0:
169,110,20171,1,2,0:2:0:0:
158,94,20242,1,2,0:2:0:0:
147,78,20314,2,0,L|246:73,1,95,2|2,1:2|3:2,0:0:0:0:
49,45,20599,6,0,B|18:136|103:125|67:218,1,178.125,6|0,3:2|0:0,0:0:0:0:
133,276,20885,2,0,P|173:288|218:276,1,85.4999973907472,2|2,1:2|0:2,0:0:0:0:
346,173,21171,5,2,3:2:0:0:
315,345,21314,1,2,0:2:0:0:
346,173,21457,1,2,1:2:0:0:
315,345,21599,1,2,0:2:0:0:
398,102,21742,5,2,3:2:0:0:
429,274,21885,1,2,0:2:0:0:
398,102,22028,1,2,1:2:0:0:
429,274,22171,1,2,0:2:0:0:
202,106,22314,6,0,B|158:88|158:88|185:71|245:68|298:82,1,178.125,4|0,3:2|0:0,0:0:0:0:
239,184,22599,2,0,P|226:226|238:269,1,85.4999973907472,2|0,1:2|0:0,0:0:0:0:
306,354,22885,5,2,3:2:0:0:
306,354,23028,1,2,0:2:0:0:
122,282,23171,1,2,1:2:0:0:
122,282,23314,1,2,0:2:0:0:
328,232,23457,2,0,L|326:336,1,85.4999973907472,2|0,3:2|0:0,0:0:0:0:
146,250,23742,2,0,L|148:146,1,85.4999973907472,2|0,1:2|0:0,0:0:0:0:
416,14,24028,5,8,3:1:0:0:
159,51,24171,1,2,0:2:0:0:
225,134,24314,1,2,1:2:0:0:
269,36,24457,1,2,0:2:0:0:
50,72,24599,1,2,3:2:0:0:
50,72,24671,1,2,0:2:0:0:
50,72,24742,1,2,0:2:0:0:
269,36,24885,2,0,L|319:29,2,42.7499986953736,2|2|2,1:2|0:2|0:2,0:0:0:0:
446,166,25171,5,6,3:2:0:0:
377,253,25314,1,2,0:2:0:0:
267,237,25457,1,2,1:2:0:0:
225,134,25599,1,2,0:2:0:0:
308,340,25742,5,2,3:2:0:0:
446,166,25885,2,0,L|392:188,1,42.7499986953736,2|2,0:0|0:0,0:0:0:0:
267,237,26028,1,2,1:2:0:0:
486,269,26171,1,2,0:2:0:0:
330,28,26314,6,0,B|302:95|367:102|327:182|327:182|325:161|316:147,1,178.125,4|0,3:2|0:0,0:0:0:0:
225,134,26599,2,0,L|136:133,1,85.4999973907472,2|2,1:2|0:2,0:0:0:0:
267,237,26885,1,2,3:2:0:0:
42,235,27028,2,0,L|131:236,1,85.4999973907472,2|0,0:2|1:2,0:0:0:0:
407,345,27314,5,2,0:2:0:0:
319,359,27457,2,0,P|327:299|431:260,1,178.125,6|0,3:2|0:0,0:0:0:0:
487,198,27742,1,2,1:2:0:0:
381,77,27885,1,2,0:2:0:0:
381,77,28028,2,0,L|467:74,1,85.4999973907472,2|0,3:2|0:0,0:0:0:0:
268,27,28314,1,2,1:2:0:0:
334,169,28457,1,2,0:2:0:0:
74,94,28599,6,0,B|103:72|119:50|119:50|126:93|143:128|176:152,1,178.125,2|0,3:1|0:0,0:0:0:0:
114,220,28885,2,0,P|94:260|58:285,1,85.4999973907472,2|0,1:2|0:0,0:0:0:0:
322,316,29171,5,2,1:2:0:0:
107,368,29314,1,10,3:3:0:0:
236,216,29457,1,10,3:3:0:0:
219,356,29599,1,0,3:2:0:0:
470,267,29742,6,0,L|375:248,1,85.4999973907472,6|2,3:2|0:2,0:0:0:0:
190,133,30028,2,0,L|285:114,1,85.4999973907472,2|2,1:2|0:2,0:0:0:0:
487,61,30314,1,2,3:2:0:0:
389,164,30457,1,2,0:2:0:0:
261,17,30599,2,0,P|220:4|176:18,1,85.4999973907472,2|2,1:2|0:2,0:0:0:0:
36,99,30885,5,2,3:2:0:0:
140,267,31028,1,2,0:2:0:0:
219,85,31171,1,2,1:2:0:0:
58,234,31314,2,0,P|68:322|138:359,1,170.999994781494,2|0,0:2|0:0,0:0:0:0:
321,250,31742,2,0,L|225:259,1,85.4999973907472,2|0,1:2|0:0,0:0:0:0:
130,60,32028,5,2,3:2:0:0:
172,190,32171,1,2,0:2:0:0:
304,147,32314,1,2,1:2:0:0:
261,17,32457,1,2,0:2:0:0:
506,145,32599,2,0,B|459:118|430:180|381:160,1,128.249996086121,2|0,3:2|0:0,0:0:0:0:
304,147,32885,1,2,1:2:0:0:
488,220,33028,1,2,0:2:0:0:
407,0,33171,6,0,L|401:95,1,85.4999973907472,2|2,3:2|0:2,0:0:0:0:
296,253,33457,1,2,1:2:0:0:
386,281,33599,2,0,B|342:274|342:274|297:288|297:288|212:274,1,170.999994781494,2|0,0:2|0:0,0:0:0:0:
88,147,34028,2,0,P|76:187|85:231,1,85.4999973907472,2|0,1:2|0:0,0:0:0:0:
254,92,34314,6,0,L|347:82,1,85.4999973907472,6|0,3:2|0:0,0:0:0:0:
85,36,34599,2,0,L|-8:26,1,85.4999973907472,2|0,1:2|0:0,0:0:0:0:
271,98,34885,1,2,3:2:0:0:
84,230,35028,1,2,0:2:0:0:
84,230,35099,1,2,0:2:0:0:
84,230,35171,2,0,P|75:188|87:147,1,85.4999973907472,2|0,1:2|0:0,0:0:0:0:
191,33,35457,5,2,3:2:0:0:
191,33,35599,1,2,0:2:0:0:
301,197,35742,1,2,1:2:0:0:
301,197,35885,1,2,0:2:0:0:
169,338,36028,2,0,L|82:331,1,85.4999973907472,2|2,3:2|0:2,0:0:0:0:
197,230,36314,1,2,1:2:0:0:
289,341,36457,1,2,0:2:0:0:
387,131,36599,6,0,P|347:103|267:100,1,128.249996086121,6|0,3:2|0:0,0:0:0:0:
191,119,36885,1,2,1:2:0:0:
401,212,37028,2,0,P|401:164|383:125,1,85.4999973907472,2|0,0:2|3:2,0:0:0:0:
176,37,37314,2,0,P|176:85|194:124,1,85.4999973907472,2|0,0:2|1:2,0:0:0:0:
301,197,37599,1,2,0:2:0:0:
62,160,37742,5,6,3:2:0:0:
285,75,37885,1,2,3:2:0:0:
122,299,38028,1,2,1:2:0:0:
13,56,38171,1,2,3:2:0:0:
191,217,38314,6,0,L|193:172,3,42.7499986953736,2|2|2|2,0:0|0:0|0:0|0:0,0:0:0:0:
144,112,38599,1,0,1:2:0:0:
216,358,38742,1,0,1:0:0:0:
427,247,38885,6,0,B|306:285|321:186|190:216,1,246.999988693238,6|10,3:2|1:2,0:0:0:0:
103,338,39599,1,2,0:2:0:0:
86,137,39742,2,0,L|92:211,1,61.7499971733095,10|2,3:2|3:2,0:0:0:0:
119,52,40028,5,10,3:2:0:0:
187,158,40171,2,0,L|193:232,1,61.7499971733095,0|10,1:0|3:2,0:0:0:0:
225,73,40457,5,2,0:2:0:0:
225,73,40599,2,0,P|283:63|352:74,1,123.499994346619,8|10,1:2|3:2,0:0:0:0:
441,135,41028,1,0,1:0:0:0:
347,193,41171,6,0,P|337:135|348:66,1,123.499994346619,14|10,3:2|3:2,0:0:0:0:
441,135,41599,1,2,0:2:0:0:
382,277,41742,2,0,P|350:285|316:281,1,61.7499971733095,10|0,1:2|0:0,0:0:0:0:
472,235,42028,2,0,P|480:267|476:301,1,61.7499971733095,10|2,3:2|3:2,0:0:0:0:
271,347,42314,5,10,0:2:0:0:
144,190,42457,1,0,1:0:0:0:
255,137,42599,2,0,P|260:172|257:201,1,61.7499971733095,10|2,3:2|0:2,0:0:0:0:
81,253,42885,2,0,P|61:216|71:138,1,123.499994346619,8|10,1:2|1:2,0:0:0:0:
153,52,43314,1,2,1:2:0:0:
321,221,43457,5,14,3:2:0:0:
144,190,43599,1,2,0:2:0:0:
354,115,43742,1,10,3:2:0:0:
210,278,43885,1,2,0:2:0:0:
254,31,44028,5,10,1:2:0:0:
321,221,44171,1,2,0:2:0:0:
452,102,44314,1,10,3:2:0:0:
385,292,44457,1,2,3:2:0:0:
243,119,44599,5,10,3:2:0:0:
477,25,44742,1,2,1:2:0:0:
413,178,44885,1,10,3:2:0:0:
229,108,45028,1,2,0:2:0:0:
425,189,45171,2,0,L|426:321,1,123.499994346619,8|10,1:2|1:2,0:0:0:0:
356,364,45599,1,2,1:2:0:0:
256,192,45742,5,4,0:2:0:0:
256,72,46885,5,4,3:2:0:0:
192,304,47028,1,4,1:2:0:0:
257,54,47171,1,4,1:2:0:0:
316,332,47314,1,4,3:2:0:0:
191,162,48028,6,0,B|138:153|138:153|83:164|83:164|21:153,1,170.999994781494,6|0,3:2|0:0,0:0:0:0:
7,73,48314,1,2,1:2:0:0:
175,260,48457,2,0,L|156:373,1,113.999996520996,2|0,0:2|3:2,0:0:0:0:
317,112,48742,2,0,L|298:-1,1,113.999996520996,2|0,0:2|1:2,0:0:0:0:
434,71,49028,1,2,0:2:0:0:
192,139,49171,5,2,3:2:0:0:
346,314,49314,1,2,0:2:0:0:
39,228,49457,1,2,1:2:0:0:
220,28,49599,1,2,0:2:0:0:
415,258,49742,6,0,P|434:320|420:366,1,113.999996520996,2|0,3:2|0:0,0:0:0:0:
130,196,50028,2,0,P|111:134|125:88,1,113.999996520996,2|0,1:2|0:0,0:0:0:0:
445,164,50314,6,0,B|388:158|388:158|343:184|343:184|281:177,1,170.999994781494,2|0,3:2|0:0,0:0:0:0:
192,139,50599,1,2,1:2:0:0:
311,369,50742,2,0,P|367:381|420:364,1,113.999996520996,2|0,0:2|3:2,0:0:0:0:
183,268,51028,2,0,P|125:280|73:265,1,113.999996520996,2|0,0:2|1:2,0:0:0:0:
319,101,51314,1,2,0:2:0:0:
90,56,51457,5,2,1:2:0:0:
409,128,51599,1,2,1:2:0:0:
0,29,51742,5,2,1:2:0:0:
319,101,51885,1,2,1:2:0:0:
130,196,52028,5,0,3:2:0:0:
232,49,52171,1,2,1:2:0:0:
232,49,52242,1,0,1:0:0:0:
232,49,52314,2,0,B|215:97|215:97|233:144|233:144|217:190,1,142.500005435944,0|2,1:2|3:2,0:0:0:0:
380,346,52599,6,0,P|437:330|372:282,1,170.999994781494,6|0,3:2|0:0,0:0:0:0:
318,224,52885,1,2,1:2:0:0:
137,375,53028,2,0,L|25:358,1,113.999996520996,2|0,0:2|3:2,0:0:0:0:
219,182,53314,2,0,L|238:295,1,113.999996520996,2|0,0:2|1:2,0:0:0:0:
97,114,53599,1,2,0:2:0:0:
248,22,53742,5,2,3:2:0:0:
121,267,53885,1,2,0:2:0:0:
328,136,54028,1,2,1:2:0:0:
43,33,54171,1,2,0:2:0:0:
347,51,54314,1,2,3:2:0:0:
347,51,54385,1,2,0:0:0:0:
347,51,54457,2,0,L|415:56,1,56.9999982604981,2|2,0:0|0:0,0:0:0:0:
152,172,54599,2,0,P|97:191|40:172,1,113.999996520996,2|0,1:2|0:0,0:0:0:0:
344,328,54885,5,2,3:2:0:0:
256,72,55028,1,10,0:2:0:0:
168,328,55171,1,2,1:2:0:0:
348,51,55314,5,2,0:2:0:0:
256,320,55457,1,10,3:2:0:0:
163,51,55599,1,2,0:2:0:0:
422,224,55742,5,2,1:2:0:0:
152,172,55885,1,10,0:2:0:0:
502,243,56028,1,2,3:2:0:0:
256,88,56171,5,2,0:2:0:0:
256,320,56314,2,0,B|237:264|237:264|249:211,1,113.999996520996,2|2,1:2|0:2,0:0:0:0:
26,125,56599,1,2,1:2:0:0:
331,259,56742,1,0,3:0:0:0:
78,368,56885,1,10,3:3:0:0:
79,333,56957,1,8,3:3:0:0:
80,299,57028,1,8,3:3:0:0:
81,265,57099,1,8,3:3:0:0:
83,230,57171,6,0,B|136:208|136:208|192:230,1,113.999996520996,6|0,3:2|0:0,0:0:0:0:
400,142,57457,1,2,1:2:0:0:
145,112,57599,2,0,L|128:-2,1,113.999996520996,2|0,0:2|3:2,0:0:0:0:
331,262,57885,2,0,L|314:376,1,113.999996520996,2|0,0:2|1:2,0:0:0:0:
163,328,58171,1,2,0:2:0:0:
312,77,58314,5,2,3:2:0:0:
440,299,58457,1,2,0:2:0:0:
248,13,58599,1,2,1:2:0:0:
120,235,58742,1,2,0:2:0:0:
400,142,58885,6,0,B|442:133|442:133|476:137|476:137|512:131,1,113.999996520996,2|0,3:2|0:0,0:0:0:0:
145,112,59171,2,0,B|103:103|103:103|69:107|69:107|33:101,1,113.999996520996,2|0,1:2|0:0,0:0:0:0:
241,295,59457,5,2,3:2:0:0:
278,168,59599,1,2,0:2:0:0:
124,322,59742,1,2,1:2:0:0:
342,363,59885,2,0,P|407:377|458:361,1,113.999996520996,2|0,0:2|3:2,0:0:0:0:
435,129,60171,2,0,P|449:194|433:245,1,113.999996520996,2|0,0:2|1:2,0:0:0:0:
241,295,60457,1,2,0:2:0:0:
300,59,60599,5,2,1:2:0:0:
344,279,60742,1,2,1:2:0:0:
124,322,60885,1,2,1:2:0:0:
80,102,61028,1,2,1:2:0:0:
278,168,61171,5,0,3:2:0:0:
34,237,61314,1,2,1:2:0:0:
34,237,61385,1,0,1:0:0:0:
34,237,61457,1,0,1:2:0:0:
246,299,61599,1,0,1:0:0:0:
246,299,61671,1,0,1:0:0:0:
246,299,61742,6,0,B|222:345|222:345|223:213,1,170.999994781494,6|0,3:2|0:0,0:0:0:0:
176,147,62028,1,2,1:2:0:0:
448,71,62171,2,0,P|442:129|413:177,1,113.999996520996,2|0,0:2|3:2,0:0:0:0:
84,113,62457,2,0,P|90:171|119:219,1,113.999996520996,2|0,0:2|1:2,0:0:0:0:
256,64,62742,1,2,0:2:0:0:
478,259,62885,5,2,3:2:0:0:
217,221,63028,1,2,0:2:0:0:
384,136,63171,1,2,1:2:0:0:
97,222,63314,1,2,0:2:0:0:
336,312,63457,5,4,3:2:0:0:
254,49,63599,1,0,0:0:0:0:
121,360,63742,1,2,1:2:0:0:
176,132,63885,1,0,0:0:0:0:
429,362,64028,5,2,3:2:0:0:
210,334,64171,2,0,L|217:218,1,113.999996520996,10|2,0:2|1:2,0:0:0:0:
444,368,64457,5,2,0:2:0:0:
192,326,64599,2,0,L|199:210,1,113.999996520996,10|2,3:2|0:2,0:0:0:0:
463,374,64885,5,2,1:2:0:0:
174,318,65028,2,0,L|181:202,1,113.999996520996,10|2,0:2|3:2,0:0:0:0:
439,43,65314,5,2,0:2:0:0:
281,64,65457,1,2,1:2:0:0:
486,156,65599,1,2,0:2:0:0:
288,202,65742,2,0,B|233:222|233:222|181:204,1,113.999996520996,2|0,1:2|3:0,0:0:0:0:
38,23,66028,1,10,3:3:0:0:
40,56,66099,1,8,3:3:0:0:
42,90,66171,1,8,3:3:0:0:
44,123,66242,1,8,3:3:0:0:
46,157,66314,6,0,L|102:169,2,56.9999982604981,6|0|0,1:2|3:0|3:2,0:0:0:0:
321,79,66599,5,6,1:2:0:0:
321,79,66671,1,0,3:0:0:0:
321,79,66742,1,0,3:2:0:0:
138,273,66885,5,4,1:2:0:0:
138,273,66957,1,0,3:0:0:0:
138,273,67028,1,0,3:2:0:0:
461,334,67171,5,6,1:2:0:0:
461,334,67242,1,0,3:0:0:0:
461,334,67314,1,0,3:2:0:0:
173,159,67457,5,6,1:2:0:0:
477,98,67599,1,6,1:2:0:0:
359,152,67742,2,0,L|356:79,1,71.2500027179719,2|2,0:2|0:2,0:0:0:0:
253,217,68028,2,0,L|256:144,1,71.2500027179719,2|2,0:2|0:2,0:0:0:0:
449,249,68314,2,0,L|446:176,1,71.2500027179719,6|2,0:2|0:2,0:0:0:0:
334,316,68599,5,6,1:2:0:0:
162,35,68742,2,0,P|149:114|102:153,1,142.5,0|0,1:0|0:0,0:0:0:0:
11,274,69028,2,0,B|106:236|103:327|198:290,1,190,0|0,1:0|3:0,0:0:0:0:
390,89,69457,1,8,1:3:0:0:
388,115,69528,1,8,1:3:0:0:
386,142,69599,1,8,1:3:0:0:
384,169,69671,1,8,1:3:0:0:
382,196,69742,5,4,3:2:0:0:
197,109,69885,1,0,3:0:0:0:
334,321,70028,1,0,1:0:0:0:
433,19,70171,2,0,B|338:-19|341:72|246:35,1,190,4|0,3:2|3:0,0:0:0:0:
147,175,70599,2,0,P|194:192|239:180,1,95,0|0,1:2|3:0,0:0:0:0:
43,37,70885,6,0,L|35:188,2,152,6|2|2,3:2|3:2|3:2,0:0:0:0:
134,84,71599,1,2,0:2:0:0:
237,55,71742,1,2,3:2:0:0:
332,130,71885,1,2,0:2:0:0:
437,46,72028,6,0,L|518:42,1,76,2|2,3:2|0:2,0:0:0:0:
321,145,72314,2,0,L|240:141,1,76,2|2,3:2|0:2,0:0:0:0:
170,282,72599,1,2,3:2:0:0:
273,232,72742,1,0,0:0:0:0:
387,324,72885,2,0,L|306:328,1,76,2|0,3:2|0:0,0:0:0:0:
50,216,73171,6,0,B|124:250|129:172|213:217,2,152,10|2|2,3:2|3:2|3:2,0:0:0:0:
87,139,73885,1,2,0:2:0:0:
41,303,74028,1,2,3:2:0:0:
90,120,74171,1,2,0:2:0:0:
149,334,74314,6,0,P|188:344|227:330,1,76,2|2,3:2|0:2,0:0:0:0:
313,141,74599,1,2,3:2:0:0:
213,160,74742,2,0,P|185:205|259:221,1,152,2|0,0:2|0:0,0:0:0:0:
249,70,75171,2,0,P|210:60|171:74,1,76,10|0,3:3|0:0,0:0:0:0:
400,185,75457,6,0,L|405:107,1,76,2|2,3:2|0:2,0:0:0:0:
505,154,75742,1,2,3:2:0:0:
505,154,75885,1,2,0:2:0:0:
320,311,76028,6,0,L|325:233,1,76,2|2,3:2|0:2,0:0:0:0:
425,280,76314,1,2,3:2:0:0:
425,280,76457,1,2,0:2:0:0:
279,143,76599,6,0,P|240:132|205:144,1,76,2|2,3:2|0:2,0:0:0:0:
116,209,76885,1,10,3:3:0:0:
116,209,76957,1,8,3:3:0:0:
116,209,77028,1,2,0:2:0:0:
217,299,77171,5,2,3:2:0:0:
14,256,77314,1,2,0:2:0:0:
56,128,77457,1,2,3:2:0:0:
108,335,77599,1,2,0:2:0:0:
234,46,77742,6,0,B|187:33|187:33|134:47,1,95,6|0,3:2|0:0,0:0:0:0:
335,204,78028,2,0,B|382:217|382:217|435:203,1,95,2|0,3:2|0:0,0:0:0:0:
191,120,78314,1,2,3:2:0:0:
191,120,78457,1,2,0:2:0:0:
378,130,78599,1,0,1:2:0:0:
378,130,78742,1,2,0:2:0:0:
159,295,78885,6,0,L|104:292,1,47.5,6|0,3:2|0:0,0:0:0:0:
282,303,79171,2,0,L|227:300,1,47.5,2|0,0:2|0:0,0:0:0:0:
405,311,79457,2,0,L|350:308,1,47.5,2|0,0:2|0:0,0:0:0:0:
212,211,79742,1,2,1:2:0:0:
378,130,79885,1,0,3:0:0:0:
129,20,80028,6,0,P|113:68|127:115,1,95,6|2,3:2|0:2,0:0:0:0:
108,230,80314,2,0,L|12:224,1,95,2|2,1:2|0:2,0:0:0:0:
248,123,80599,1,2,3:2:0:0:
202,317,80742,1,2,0:2:0:0:
248,123,80885,1,2,1:2:0:0:
202,317,81028,1,2,0:2:0:0:
418,242,81171,5,2,3:2:0:0:
314,228,81314,1,2,0:2:0:0:
212,211,81457,1,2,1:2:0:0:
457,167,81599,2,0,P|501:217|458:320,1,190,2|0,0:2|0:0,0:0:0:0:
356,145,82028,2,0,B|342:99|342:99|355:52,1,95,2|0,1:2|0:0,0:0:0:0:
444,73,82314,5,2,3:2:0:0:
231,31,82457,1,2,0:2:0:0:
354,53,82599,1,2,1:2:0:0:
141,11,82742,1,2,0:2:0:0:
244,143,82885,5,2,3:2:0:0:
61,237,83028,1,2,0:2:0:0:
147,122,83171,1,2,1:2:0:0:
189,299,83314,1,2,0:2:0:0:
141,104,83457,6,0,P|91:91|50:108,1,95,2|2,3:2|0:2,0:0:0:0:
282,266,83742,1,2,1:2:0:0:
177,287,83885,2,0,B|269:259|262:347|359:316,1,190,2|0,0:2|0:0,0:0:0:0:
453,184,84314,2,0,L|451:280,1,95,2|0,1:2|0:0,0:0:0:0:
85,171,84599,6,0,P|126:183|179:171,1,95,6|2,3:2|0:2,0:0:0:0:
243,0,84885,1,2,1:2:0:0:
177,201,85028,1,2,0:2:0:0:
333,58,85171,6,0,P|292:46|239:58,1,95,2|2,3:2|0:2,0:0:0:0:
176,230,85457,1,2,1:2:0:0:
242,29,85599,1,2,0:2:0:0:
84,228,85742,6,0,P|125:240|178:228,1,95,2|2,3:2|0:2,0:0:0:0:
242,57,86028,1,2,1:2:0:0:
176,258,86171,1,2,0:2:0:0:
334,115,86314,6,0,P|293:103|240:115,1,95,2|2,3:2|0:2,0:0:0:0:
177,287,86599,1,2,1:2:0:0:
243,86,86742,1,2,0:2:0:0:
341,347,86885,6,0,B|391:342|391:342|433:355|433:355|485:349,1,142.5,2|0,3:2|0:0,0:0:0:0:
443,271,87171,2,0,P|428:226|442:177,1,95,2|2,1:2|0:2,0:0:0:0:
370,43,87457,1,2,3:2:0:0:
510,224,87599,1,2,0:2:0:0:
303,215,87742,1,2,1:2:0:0:
473,75,87885,1,2,0:2:0:0:
188,121,88028,5,4,3:3:0:0:
439,181,88171,1,2,3:2:0:0:
140,307,88314,1,0,1:2:0:0:
283,84,88457,2,0,P|243:38|116:47,1,190,2|0,3:2|3:0,0:0:0:0:
216,231,88885,1,0,1:2:0:0:
203,237,89171,5,4,1:2:0:0:
480,140,89314,1,0,1:2:0:0:
498,139,89992,6,0,L|471:128,1,26.1250007972718,0|0,1:0|1:0,0:0:0:0:
278,64,90171,1,0,3:2:0:0:
393,254,90314,6,0,L|376:361,1,104.500003189087,4|0,1:3|3:0,0:0:0:0:
334,157,90599,1,0,3:0:0:0:
202,322,90742,2,0,P|145:333|193:252,1,209.000006378174,0|0,1:0|3:0,0:0:0:0:
26,302,91171,1,0,1:0:0:0:
18,316,91457,5,4,1:2:0:0:
153,54,91599,1,0,1:2:0:0:
157,37,92278,6,0,L|175:65,1,26.1250007972718,0|0,1:0|1:0,0:0:0:0:
254,182,92457,1,2,3:2:0:0:
254,182,92528,1,2,0:0:0:0:
254,182,92599,6,0,L|146:176,1,104.500003189087,4|0,1:2|3:0,0:0:0:0:
47,110,92885,1,0,3:0:0:0:
338,59,93028,2,0,B|303:152|386:140|347:234|347:234|345:213|335:193,1,209.000006378174,0|0,1:0|3:0,0:0:0:0:
427,95,93457,1,0,1:0:0:0:
254,182,93599,1,0,3:0:0:0:
447,305,93742,6,0,L|505:293,1,56.9999982604981,6|2,3:2|0:0,0:0:0:0:
355,286,94028,1,2,3:2:0:0:
355,286,94171,1,2,0:0:0:0:
267,330,94314,2,0,L|211:317,2,56.9999982604981,6|2|2,3:3|0:0|3:0,0:0:0:0:
355,286,94742,1,2,0:0:0:0:
403,195,94885,6,0,L|406:103,1,85.4999973907472,6|0,3:2|0:0,0:0:0:0:
366,42,95171,1,2,3:2:0:0:
293,135,95314,1,2,0:0:0:0:
240,34,95457,2,0,P|211:31|184:40,1,56.9999982604981,4|0,3:3|0:0,0:0:0:0:
127,141,95742,1,2,1:2:0:0:
127,141,95885,1,0,0:0:0:0:
12,47,96028,5,2,0:0:0:0:
384,202,97171,5,4,3:2:0:0:
76,263,97314,1,4,1:2:0:0:
232,343,97457,1,4,1:2:0:0:
172,46,97599,1,4,3:2:0:0:
171,30,98028,5,0,1:0:0:0:
190,29,98099,1,0,1:0:0:0:
210,28,98171,1,0,1:0:0:0:
229,27,98242,1,0,1:0:0:0:
249,26,98314,6,0,P|269:82|254:133,1,113.999996520996,6|0,3:2|0:0,0:0:0:0:
148,193,98599,1,2,1:2:0:0:
400,97,98742,2,0,L|517:81,1,113.999996520996,2|0,0:2|3:2,0:0:0:0:
240,256,99028,2,0,L|357:272,1,113.999996520996,2|0,0:2|1:2,0:0:0:0:
61,135,99314,1,2,0:2:0:0:
352,180,99457,5,2,3:2:0:0:
93,302,99599,1,2,0:2:0:0:
221,64,99742,1,2,1:2:0:0:
257,342,99885,1,2,0:2:0:0:
48,125,100028,6,0,P|31:70|51:17,1,113.999996520996,2|0,3:2|0:0,0:0:0:0:
367,192,100314,2,0,P|384:247|364:300,1,113.999996520996,2|0,1:2|0:0,0:0:0:0:
480,111,100599,6,0,B|423:101|423:101|368:115|368:115|310:107,1,170.999994781494,2|0,3:2|0:0,0:0:0:0:
221,64,100885,1,2,1:2:0:0:
299,242,101028,1,2,0:2:0:0:
363,34,101171,1,0,3:2:0:0:
182,199,101314,2,0,B|135:235|135:235|77:227,1,113.999996520996,2|0,0:2|1:2,0:0:0:0:
48,122,101599,1,2,0:2:0:0:
374,209,101742,5,2,1:2:0:0:
43,350,101885,1,2,1:2:0:0:
449,175,102028,5,2,1:2:0:0:
120,316,102171,1,2,1:2:0:0:
354,349,102314,5,0,3:2:0:0:
215,137,102457,1,2,1:2:0:0:
215,137,102528,1,0,1:0:0:0:
215,137,102599,2,0,L|231:20,1,113.999996520996,0|2,1:2|3:2,0:0:0:0:
431,79,102885,6,0,P|375:44|374:125,1,170.999994781494,6|0,3:2|0:0,0:0:0:0:
449,175,103171,1,2,1:2:0:0:
217,226,103314,2,0,L|98:204,1,113.999996520996,2|0,0:2|3:2,0:0:0:0:
466,328,103599,2,0,L|347:350,1,113.999996520996,2|0,0:2|1:2,0:0:0:0:
163,105,103885,1,2,0:2:0:0:
163,105,103957,1,2,0:0:0:0:
163,105,104028,6,0,P|219:85|272:106,1,113.999996520996,2|0,3:2|0:0,0:0:0:0:
62,354,104314,1,2,1:2:0:0:
320,262,104457,1,2,0:2:0:0:
14,162,104599,1,2,3:2:0:0:
14,162,104671,1,2,0:0:0:0:
14,162,104742,2,0,L|19:104,1,56.9999982604981,2|2,0:0|0:0,0:0:0:0:
114,248,104885,1,2,1:2:0:0:
85,31,105028,1,0,0:0:0:0:
190,318,105171,5,2,3:2:0:0:
229,101,105314,1,10,0:2:0:0:
190,318,105457,1,2,1:2:0:0:
287,36,105599,5,2,0:2:0:0:
326,253,105742,1,10,3:2:0:0:
287,36,105885,1,2,0:2:0:0:
406,310,106028,5,2,1:2:0:0:
424,106,106171,1,10,0:2:0:0:
406,310,106314,1,2,3:2:0:0:
204,208,106457,5,2,0:2:0:0:
487,163,106599,2,0,P|509:110|491:53,1,113.999996520996,2|2,1:2|0:2,0:0:0:0:
298,334,106885,1,2,1:2:0:0:
318,102,107028,1,0,3:0:0:0:
113,204,107171,1,10,3:3:0:0:
120,245,107242,1,8,3:3:0:0:
146,279,107314,1,8,3:3:0:0:
184,298,107385,1,8,3:3:0:0:
226,297,107457,6,0,L|348:284,1,113.999996520996,6|0,3:2|0:0,0:0:0:0:
142,76,107742,1,2,1:2:0:0:
388,44,107885,2,0,P|411:107|393:153,1,113.999996520996,2|0,0:2|3:2,0:0:0:0:
75,134,108171,2,0,P|52:71|70:25,1,113.999996520996,2|0,0:2|1:2,0:0:0:0:
226,297,108457,1,2,0:2:0:0:
318,102,108599,5,2,3:2:0:0:
64,230,108742,2,0,L|121:245,1,56.9999982604981,2|2,0:0|0:0,0:0:0:0:
352,302,108885,1,2,1:2:0:0:
54,227,109028,1,2,0:2:0:0:
428,342,109171,6,0,B|457:236|376:265|419:167|419:167|419:197|433:214,1,227.999993041992,2|2,3:2|1:2,0:0:0:0:
264,285,109599,1,2,0:0:0:0:
264,285,109671,1,2,0:0:0:0:
264,285,109742,5,2,3:2:0:0:
354,191,109885,1,2,0:2:0:0:
279,23,110028,1,2,1:2:0:0:
211,128,110171,2,0,B|155:144|155:144|102:125,1,113.999996520996,2|0,0:2|3:2,0:0:0:0:
354,191,110457,2,0,B|338:135|338:135|357:82,1,113.999996520996,2|0,0:2|1:2,0:0:0:0:
467,234,110742,1,2,0:2:0:0:
321,354,110885,5,2,1:2:0:0:
430,139,111028,1,2,1:2:0:0:
190,336,111171,5,2,1:2:0:0:
144,46,111314,1,2,1:2:0:0:
194,353,111457,6,0,L|78:346,1,113.999996520996,0|2,3:2|1:2,0:0:0:0:
80,346,111671,1,0,1:0:0:0:
80,346,111742,1,0,1:2:0:0:
343,249,111885,1,2,3:2:0:0:
66,135,112028,6,0,B|18:167|18:167|192:148,1,227.999993041992,6|2,3:2|1:2,0:0:0:0:
489,60,112457,2,0,P|435:42|381:59,1,113.999996520996,2|0,0:2|3:2,0:0:0:0:
255,274,112742,1,2,0:2:0:0:
435,124,112885,1,2,1:2:0:0:
233,77,113028,1,2,0:2:0:0:
422,326,113171,5,2,3:2:0:0:
308,32,113314,1,2,0:2:0:0:
127,354,113457,1,2,1:2:0:0:
233,77,113599,1,2,0:2:0:0:
343,249,113742,5,4,3:2:0:0:
37,208,113885,1,0,0:0:0:0:
363,252,114028,2,0,L|485:239,1,113.999996520996,2|2,1:2|1:2,0:0:0:0:
476,239,114242,1,2,1:2:0:0:
476,239,114314,5,2,3:2:0:0:
306,144,114457,1,10,0:2:0:0:
305,348,114599,1,2,1:2:0:0:
162,48,114742,5,2,0:2:0:0:
230,240,114885,1,10,3:2:0:0:
37,208,115028,1,0,0:0:0:0:
481,247,115171,5,2,1:2:0:0:
306,144,115314,1,10,0:2:0:0:
473,43,115457,1,2,3:2:0:0:
305,348,115599,5,2,0:2:0:0:
192,148,115742,2,0,B|149:137|149:137|113:146|113:146|74:134,1,113.999996520996,2|2,1:2|0:2,0:0:0:0:
146,323,116028,5,2,1:2:0:0:
261,41,116171,1,0,3:0:0:0:
377,255,116314,1,10,3:3:0:0:
343,254,116385,1,8,3:3:0:0:
308,253,116457,1,8,3:3:0:0:
274,253,116528,1,8,3:3:0:0:
240,253,116599,6,0,L|242:311,2,56.9999982604981,6|0|0,1:2|3:0|3:2,0:0:0:0:
388,76,116885,5,4,1:2:0:0:
388,76,116957,1,0,3:0:0:0:
388,76,117028,1,0,3:2:0:0:
116,126,117171,5,4,1:2:0:0:
116,126,117242,1,0,3:0:0:0:
116,126,117314,1,0,3:2:0:0:
437,197,117457,5,6,1:2:0:0:
437,197,117528,1,0,3:0:0:0:
437,197,117599,1,0,3:2:0:0:
94,263,117742,5,6,1:2:0:0:
261,3,117885,1,6,1:2:0:0:
317,152,118028,2,0,L|315:81,1,71.2500027179719,2|2,0:0|0:0,0:0:0:0:
205,212,118314,2,0,L|203:141,1,71.2500027179719,2|2,0:0|0:0,0:0:0:0:
301,282,118599,1,2,1:2:0:0:
204,115,118742,1,2,3:2:0:0:
64,341,118885,6,0,B|116:334|116:334|153:353|153:353|221:342,1,161.500003080368,6|2,3:2|3:2,0:0:0:0:
413,312,119314,1,2,0:0:0:0:
413,312,119385,1,2,0:0:0:0:
413,312,119457,1,2,3:2:0:0:
332,377,119599,1,2,0:0:0:0:
301,282,119742,2,0,P|290:241|300:201,1,80.750001540184,2|0,3:2|0:0,0:0:0:0:
502,33,120028,5,6,3:2:0:0:
395,79,120171,1,2,0:0:0:0:
442,165,120314,1,2,3:2:0:0:
297,52,120457,2,0,P|257:41|220:54,1,80.750001540184,2|0,0:0|3:2,0:0:0:0:
88,154,120742,1,2,0:0:0:0:
88,154,120814,1,2,0:0:0:0:
88,154,120885,2,0,P|72:113|83:74,1,80.750001540184,2|0,3:2|0:0,0:0:0:0:
205,329,121171,5,6,3:2:0:0:
75,292,121314,1,2,0:0:0:0:
221,335,121457,1,2,3:2:0:0:
60,285,121599,2,0,L|142:277,1,80.750001540184,2|0,0:0|3:2,0:0:0:0:
394,307,121885,1,2,0:0:0:0:
283,257,122028,1,2,3:2:0:0:
309,138,122171,1,2,0:0:0:0:
325,370,122314,5,6,3:2:0:0:
371,210,122457,1,2,0:0:0:0:
201,173,122599,1,2,3:2:0:0:
390,207,122742,2,0,L|473:190,1,80.750001540184,2|0,0:0|3:2,0:0:0:0:
268,66,123028,1,0,0:0:0:0:
437,43,123171,1,2,1:2:0:0:
417,45,123242,1,0,1:2:0:0:
396,47,123314,1,0,1:2:0:0:
376,50,123385,1,0,1:2:0:0:
355,53,123457,6,0,B|274:34|274:34|235:42|235:42|198:31,1,161.500003080368,6|2,3:2|3:2,0:0:0:0:
127,130,123885,1,2,0:0:0:0:
127,130,123957,1,2,0:0:0:0:
127,130,124028,1,2,3:2:0:0:
265,219,124171,2,0,P|282:179|272:140,1,80.750001540184,2|0,0:0|3:2,0:0:0:0:
165,255,124457,1,2,0:0:0:0:
305,339,124599,5,6,3:2:0:0:
129,358,124742,1,2,0:0:0:0:
129,358,124814,1,2,0:0:0:0:
129,358,124885,1,2,3:2:0:0:
351,263,125028,1,2,0:0:0:0:
351,263,125099,1,2,0:0:0:0:
351,263,125171,2,0,B|296:257|296:257|252:273|252:273|183:260,1,161.500003080368,2|2,3:2|3:2,0:0:0:0:
38,67,125599,1,2,0:0:0:0:
38,67,125671,1,2,0:0:0:0:
38,67,125742,5,6,3:2:0:0:
230,59,125885,2,0,L|314:53,1,80.750001540184,2|0,0:0|3:2,0:0:0:0:
135,138,126171,5,2,0:0:0:0:
327,130,126314,2,0,L|411:124,1,80.750001540184,2|0,3:2|0:0,0:0:0:0:
234,210,126599,5,2,3:2:0:0:
426,202,126742,1,2,0:0:0:0:
237,347,126885,5,4,3:2:0:0:
379,275,127028,1,2,0:2:0:0:
126,226,127171,5,2,1:2:0:0:
343,358,127314,1,2,0:2:0:0:
235,122,127457,5,2,0:0:0:0:
105,333,127599,1,2,0:0:0:0:
105,333,127671,1,2,0:0:0:0:
105,333,127742,1,2,0:0:0:0:
293,253,127885,1,2,0:0:0:0:
53,130,128028,6,0,L|49:19,1,95,6|2,3:2|0:2,0:0:0:0:
302,33,128314,1,2,1:2:0:0:
235,122,128457,2,0,P|193:145|139:147,1,95,2|0,0:2|3:2,0:0:0:0:
384,204,128742,2,0,P|426:227|480:229,1,95,2|0,0:2|1:2,0:0:0:0:
317,115,129028,1,2,0:2:0:0:
228,369,129171,5,2,3:2:0:0:
175,257,129314,1,2,0:2:0:0:
287,204,129457,1,2,1:2:0:0:
343,316,129599,2,0,B|386:337|386:337|436:325,1,95,2|0,0:2|3:2,0:0:0:0:
175,221,129885,1,2,0:2:0:0:
175,239,129957,1,2,0:2:0:0:
175,257,130028,1,2,1:2:0:0:
177,90,130171,1,2,0:2:0:0:
31,278,130314,6,0,P|69:314|121:321,1,95,2|2,3:2|0:2,0:0:0:0:
255,134,130599,2,0,P|217:98|165:91,1,95,2|2,1:2|0:2,0:0:0:0:
36,138,130885,1,2,3:2:0:0:
36,138,131028,1,2,0:2:0:0:
258,285,131171,1,2,1:2:0:0:
258,285,131314,1,2,0:2:0:0:
350,77,131457,5,6,3:2:0:0:
115,217,131599,1,2,0:2:0:0:
376,229,131742,5,2,1:2:0:0:
139,80,131885,1,2,0:2:0:0:
441,6,132028,5,2,1:2:0:0:
238,135,132171,1,2,0:2:0:0:
223,147,132242,1,2,0:2:0:0:
209,160,132314,1,2,1:2:0:0:
464,228,132457,1,2,3:2:0:0:
482,232,132528,1,2,0:2:0:0:
498,236,132599,5,6,3:2:0:0:
379,127,132742,1,2,0:2:0:0:
327,306,132885,1,2,1:2:0:0:
322,324,132957,1,2,0:2:0:0:
317,342,133028,1,2,0:2:0:0:
268,106,133171,2,0,L|278:12,1,95,2|2,3:2|0:2,0:0:0:0:
278,11,133385,1,2,0:2:0:0:
278,11,133457,1,2,1:2:0:0:
102,176,133599,6,0,L|112:270,1,95,2|0,0:2|3:2,0:0:0:0:
396,356,133885,1,2,0:2:0:0:
271,256,134028,1,2,1:2:0:0:
297,228,134099,1,2,0:2:0:0:
336,211,134171,1,2,0:2:0:0:
383,214,134242,1,2,0:2:0:0:
428,241,134314,1,2,3:2:0:0:
216,160,134457,1,2,0:2:0:0:
197,155,134528,1,2,0:2:0:0:
178,150,134599,1,2,1:2:0:0:
372,81,134742,6,0,L|470:52,1,95,2|0,0:2|3:2,0:0:0:0:
336,211,135028,1,2,0:2:0:0:
204,58,135171,2,0,L|175:156,1,95,2|2,1:2|0:2,0:0:0:0:
30,20,135457,1,2,3:2:0:0:
75,244,135599,1,2,0:2:0:0:
80,262,135671,1,2,0:2:0:0:
86,279,135742,1,2,1:2:0:0:
47,105,135885,1,2,0:2:0:0:
307,311,136028,5,6,1:2:0:0:
24,359,136171,1,2,3:2:0:0:
401,312,136314,5,2,1:2:0:0:
118,360,136457,1,2,3:2:0:0:
356,229,136599,5,2,1:2:0:0:
83,120,136742,1,10,3:3:0:0:
65,112,136814,1,10,3:3:0:0:
47,105,136885,2,0,L|101:96,1,47.5,10|0,1:3|0:0,0:0:0:0:
305,19,137028,2,0,L|251:10,1,47.5,2|0,3:2|0:0,0:0:0:0:
235,315,137171,6,0,B|200:240|279:229|242:148,2,170.999994781494,14|8|8,3:2|1:2|3:2,0:0:0:0:
168,188,137885,1,0,0:0:0:0:
335,126,138028,2,0,P|382:115|423:127,1,85.4999973907472,8|2,1:2|0:2,0:0:0:0:
473,199,138242,1,2,0:2:0:0:
473,199,138314,6,0,B|509:166|509:166|495:38,1,170.999994781494,10|8,3:2|1:2,0:0:0:0:
256,16,138742,1,2,0:2:0:0:
256,16,138814,1,0,0:0:0:0:
256,16,138885,1,10,3:2:0:0:
223,121,139028,1,2,0:2:0:0:
112,154,139171,1,10,1:2:0:0:
37,72,139314,1,2,0:2:0:0:
193,224,139457,5,10,3:2:0:0:
193,224,139528,1,2,0:2:0:0:
193,224,139599,1,2,0:2:0:0:
51,311,139742,2,0,B|17:336|17:336|161:320,1,170.999994781494,10|10,1:2|3:2,0:0:0:0:
334,356,140171,1,2,0:2:0:0:
284,265,140314,2,0,P|273:224|286:181,1,85.4999973907472,10|0,1:2|0:0,0:0:0:0:
385,45,140599,5,10,3:2:0:0:
443,198,140742,1,2,0:2:0:0:
382,29,140885,1,10,1:2:0:0:
352,226,141028,1,2,0:2:0:0:
209,75,141171,6,0,B|252:84|252:84|286:111|286:111|336:117,1,128.249996086121,10|0,3:2|0:0,0:0:0:0:
410,124,141457,1,10,1:2:0:0:
207,177,141599,1,0,1:0:0:0:
207,177,141671,1,0,1:0:0:0:
207,177,141742,5,12,1:2:0:0:
175,208,141814,1,0,1:2:0:0:
166,251,141885,1,0,1:2:0:0:
177,294,141957,1,0,1:2:0:0:
208,325,142028,1,8,1:2:0:0:
251,336,142099,1,0,1:2:0:0:
294,326,142171,1,0,1:2:0:0:
326,295,142242,1,0,1:2:0:0:
343,254,142314,5,8,1:2:0:0:
303,224,142385,1,0,1:2:0:0:
281,179,142457,1,0,1:2:0:0:
280,131,142528,1,0,1:2:0:0:
300,86,142599,1,8,1:2:0:0:
337,53,142671,1,0,1:2:0:0:
385,41,142742,1,0,1:2:0:0:
432,50,142814,1,0,1:2:0:0:
469,80,142885,5,12,1:2:0:0:
414,122,142957,1,0,1:2:0:0:
348,140,143028,1,0,1:2:0:0:
280,131,143099,1,0,1:2:0:0:
221,95,143171,1,8,1:2:0:0:
153,86,143242,1,0,1:2:0:0:
93,118,143314,1,0,1:2:0:0:
60,178,143385,1,0,1:2:0:0:
70,247,143457,6,0,L|128:241,3,52.2500015945435,8|0|0|0,1:2|1:2|1:2|1:2,0:0:0:0:
256,216,143742,1,8,1:2:0:0:
256,231,143814,1,0,1:2:0:0:
256,245,143885,1,0,1:2:0:0:
256,260,143957,1,0,1:2:0:0:
256,275,144028,5,12,1:2:0:0:
214,313,144099,1,0,1:2:0:0:
157,314,144171,1,0,1:2:0:0:
115,275,144242,1,0,1:2:0:0:
110,219,144314,1,8,1:2:0:0:
144,170,144385,1,0,1:2:0:0:
194,140,144457,1,0,1:2:0:0:
235,98,144528,1,0,1:2:0:0:
256,42,144599,5,8,1:2:0:0:
277,98,144671,1,0,1:2:0:0:
318,140,144742,1,0,1:2:0:0:
368,170,144814,1,0,1:2:0:0:
402,219,144885,1,8,1:2:0:0:
397,275,144957,1,0,1:2:0:0:
355,314,145028,1,0,1:2:0:0:
298,313,145099,1,0,1:2:0:0:
256,275,145171,6,0,L|256:167,1,104.500003189087,12|0,1:2|3:0,0:0:0:0:
417,43,145457,1,0,1:2:0:0:
330,239,145599,1,0,3:0:0:0:
228,36,145742,5,8,3:3:0:0:
191,34,145814,1,8,3:3:0:0:
154,32,145885,1,8,3:3:0:0:
117,30,145957,1,8,3:3:0:0:
80,28,146028,1,2,3:2:0:0:
139,138,146171,1,2,3:0:0:0:
20,303,146314,5,6,3:2:0:0:
258,287,150599,5,0,1:0:0:0:
258,287,150742,1,0,1:0:0:0:
256,192,150885,5,4,3:2:0:0:
256,192,151171,1,0,3:2:0:0:
256,192,151457,1,0,3:2:0:0:
256,192,151742,1,0,3:2:0:0:
156,109,152028,5,6,3:1:0:0:
173,292,152314,1,0,3:2:0:0:
356,275,152599,1,0,3:2:0:0:
339,92,152885,1,0,3:2:0:0:
256,192,153171,5,4,3:2:0:0:
256,192,154314,5,8,3:3:0:0:
418,289,154457,1,0,1:0:0:0:
293,122,154599,5,0,1:0:0:0:
93,269,154742,1,0,1:0:0:0:
249,56,154885,5,0,1:0:0:0:
400,160,155028,1,0,1:0:0:0:
163,133,155171,5,0,1:0:0:0:
163,133,155242,1,0,1:0:0:0:
163,133,155314,2,0,L|175:190,1,52.2500015945435,0|0,1:0|1:0,0:0:0:0:
282,318,155457,6,0,P|228:341|255:264,1,170.999994781494,6|0,3:2|0:0,0:0:0:0:
328,240,155742,1,2,1:2:0:0:
46,261,155885,2,0,L|28:140,1,113.999996520996,2|0,0:2|3:2,0:0:0:0:
362,28,156171,2,0,L|344:147,1,113.999996520996,2|0,0:2|1:2,0:0:0:0:
160,43,156457,1,2,0:2:0:0:
207,290,156599,5,2,3:2:0:0:
451,144,156742,1,2,0:2:0:0:
129,154,156885,1,2,1:2:0:0:
380,365,157028,1,2,0:2:0:0:
110,352,157171,6,0,B|70:343|70:343|35:350|35:350|-4:338,1,113.999996520996,2|0,3:2|0:0,0:0:0:0:
340,156,157457,2,0,B|380:147|380:147|415:154|415:154|454:142,1,113.999996520996,2|0,1:2|0:0,0:0:0:0:
175,212,157742,6,0,B|204:254|204:254|198:128,1,170.999994781494,2|0,3:2|0:0,0:0:0:0:
170,55,158028,1,2,1:2:0:0:
328,289,158171,2,0,P|376:323|431:322,1,113.999996520996,2|0,0:2|3:2,0:0:0:0:
175,212,158457,2,0,P|127:246|72:245,1,113.999996520996,2|0,0:2|1:2,0:0:0:0:
288,63,158742,1,2,0:2:0:0:
102,158,158885,5,2,1:2:0:0:
399,235,159028,1,2,1:2:0:0:
19,135,159171,5,2,1:2:0:0:
316,212,159314,1,2,1:2:0:0:
103,308,159457,5,0,3:2:0:0:
173,60,159599,1,2,1:2:0:0:
173,60,159671,1,0,1:0:0:0:
173,60,159742,1,0,1:2:0:0:
248,277,159885,1,2,3:2:0:0:
393,81,160028,6,0,B|423:82|445:68|445:68|412:48|366:46|332:56,1,170.999994781494,6|0,3:2|0:0,0:0:0:0:
276,133,160314,1,2,1:2:0:0:
466,362,160457,2,0,L|440:249,1,113.999996520996,2|0,0:2|3:2,0:0:0:0:
154,232,160742,1,2,0:2:0:0:
358,341,160885,1,0,1:2:0:0:
140,227,161028,1,2,0:2:0:0:
393,81,161171,5,2,3:2:0:0:
358,341,161314,1,2,0:0:0:0:
97,308,161457,1,2,1:2:0:0:
131,46,161599,1,2,0:2:0:0:
437,169,161742,6,0,B|340:207|323:110|218:153,1,227.999993041992,2|2,3:2|1:2,0:0:0:0:
15,274,162171,1,2,0:0:0:0:
15,274,162242,1,2,0:0:0:0:
15,274,162314,5,2,3:2:0:0:
268,229,162457,1,10,0:2:0:0:
50,105,162599,1,2,1:2:0:0:
283,336,162742,5,2,0:2:0:0:
139,200,162885,1,10,3:2:0:0:
386,98,163028,1,2,0:2:0:0:
208,75,163171,5,2,1:2:0:0:
364,237,163314,1,10,0:2:0:0:
165,327,163457,1,2,3:2:0:0:
470,327,163599,5,2,0:2:0:0:
289,145,163742,2,0,L|303:20,1,113.999996520996,2|2,1:2|0:2,0:0:0:0:
139,200,164028,5,2,1:2:0:0:
454,158,164171,1,0,3:0:0:0:
165,327,164314,1,10,3:3:0:0:
127,329,164385,1,8,3:3:0:0:
89,332,164457,1,8,3:3:0:0:
51,334,164528,1,8,3:3:0:0:
13,337,164599,6,0,B|19:203|19:203|54:231,1,170.999994781494,6|0,3:2|0:0,0:0:0:0:
139,200,164885,1,2,1:2:0:0:
10,60,165028,1,2,0:2:0:0:
261,36,165171,1,0,3:2:0:0:
139,200,165314,2,0,P|192:226|244:211,1,113.999996520996,2|0,0:2|1:2,0:0:0:0:
352,127,165599,1,2,0:2:0:0:
239,323,165742,5,2,3:2:0:0:
124,91,165885,1,2,0:2:0:0:
465,222,166028,1,2,1:2:0:0:
170,352,166171,1,2,0:2:0:0:
111,16,166314,6,0,L|226:10,1,113.999996520996,2|0,3:2|0:0,0:0:0:0:
465,222,166599,2,0,L|349:215,1,113.999996520996,2|0,1:2|0:0,0:0:0:0:
46,128,166885,6,0,P|110:175|193:138,1,170.999994781494,2|0,3:2|0:0,0:0:0:0:
266,188,167171,1,2,1:2:0:0:
494,25,167314,2,0,B|512:80|512:80|491:135,1,113.999996520996,2|0,0:2|3:2,0:0:0:0:
188,144,167599,2,0,L|196:19,1,113.999996520996,2|0,0:2|1:2,0:0:0:0:
357,227,167885,1,2,0:2:0:0:
91,274,168028,5,2,1:2:0:0:
421,110,168171,1,2,1:2:0:0:
53,197,168314,5,2,1:2:0:0:
458,186,168457,1,2,1:2:0:0:
182,321,168599,5,0,3:2:0:0:
311,149,168742,1,2,1:2:0:0:
311,149,168814,1,0,1:0:0:0:
311,149,168885,1,0,1:2:0:0:
111,97,169028,1,2,3:2:0:0:
302,313,169171,6,0,B|321:350|321:350|329:303|334:282|344:247|361:219,1,170.999994781494,6|0,3:2|0:0,0:0:0:0:
432,257,169457,1,2,1:2:0:0:
204,65,169599,2,0,L|84:51,1,113.999996520996,2|0,0:2|3:2,0:0:0:0:
0,314,169885,2,0,L|120:300,1,113.999996520996,2|2,0:2|1:2,0:0:0:0:
383,140,170171,1,2,0:2:0:0:
82,213,170314,5,2,3:2:0:0:
369,328,170457,1,2,0:2:0:0:
204,65,170599,1,2,1:2:0:0:
182,374,170742,1,2,0:2:0:0:
445,195,170885,6,0,P|465:140|450:87,1,113.999996520996,2|0,3:2|0:0,0:0:0:0:
21,156,171171,2,0,P|1:211|16:264,1,113.999996520996,2|0,1:2|0:0,0:0:0:0:
371,26,171457,5,2,3:2:0:0:
21,156,171599,1,10,0:2:0:0:
298,57,171742,1,2,1:2:0:0:
15,77,171885,5,2,0:2:0:0:
365,206,172028,1,10,3:2:0:0:
88,107,172171,1,2,0:2:0:0:
373,131,172314,5,2,1:2:0:0:
26,257,172457,1,10,0:2:0:0:
303,158,172599,1,2,3:2:0:0:
132,8,172742,5,2,0:2:0:0:
220,304,172885,2,0,L|334:317,1,113.999996520996,2|2,1:2|0:2,0:0:0:0:
501,144,173171,5,2,1:2:0:0:
214,184,173314,1,0,3:0:0:0:
427,29,173457,1,10,3:3:0:0:
427,29,173528,1,8,3:3:0:0:
427,29,173599,2,0,L|422:86,1,56.9999982604981,8|8,3:3|3:3,0:0:0:0:
418,242,173742,5,6,1:2:0:0:
419,253,173814,1,0,3:0:0:0:
420,264,173885,2,0,L|425:320,1,56.9999982604981,0|0,3:2|3:0,0:0:0:0:
266,81,174028,5,2,1:2:0:0:
267,70,174099,1,0,3:0:0:0:
268,59,174171,2,0,L|272:1,1,56.9999982604981,2|0,3:2|3:0,0:0:0:0:
156,299,174314,5,0,1:2:0:0:
157,310,174385,1,0,3:0:0:0:
158,321,174457,2,0,L|162:379,1,56.9999982604981,0|0,3:2|3:0,0:0:0:0:
14,120,174599,5,2,1:2:0:0:
13,109,174671,1,0,3:0:0:0:
12,98,174742,2,0,L|8:40,1,56.9999982604981,0|0,3:2|3:0,0:0:0:0:
260,179,174885,5,4,1:2:0:0:
18,250,175028,1,2,3:2:0:0:
351,328,175171,5,2,1:2:0:0:
0,249,175314,1,2,3:2:0:0:
190,103,175457,6,0,L|197:45,1,56.9999982604981,2|0,1:2|3:0,0:0:0:0:
213,299,175599,2,0,L|220:357,1,56.9999982604981,2|0,3:2|3:0,0:0:0:0:
328,74,175742,6,0,L|335:16,1,56.9999982604981,2|0,1:2|3:0,0:0:0:0:
351,328,175885,2,0,L|358:386,1,56.9999982604981,2|0,3:2|3:0,0:0:0:0:
512,184,176028,5,6,1:2:0:0:
462,157,176099,1,0,3:0:0:0:
405,157,176171,1,0,3:2:0:0:
356,183,176242,1,0,3:0:0:0:
325,230,176314,2,0,L|386:236,3,56.9999982604981,2|0|2|0,1:2|3:0|3:2|3:0,0:0:0:0:
83,130,176599,5,0,1:2:0:0:
133,103,176671,1,0,3:0:0:0:
190,103,176742,1,0,3:2:0:0:
239,129,176814,1,0,3:0:0:0:
270,176,176885,2,0,L|208:182,3,56.9999982604981,2|0|0|0,1:2|3:0|3:2|3:0,0:0:0:0:
434,13,177171,5,6,1:2:0:0:
383,338,177314,1,2,3:2:0:0:
270,47,177457,5,2,1:2:0:0:
276,349,177599,1,2,3:2:0:0:
441,154,177742,6,0,L|381:165,1,56.9999982604981,2|0,1:2|3:0,0:0:0:0:
91,192,177885,2,0,L|151:203,1,56.9999982604981,10|0,3:3|3:0,0:0:0:0:
407,241,178028,6,0,L|347:252,1,56.9999982604981,2|0,1:2|3:0,0:0:0:0:
57,279,178171,2,0,L|117:290,1,56.9999982604981,10|0,3:3|3:0,0:0:0:0:
263,152,178314,5,6,1:2:0:0:
314,112,178385,1,0,3:0:0:0:
378,115,178457,1,0,3:2:0:0:
425,158,178528,1,0,3:0:0:0:
434,222,178599,1,2,1:2:0:0:
400,277,178671,1,0,3:0:0:0:
339,296,178742,1,2,3:2:0:0:
279,273,178814,1,0,3:0:0:0:
248,216,178885,5,0,1:2:0:0:
217,159,178957,1,0,3:0:0:0:
158,135,179028,1,0,3:2:0:0:
97,155,179099,1,0,3:0:0:0:
63,210,179171,1,2,1:2:0:0:
72,273,179242,1,0,3:0:0:0:
119,317,179314,1,0,3:2:0:0:
183,319,179385,1,0,3:0:0:0:
234,278,179457,5,4,1:2:0:0:
11,55,179599,1,4,1:2:0:0:
165,59,179742,2,0,L|157:142,1,76,2|2,0:2|0:2,0:0:0:0:
234,278,180028,2,0,L|242:195,1,76,2|2,0:2|0:2,0:0:0:0:
432,118,180314,1,2,1:2:0:0:
402,115,180385,1,0,1:2:0:0:
373,112,180457,1,2,1:2:0:0:
344,110,180528,1,0,1:2:0:0:
315,107,180599,5,6,3:2:0:0:
462,205,180742,1,2,0:2:0:0:
364,1,180885,1,2,1:2:0:0:
288,207,181028,2,0,B|273:253|273:253|231:279,1,95,2|0,0:2|3:2,0:0:0:0:
390,286,181314,2,0,B|405:332|405:332|447:358,1,95,2|0,0:2|1:2,0:0:0:0:
235,380,181599,1,2,0:2:0:0:
193,168,181742,5,2,3:2:0:0:
105,288,181885,1,2,0:2:0:0:
202,158,182028,1,2,1:2:0:0:
97,299,182171,2,0,L|0:294,1,95,2|0,0:2|3:2,0:0:0:0:
249,307,182457,1,2,0:2:0:0:
230,306,182528,1,2,0:2:0:0:
210,305,182599,1,2,1:2:0:0:
81,164,182742,1,2,0:2:0:0:
265,110,182885,6,0,P|282:154|271:202,1,95,2|2,3:2|0:2,0:0:0:0:
18,215,183171,2,0,P|1:171|12:123,1,95,2|2,1:2|0:2,0:0:0:0:
194,47,183457,1,2,3:2:0:0:
25,28,183599,1,2,0:2:0:0:
206,48,183742,1,2,1:2:0:0:
12,26,183885,1,2,0:2:0:0:
218,49,184028,6,0,B|350:34|350:34|330:83,1,178.125,6|0,3:2|0:0,0:0:0:0:
375,147,184314,1,2,1:2:0:0:
466,287,184457,1,2,0:2:0:0:
195,347,184599,1,2,1:2:0:0:
385,236,184742,1,2,0:2:0:0:
402,228,184814,1,2,0:2:0:0:
419,220,184885,1,2,1:2:0:0:
280,301,185028,1,2,3:2:0:0:
154,136,185171,6,0,P|200:120|246:136,1,95,6|2,3:2|0:2,0:0:0:0:
203,230,185457,1,2,1:2:0:0:
78,94,185599,2,0,L|72:0,1,95,2|0,0:2|3:2,0:0:0:0:
317,94,185885,2,0,L|323:0,1,95,2|0,0:2|1:2,0:0:0:0:
204,244,186171,1,2,0:2:0:0:
199,67,186314,5,2,3:2:0:0:
305,188,186457,1,2,0:2:0:0:
94,214,186599,1,2,1:2:0:0:
200,335,186742,2,0,L|304:332,1,95,2|0,0:2|3:2,0:0:0:0:
484,328,187028,1,2,0:2:0:0:
465,328,187099,1,2,0:2:0:0:
445,328,187171,1,2,1:2:0:0:
380,117,187314,1,2,0:2:0:0:
487,197,187457,6,0,B|444:221|444:221|397:211,1,95,2|2,3:2|0:2,0:0:0:0:
225,151,187742,1,2,1:2:0:0:
361,33,187885,1,2,0:2:0:0:
157,105,188028,2,0,P|142:152|155:194,1,95,2|2,3:2|0:2,0:0:0:0:
260,324,188314,1,2,1:2:0:0:
71,279,188457,1,2,0:2:0:0:
342,346,188599,6,0,B|354:324|354:298|338:277|321:255|321:255|315:212|345:183,1,178.125,6|0,3:2|0:0,0:0:0:0:
297,107,188885,1,2,1:2:0:0:
473,268,189028,1,2,0:2:0:0:
241,237,189171,1,2,1:2:0:0:
450,125,189314,1,2,0:2:0:0:
466,116,189385,1,2,0:2:0:0:
483,107,189457,1,2,1:2:0:0:
345,184,189599,1,2,3:2:0:0:
224,34,189742,6,0,L|122:19,1,95,6|2,3:2|0:2,0:0:0:0:
21,184,190028,1,2,1:2:0:0:
202,115,190171,2,0,L|178:208,1,95,2|0,0:2|3:2,0:0:0:0:
66,361,190457,2,0,L|42:268,1,95,2|0,0:2|1:2,0:0:0:0:
202,115,190742,1,2,0:2:0:0:
309,249,190885,5,2,3:2:0:0:
135,336,191028,1,2,0:2:0:0:
267,379,191171,1,2,1:2:0:0:
178,206,191314,2,0,L|202:115,1,95,2|0,0:2|3:2,0:0:0:0:
309,249,191599,1,2,0:2:0:0:
304,267,191671,1,2,0:2:0:0:
299,285,191742,1,2,1:2:0:0:
347,117,191885,1,2,0:2:0:0:
467,222,192028,5,2,3:2:0:0:
467,222,192171,1,2,0:2:0:0:
391,52,192314,2,0,P|347:36|302:50,1,95,2|2,1:2|0:2,0:0:0:0:
422,288,192599,2,0,P|466:304|511:290,1,95,2|2,3:2|0:2,0:0:0:0:
476,127,192885,2,0,L|465:241,1,95,2|2,1:2|0:2,0:0:0:0:
218,184,193171,6,0,B|277:177|277:177|331:204|331:204|392:197,1,178.125,6|0,3:2|0:0,0:0:0:0:
347,117,193457,1,2,1:2:0:0:
262,266,193599,1,2,0:2:0:0:
172,57,193742,1,2,1:2:0:0:
269,281,193885,1,2,0:2:0:0:
277,298,193957,1,2,0:2:0:0:
285,314,194028,1,2,1:2:0:0:
218,184,194171,1,2,3:2:0:0:
138,349,194314,6,0,L|42:335,1,95,6|2,3:2|0:2,0:0:0:0:
99,202,194599,1,2,1:2:0:0:
312,170,194742,2,0,L|216:184,1,95,2|0,0:2|3:2,0:0:0:0:
379,327,195028,2,0,L|283:313,1,95,2|0,0:2|1:2,0:0:0:0:
450,236,195314,1,2,0:2:0:0:
245,80,195457,5,2,3:2:0:0:
423,145,195599,1,2,0:2:0:0:
312,170,195742,1,2,1:2:0:0:
443,33,195885,2,0,L|346:54,1,95,2|0,0:2|3:2,0:0:0:0:
127,108,196171,1,2,0:2:0:0:
145,103,196242,1,2,0:2:0:0:
163,98,196314,1,2,1:2:0:0:
17,139,196457,1,2,0:2:0:0:
193,273,196599,6,0,P|208:225|195:178,1,95,2|2,3:2|0:2,0:0:0:0:
38,239,196885,2,0,P|23:287|36:334,1,95,2|2,1:2|0:2,0:0:0:0:
297,328,197171,1,2,3:2:0:0:
111,370,197314,1,2,0:2:0:0:
371,308,197457,1,2,1:2:0:0:
185,350,197599,1,2,0:2:0:0:
462,373,197742,6,0,B|453:340|453:340|461:302|461:302|452:264,1,109.250002083778,6|0,3:2|0:0,0:0:0:0:
188,43,198028,5,2,1:2:0:0:
133,284,198171,1,2,0:0:0:0:
438,187,198314,5,2,1:2:0:0:
121,124,198457,1,2,0:0:0:0:
100,115,198528,1,2,0:0:0:0:
79,106,198599,5,2,1:2:0:0:
357,47,198742,1,2,3:0:0:0:
277,284,198885,5,6,3:2:0:0:
73,29,199028,1,2,0:0:0:0:
441,105,199171,5,2,1:2:0:0:
57,275,199314,1,0,0:0:0:0:
272,11,199457,5,0,1:2:0:0:
372,301,199599,1,2,1:2:0:0:
380,321,199671,1,2,1:2:0:0:
389,337,199742,6,0,L|444:344,1,54.6250010418892,0|0,1:2|0:0,0:0:0:0:
205,178,199885,2,0,L|147:194,1,54.6250010418892,2|0,0:0|0:0,0:0:0:0:
441,105,200028,5,0,3:2:0:0:
256,192,200171,12,0,202885,0:0:0:0:
