osu file format v14

[General]
AudioFilename: audio.mp3
AudioLeadIn: 0
PreviewTime: 154171
Countdown: 0
SampleSet: Soft
StackLeniency: 0.4
Mode: 0
LetterboxInBreaks: 0
WidescreenStoryboard: 1

[Editor]
DistanceSpacing: 1.1
BeatDivisor: 4
GridSize: 8
TimelineZoom: 2.1

[Metadata]
Title:Manemane Psychotropic
TitleUnicode:マネマネサイコトロピック
Artist:Kairiki bear feat. GUMI
ArtistUnicode:かいりきベア feat. GUMI
Creator:Livermorium
Version:Hard
Source:
Tags:vocaloid Kairikibear megpoid jrock j-rock rock japanese imitation
BeatmapID:2734144
BeatmapSetID:1315151

[Difficulty]
HPDrainRate:4
CircleSize:3.5
OverallDifficulty:6
ApproachRate:8
SliderMultiplier:1.5
SliderTickRate:1

[Events]
//Background and Video events
0,0,"gumi.jpg",0,0
//Break Periods
2,146514,150135
//Storyboard Layer 0 (Background)
//Storyboard Layer 1 (Fail)
//Storyboard Layer 2 (Pass)
//Storyboard Layer 3 (Foreground)
//Storyboard Layer 4 (Overlay)
//Storyboard Sound Samples

[TimingPoints]
11457,285.714285714286,4,2,1,90,1,0
20599,-100,4,2,1,75,0,0
22314,-100,4,2,3,75,0,0
22599,-100,4,2,1,75,0,0
24028,-100,4,2,3,75,0,0
24171,-100,4,2,1,75,0,0
26314,-100,4,2,3,75,0,0
26599,-100,4,2,3,75,0,0
26742,-100,4,2,1,75,0,0
38885,-133.333333333333,4,2,1,75,0,0
48028,-100,4,2,1,90,0,1
63457,-100,4,2,3,90,0,1
63599,-100,4,2,1,90,0,1
66314,-100,4,2,20,90,0,1
67457,-100,4,2,1,90,0,0
70171,-100,4,2,3,90,0,0
70314,-100,4,2,1,90,0,0
70885,-125,4,2,1,65,0,0
75385,-125,4,2,1,5,0,0
75457,-125,4,2,1,65,0,0
77742,-125,4,2,1,75,0,0
78885,-125,4,2,1,75,0,0
79742,-125,4,2,1,75,0,0
80028,-100,4,2,1,75,0,0
88028,-100,4,2,3,75,0,0
88171,-100,4,2,1,75,0,0
90314,-100,4,2,3,75,0,0
90457,-100,4,2,1,75,0,0
93742,-166.666666666667,4,2,1,60,0,0
96028,-166.666666666667,4,2,1,30,0,0
97171,-100,4,2,1,75,0,0
98314,-90.9090909090909,4,2,1,90,0,1
113742,-90.9090909090909,4,2,3,90,0,1
113885,-90.9090909090909,4,2,1,90,0,1
116599,-90.9090909090909,4,2,20,90,0,1
117742,-90.9090909090909,4,2,1,90,0,0
118885,-125,4,2,1,60,0,0
128028,-100,4,2,1,75,0,0
137171,-111.111111111111,4,2,1,75,0,0
141742,-90.9090909090909,4,2,1,75,0,1
142885,-90.9090909090909,4,2,1,85,0,1
143457,-90.9090909090909,4,2,1,75,0,1
146314,-90.9090909090909,4,2,1,75,0,0
150885,-166.666666666667,4,2,1,50,0,0
152028,-166.666666666667,4,2,3,50,0,0
152171,-166.666666666667,4,2,1,50,0,0
154314,-90.9090909090909,4,2,1,75,0,0
155099,-90.9090909090909,4,2,1,5,0,0
155171,-90.9090909090909,4,2,1,75,0,0
155457,-90.9090909090909,4,2,1,90,0,1
173742,-90.9090909090909,4,2,20,90,0,1
179457,-100,4,2,1,90,0,0
180599,-100,4,2,1,75,0,0
200314,-100,4,2,1,70,0,0
200885,-86.9565217391304,4,2,1,65,0,0
201457,-86.9565217391304,4,2,1,50,0,0
202028,-86.9565217391304,4,2,1,35,0,0
202599,-86.9565217391304,4,2,1,20,0,0
202814,-86.9565217391304,4,2,1,10,0,0

[Colours]
Combo1 : 209,156,216
Combo2 : 107,170,239
Combo3 : 227,143,81
Combo4 : 173,219,98

[HitObjects]
256,184,11171,5,0,1:0:0:0:
256,184,11456,6,0,L|249:261,1,75,6|2,3:2|0:2,0:0:0:0:
321,318,11742,1,2,1:2:0:0:
321,318,11885,2,0,P|340:281|442:260,1,150,2|2,0:2|0:2,0:0:0:0:
462,175,12314,2,0,P|453:135|463:102,1,75,0|2,1:2|0:2,0:0:0:0:
396,40,12599,6,0,L|314:35,1,75,2|2,3:2|0:2,0:0:0:0:
243,70,12885,1,2,1:2:0:0:
243,70,13028,1,2,0:2:0:0:
97,17,13314,1,2,0:2:0:0:
97,17,13385,1,2,0:2:0:0:
97,17,13457,2,0,L|91:92,1,75,2|2,1:2|0:2,0:0:0:0:
149,170,13742,6,0,L|-5:184,2,150,2|2|2,3:2|1:2|3:2,0:0:0:0:
222,225,14457,1,2,0:2:0:0:
222,225,14599,2,0,P|260:234|299:224,1,75,2|2,1:2|0:2,0:0:0:0:
333,146,14885,6,0,B|308:75|383:84|350:5,2,150,6|2|2,3:2|1:2|1:2,0:0:0:0:
408,211,15599,1,2,0:2:0:0:
408,211,15671,1,2,0:2:0:0:
408,211,15742,2,0,L|397:291,1,75,2|2,1:2|3:2,0:0:0:0:
337,345,16028,6,0,B|297:334|297:334|253:351|253:351|184:341,1,150,6|2,3:2|1:2,0:0:0:0:
114,292,16457,2,0,P|156:247|237:262,1,150,2|2,0:2|0:2,0:0:0:0:
280,189,16885,2,0,L|274:109,1,75,0|2,1:2|0:2,0:0:0:0:
197,72,17171,6,0,P|162:86|127:76,2,75,2|2|2,3:2|0:2|1:2,0:0:0:0:
240,1,17599,1,2,0:2:0:0:
393,60,17885,1,2,0:2:0:0:
393,60,17957,1,2,0:2:0:0:
393,60,18028,2,0,L|380:138,1,75,2|2,1:2|0:2,0:0:0:0:
460,176,18314,6,0,B|487:148|487:148|475:33,2,150,2|2|2,3:2|1:2|3:2,0:0:0:0:
429,255,19028,1,2,0:2:0:0:
429,255,19171,2,0,P|434:301|451:328,1,75,2|2,1:2|0:2,0:0:0:0:
359,353,19457,6,0,P|286:369|219:339,2,150,6|2|2,3:2|1:2|1:2,0:0:0:0:
301,286,20171,1,2,0:2:0:0:
301,286,20242,1,2,0:2:0:0:
301,286,20314,1,2,1:2:0:0:
101,202,20599,6,0,B|96:256|96:256|114:298|114:298|107:352,2,150,6|2|2,3:2|1:2|3:2,0:0:0:0:
172,142,21314,1,2,0:2:0:0:
172,142,21457,2,0,P|211:155|250:146,1,75,2|2,1:2|0:2,0:0:0:0:
330,149,21742,2,0,P|321:108|294:79,1,75,2|2,3:2|0:2,0:0:0:0:
256,10,22028,2,0,P|225:37|213:75,1,75,2|2,1:2|0:2,0:0:0:0:
172,142,22314,2,0,P|117:161|44:103,1,150,4|2,3:2|1:2,0:0:0:0:
233,335,22885,6,0,L|155:321,2,75,2|2|2,3:2|0:2|1:2,0:0:0:0:
321,316,23314,1,2,0:2:0:0:
396,359,23457,2,0,L|422:208,1,150,2|2,3:2|1:2,0:0:0:0:
264,58,24028,1,8,3:1:0:0:
324,123,24171,1,2,0:2:0:0:
409,104,24314,2,0,L|428:22,1,75,2|2,1:2|0:2,0:0:0:0:
496,117,24599,2,0,L|510:269,1,150,2|2,3:2|1:2,0:0:0:0:
383,193,25171,5,6,3:2:0:0:
409,104,25314,1,2,0:2:0:0:
430,21,25457,2,0,P|391:11|359:22,1,75,2|2,1:2|0:2,0:0:0:0:
285,87,25742,2,0,P|263:55|260:13,2,75,2|2|2,3:2|0:0|1:2,0:0:0:0:
335,181,26171,1,2,0:2:0:0:
335,181,26314,2,0,L|181:173,1,150,4|2,3:2|1:2,0:0:0:0:
121,232,26742,1,2,0:2:0:0:
166,308,26885,2,0,P|206:320|247:310,1,75,2|2,3:2|0:2,0:0:0:0:
16,287,27314,1,2,0:2:0:0:
16,287,27457,6,0,L|27:135,1,150,6|2,3:2|1:2,0:0:0:0:
86,72,27885,1,2,0:2:0:0:
86,72,28028,1,2,3:2:0:0:
309,128,28314,1,2,1:2:0:0:
250,188,28457,1,2,0:2:0:0:
275,268,28599,2,0,L|429:274,2,150,2|2|2,3:1|1:2|1:2,0:0:0:0:
197,317,29314,2,0,L|116:312,2,75,10|10|0,3:3|3:3|3:2,0:0:0:0:
174,226,29742,6,0,P|162:188|176:148,1,75,6|2,3:2|0:2,0:0:0:0:
229,92,30028,1,2,1:2:0:0:
229,92,30171,1,2,0:2:0:0:
309,128,30314,2,0,L|395:119,2,75,2|2|2,3:2|0:2|1:2,0:0:0:0:
501,40,30885,2,0,L|415:31,2,75,2|2|2,3:2|0:2|1:2,0:0:0:0:
470,117,31314,2,0,P|452:174|484:260,1,150,2|0,0:2|0:0,0:0:0:0:
421,318,31742,1,2,1:2:0:0:
206,288,32028,5,2,3:2:0:0:
281,327,32171,1,2,0:2:0:0:
348,278,32314,2,0,L|338:197,1,75,2|2,1:2|0:2,0:0:0:0:
271,145,32599,2,0,P|229:169|131:130,1,150,2|2,3:2|1:2,0:0:0:0:
207,87,33028,1,2,0:2:0:0:
207,87,33171,2,0,L|217:6,2,75,2|2|2,3:2|0:2|1:2,0:0:0:0:
137,139,33599,2,0,L|152:289,1,150,2|0,0:2|0:0,0:0:0:0:
93,353,34028,1,2,1:2:0:0:
305,243,34314,6,0,P|332:293|285:376,2,150,6|2|2,3:2|1:2|3:2,0:0:0:0:
281,157,35028,1,2,0:2:0:0:
326,83,35171,1,2,1:2:0:0:
487,275,35457,2,0,L|415:251,1,75,2|2,3:2|0:2,0:0:0:0:
342,291,35742,2,0,L|264:309,1,75,2|2,1:2|0:2,0:0:0:0:
218,238,36028,2,0,L|146:214,1,75,2|2,3:2|0:2,0:0:0:0:
73,254,36314,2,0,L|-5:272,1,75,2|2,1:2|0:2,0:0:0:0:
32,180,36599,6,0,B|55:102|-18:115|7:23,1,150,6|2,3:2|1:2,0:0:0:0:
92,54,37028,2,0,P|133:81|224:37,1,150,2|2,0:2|0:2,0:0:0:0:
286,100,37457,2,0,L|273:178,1,75,0|2,1:2|0:2,0:0:0:0:
351,223,37742,2,0,P|393:209|436:224,1,75,6|2,3:2|3:2,0:0:0:0:
496,164,38028,1,2,1:2:0:0:
451,86,38171,1,2,3:2:0:0:
211,107,38599,2,0,L|289:99,1,75,0|0,1:2|1:0,0:0:0:0:
249,187,38885,6,0,P|167:188|128:65,1,225.000008583069,6|10,3:2|1:2,0:0:0:0:
59,14,39599,2,0,P|29:20|-6:11,2,56.2500021457673,2|10|2,0:2|3:2|3:2,0:0:0:0:
41,104,40028,2,0,L|52:217,1,112.500004291535,10|10,3:2|3:2,0:0:0:0:
130,261,40457,1,2,0:2:0:0:
130,261,40599,2,0,L|141:148,1,112.500004291535,8|10,1:2|3:2,0:0:0:0:
357,204,41171,6,0,P|304:221|243:197,1,112.500004291535,14|10,3:2|3:2,0:0:0:0:
305,137,41599,1,2,0:2:0:0:
305,137,41742,2,0,P|358:120|419:144,1,112.500004291535,10|10,1:2|3:2,0:0:0:0:
487,314,42314,6,0,L|482:251,1,56.2500021457673,10|0,0:2|1:0,0:0:0:0:
403,298,42599,1,10,3:2:0:0:
403,298,42742,1,2,0:2:0:0:
403,298,42885,2,0,L|289:293,1,112.500004291535,8|10,1:2|1:2,0:0:0:0:
221,241,43314,1,2,1:2:0:0:
139,277,43457,6,0,P|111:282|80:273,1,56.2500021457673,14|2,3:2|0:2,0:0:0:0:
123,199,43742,2,0,P|97:187|76:161,1,56.2500021457673,10|2,3:2|0:2,0:0:0:0:
152,120,44028,2,0,P|137:95|135:63,1,56.2500021457673,10|2,1:2|0:2,0:0:0:0:
219,78,44314,2,0,P|221:49|238:22,1,56.2500021457673,10|2,3:2|3:2,0:0:0:0:
302,77,44599,2,0,L|308:140,2,56.2500021457673,10|2|10,3:2|1:2|3:2,0:0:0:0:
369,25,45028,1,2,0:2:0:0:
369,25,45171,2,0,L|497:17,1,112.500004291535,8|10,1:2|1:2,0:0:0:0:
507,101,45599,1,2,1:2:0:0:
507,101,45742,5,4,0:2:0:0:
298,212,46885,5,4,3:2:0:0:
298,212,47028,1,4,1:2:0:0:
220,173,47171,1,4,1:2:0:0:
220,173,47314,1,4,3:2:0:0:
498,40,48028,6,0,B|419:13|419:13|337:32,1,150,6|2,3:2|1:2,0:0:0:0:
288,88,48457,2,0,P|344:129|417:92,1,150,2|2,0:2|0:2,0:0:0:0:
488,142,48885,2,0,L|495:217,1,75,0|2,1:2|0:2,0:0:0:0:
452,291,49171,5,2,3:2:0:0:
452,291,49314,1,2,0:2:0:0:
373,244,49457,2,0,P|333:234|303:246,1,75,2|2,1:2|0:2,0:0:0:0:
218,290,49742,2,0,L|210:133,1,150,2|2,3:2|1:2,0:0:0:0:
26,77,50314,5,2,3:2:0:0:
70,242,50599,1,2,1:2:0:0:
70,242,50742,2,0,P|26:249|-6:232,1,75,2|0,0:2|3:2,0:0:0:0:
83,325,51028,2,0,P|118:316|143:288,1,75,2|0,0:2|1:2,0:0:0:0:
192,213,51314,1,2,0:2:0:0:
272,255,51457,6,0,L|353:246,1,75,2|2,1:2|1:2,0:0:0:0:
413,193,51742,1,2,1:2:0:0:
353,127,51885,1,2,1:2:0:0:
493,22,52171,1,2,1:2:0:0:
493,22,52242,1,0,1:0:0:0:
493,22,52314,2,0,L|504:98,1,75,0|2,1:2|3:2,0:0:0:0:
408,60,52599,6,0,B|347:43|347:43|305:59|305:59|260:45,1,150,6|2,3:2|1:2,0:0:0:0:
268,132,53028,2,0,B|207:115|207:115|165:131|165:131|120:117,1,150,2|2,0:2|0:2,0:0:0:0:
87,37,53457,2,0,P|130:28|166:43,1,75,0|2,1:2|0:2,0:0:0:0:
125,118,53742,6,0,L|137:195,1,75,2|2,3:2|0:2,0:0:0:0:
93,267,54028,1,2,1:2:0:0:
143,340,54171,1,2,0:2:0:0:
226,310,54314,2,0,L|377:326,1,150,2|2,3:2|1:2,0:0:0:0:
416,157,54885,6,0,L|497:134,1,75,2|10,3:2|0:2,0:0:0:0:
292,103,55314,1,2,0:2:0:0:
292,103,55457,1,10,3:2:0:0:
381,251,55742,1,2,1:2:0:0:
381,251,55885,1,2,0:2:0:0:
257,197,56171,5,2,0:2:0:0:
257,197,56314,2,0,L|176:220,1,75,2|2,1:2|0:2,0:0:0:0:
103,247,56599,2,0,P|88:285|99:322,1,75,2|0,1:2|3:0,0:0:0:0:
173,370,56885,2,0,P|188:332|177:295,1,75,10|8,3:3|3:3,0:0:0:0:
269,325,57171,6,0,B|341:355|341:355|415:330,1,150,6|2,3:2|1:2,0:0:0:0:
346,262,57599,2,0,P|366:223|469:207,1,150,2|2,0:2|0:2,0:0:0:0:
464,118,58028,2,0,P|455:82|470:43,1,75,0|2,1:2|0:2,0:0:0:0:
381,22,58314,5,2,3:2:0:0:
381,22,58457,1,2,0:2:0:0:
322,89,58599,2,0,L|246:79,1,75,2|2,1:2|0:2,0:0:0:0:
169,34,58885,2,0,B|129:111|198:116|156:192,1,150,2|2,3:2|1:2,0:0:0:0:
151,350,59457,6,0,L|226:338,2,75,2|2|2,3:2|0:2|1:2,0:0:0:0:
76,303,59885,2,0,L|61:229,1,75,2|0,0:2|3:2,0:0:0:0:
147,250,60171,2,0,L|162:176,1,75,2|0,0:2|1:2,0:0:0:0:
120,99,60457,1,2,0:2:0:0:
182,37,60599,5,2,1:2:0:0:
182,37,60742,1,2,1:2:0:0:
259,77,60885,2,0,P|298:85|343:72,1,75,2|2,1:2|1:2,0:0:0:0:
425,235,61314,1,2,1:2:0:0:
425,235,61385,1,0,1:0:0:0:
425,235,61457,2,0,L|348:223,1,75,0|0,1:2|1:0,0:0:0:0:
283,278,61742,6,0,P|313:248|312:140,1,150,6|2,3:2|1:2,0:0:0:0:
370,79,62171,2,0,P|340:109|232:108,1,150,2|2,0:2|0:2,0:0:0:0:
159,156,62599,2,0,L|169:231,1,75,0|2,1:2|0:2,0:0:0:0:
143,317,62885,6,0,P|107:329|69:318,1,75,2|2,3:2|0:2,0:0:0:0:
16,235,63171,2,0,P|52:247|90:236,1,75,2|2,1:2|0:2,0:0:0:0:
159,156,63457,2,0,P|123:168|85:157,1,75,4|0,3:2|0:0,0:0:0:0:
32,74,63742,2,0,P|68:86|106:75,1,75,2|0,1:2|0:0,0:0:0:0:
189,35,64028,6,0,L|268:52,1,75,2|10,3:2|0:2,0:0:0:0:
441,89,64457,1,2,0:2:0:0:
441,89,64599,1,10,3:2:0:0:
260,142,64885,1,2,1:2:0:0:
260,142,65028,1,2,0:2:0:0:
512,196,65314,5,2,0:2:0:0:
512,196,65457,2,0,L|433:179,1,75,2|2,1:2|0:2,0:0:0:0:
387,250,65742,2,0,L|404:329,1,75,2|0,1:2|3:0,0:0:0:0:
318,365,66028,2,0,L|274:360,3,37.5,10|8|8|8,3:3|3:3|3:3|3:3,0:0:0:0:
249,334,66314,6,0,P|234:296|247:252,1,75,6|0,1:2|3:2,0:0:0:0:
247,172,66599,2,0,P|286:177|318:211,1,75,6|0,1:2|3:2,0:0:0:0:
387,250,66885,2,0,P|362:281|316:291,1,75,4|0,1:2|3:2,0:0:0:0:
241,263,67171,1,6,1:2:0:0:
241,263,67314,1,0,3:2:0:0:
161,306,67457,5,6,1:2:0:0:
88,255,67599,1,6,1:2:0:0:
36,80,68599,5,6,1:2:0:0:
102,134,68742,2,0,L|262:119,1,150,0|0,1:0|1:0,0:0:0:0:
452,207,69314,1,0,3:0:0:0:
370,189,69457,2,0,L|331:180,3,37.5,8|8|8|8,1:3|1:3|1:3|1:3,0:0:0:0:
313,142,69742,6,0,L|298:58,1,75,4|0,3:2|3:0,0:0:0:0:
388,82,70028,1,0,1:0:0:0:
476,58,70171,2,0,L|451:211,1,150,4|0,3:2|3:0,0:0:0:0:
398,277,70599,2,0,L|325:292,1,75,0|0,1:2|3:0,0:0:0:0:
237,294,70885,6,0,L|119:274,2,120,6|2|2,3:2|3:2|3:2,0:0:0:0:
224,210,71599,1,2,0:2:0:0:
224,210,71742,2,0,P|218:171|226:146,1,60,2|2,3:2|0:2,0:0:0:0:
294,103,72028,2,0,L|359:114,2,60,2|2|2,3:2|0:2|3:2,0:0:0:0:
231,47,72457,1,2,0:2:0:0:
231,47,72599,2,0,L|111:64,1,120,2|2,3:2|3:2,0:0:0:0:
6,236,73171,6,0,P|67:263|121:245,2,120,10|2|2,3:2|3:2|3:2,0:0:0:0:
70,175,73885,1,2,0:2:0:0:
70,175,74028,2,0,P|65:145|76:115,1,60,2|2,3:2|0:2,0:0:0:0:
60,38,74314,2,0,L|-7:41,2,60,2|2|2,3:2|0:2|3:2,0:0:0:0:
140,64,74742,2,0,P|194:91|253:77,1,120,2|0,0:2|0:0,0:0:0:0:
333,100,75171,2,0,P|318:150|331:196,1,90,10|0,3:3|0:0,0:0:0:0:
314,220,75457,6,0,L|251:209,2,60,2|2|2,3:2|0:2|3:2,0:0:0:0:
374,343,76028,2,0,L|437:332,2,60,2|2|2,3:2|0:2|3:2,0:0:0:0:
396,258,76457,1,2,0:2:0:0:
396,258,76599,6,0,P|391:227|402:197,1,60,2|2,3:2|0:2,0:0:0:0:
446,134,76885,2,0,P|451:103|440:73,1,60,10|2,3:3|0:2,0:0:0:0:
371,27,77171,2,0,L|433:22,2,60,2|2|2,3:2|0:2|3:2,0:0:0:0:
296,69,77599,1,2,0:2:0:0:
223,30,77742,6,0,L|94:15,1,120,6|2,3:2|3:2,0:0:0:0:
147,240,78314,1,2,3:2:0:0:
147,240,78457,1,2,0:2:0:0:
147,240,78599,2,0,L|137:162,1,60,0|2,1:2|0:2,0:0:0:0:
128,97,78885,5,6,3:2:0:0:
371,260,79742,1,2,1:2:0:0:
407,334,79885,1,0,3:0:0:0:
367,245,80028,6,0,P|358:202|366:168,1,75,6|2,3:2|0:2,0:0:0:0:
427,114,80314,2,0,P|391:139|280:110,1,150,2|2,1:2|3:2,0:0:0:0:
230,67,80742,1,2,0:2:0:0:
172,131,80885,2,0,P|134:142|98:131,1,75,2|2,1:2|0:2,0:0:0:0:
36,74,81171,2,0,L|27:-2,2,75,2|2|2,3:2|0:2|1:2,0:0:0:0:
18,157,81599,2,0,L|3:313,1,150,2|0,0:2|0:0,0:0:0:0:
73,361,82028,1,2,1:2:0:0:
274,329,82314,6,0,L|198:317,1,75,2|2,3:2|0:2,0:0:0:0:
191,234,82599,2,0,L|239:174,1,75,2|2,1:2|0:2,0:0:0:0:
314,210,82885,2,0,L|341:281,1,75,2|2,3:2|0:2,0:0:0:0:
415,314,83171,2,0,L|463:256,1,75,2|2,1:2|0:2,0:0:0:0:
454,173,83457,2,0,L|379:161,2,75,2|2|2,3:2|0:2|1:2,0:0:0:0:
429,91,83885,2,0,P|359:81|301:131,1,150,2|0,0:2|0:0,0:0:0:0:
314,210,84314,1,2,1:2:0:0:
111,151,84599,6,0,L|95:77,2,75,6|2|2,3:2|0:2|1:2,0:0:0:0:
133,231,85028,1,2,0:2:0:0:
152,310,85171,6,0,L|136:384,2,75,2|2|2,3:2|0:2|1:2,0:0:0:0:
174,230,85599,1,2,0:2:0:0:
193,151,85742,6,0,L|177:77,2,75,2|2|2,3:2|0:2|1:2,0:0:0:0:
215,231,86171,1,2,0:2:0:0:
234,310,86314,6,0,L|218:384,2,75,2|2|2,3:2|0:2|1:2,0:0:0:0:
256,230,86742,1,2,0:2:0:0:
275,151,86885,6,0,L|239:-11,1,150,2|2,3:2|1:2,0:0:0:0:
335,26,87314,1,2,0:2:0:0:
335,26,87457,2,0,P|376:36|416:23,1,75,2|2,3:2|0:2,0:0:0:0:
470,88,87742,2,0,L|455:165,1,75,2|2,1:2|0:2,0:0:0:0:
434,244,88028,6,0,L|450:318,2,75,4|2|0,3:3|3:2|1:2,0:0:0:0:
353,216,88457,1,2,3:2:0:0:
188,330,88742,1,0,3:0:0:0:
188,330,88885,1,0,1:2:0:0:
70,157,89171,5,4,1:2:0:0:
70,157,89314,1,0,1:2:0:0:
70,157,90028,2,0,L|146:168,1,75,0|0,1:2|3:2,0:0:0:0:
203,74,90314,2,0,L|127:85,2,75,4|0|0,1:3|3:0|3:0,0:0:0:0:
260,142,90742,2,0,P|318:163|392:123,1,150,0|0,1:0|3:0,0:0:0:0:
316,77,91171,1,0,1:0:0:0:
418,320,91457,5,4,1:2:0:0:
418,320,91599,1,0,1:2:0:0:
418,320,92314,2,0,L|340:301,1,75,0|2,1:2|3:2,0:0:0:0:
292,231,92599,2,0,P|286:188|301:157,2,75,4|0|0,1:2|3:0|3:0,0:0:0:0:
232,299,93028,2,0,P|182:319|102:277,1,150,0|0,1:0|3:0,0:0:0:0:
33,323,93457,1,0,1:0:0:0:
202,192,93742,6,0,L|113:198,3,89.9999972534181,6|2|6|2,3:2|3:2|3:3|3:0,0:0:0:0:
309,192,94885,6,0,L|399:198,3,89.9999972534181,6|2|4|2,3:2|3:2|3:3|1:2,0:0:0:0:
256,104,96028,5,2,0:0:0:0:
256,120,97171,5,4,3:2:0:0:
256,120,97314,1,4,1:2:0:0:
227,200,97457,1,4,1:2:0:0:
227,200,97599,1,4,3:2:0:0:
433,79,98028,2,0,L|442:120,3,37.5,0|0|0|0,1:0|1:0|1:0|1:0,0:0:0:0:
424,154,98314,6,0,P|401:215|434:308,1,165.000005035401,6|2,3:2|1:2,0:0:0:0:
354,346,98742,2,0,B|279:299|271:384|195:347,1,165.000005035401,2|2,0:2|0:2,0:0:0:0:
124,299,99171,2,0,P|77:285|43:298,1,82.5000025177003,0|2,1:2|0:2,0:0:0:0:
31,206,99457,6,0,L|46:122,1,82.5000025177003,2|2,3:2|0:2,0:0:0:0:
111,60,99742,1,2,1:2:0:0:
111,60,99885,1,2,0:2:0:0:
180,118,100028,2,0,B|212:148|212:148|338:127,1,165.000005035401,2|2,3:2|1:2,0:0:0:0:
495,260,100599,6,0,P|425:266|380:192,1,165.000005035401,2|2,3:2|1:2,0:0:0:0:
457,145,101028,2,0,P|469:105|499:75,1,82.5000025177003,2|0,0:2|3:2,0:0:0:0:
383,75,101314,2,0,P|371:35|341:5,1,82.5000025177003,2|0,0:2|1:2,0:0:0:0:
296,79,101599,1,2,0:2:0:0:
215,42,101742,5,2,1:2:0:0:
215,42,101885,1,2,1:2:0:0:
137,92,102028,2,0,L|51:77,1,82.5000025177003,2|2,1:2|1:2,0:0:0:0:
117,273,102457,1,2,1:2:0:0:
117,273,102528,1,0,1:0:0:0:
117,273,102599,2,0,L|203:258,1,82.5000025177003,0|2,1:2|3:2,0:0:0:0:
282,293,102885,6,0,P|235:263|236:160,1,165.000005035401,6|2,3:2|1:2,0:0:0:0:
314,209,103314,2,0,P|378:281|353:349,1,165.000005035401,2|2,0:2|0:2,0:0:0:0:
277,370,103742,2,0,L|192:348,1,82.5000025177003,0|2,1:2|0:2,0:0:0:0:
104,367,104028,5,2,3:2:0:0:
30,160,104314,1,2,1:2:0:0:
30,160,104457,1,2,0:2:0:0:
37,248,104599,2,0,P|98:217|109:115,1,165.000005035401,2|2,3:2|1:2,0:0:0:0:
350,75,105171,5,2,3:2:0:0:
350,75,105314,2,0,L|262:59,1,82.5000025177003,10|2,0:2|1:2,0:0:0:0:
196,114,105599,2,0,L|114:128,2,82.5000025177003,2|10|2,0:2|3:2|0:2,0:0:0:0:
254,186,106028,1,2,1:2:0:0:
254,186,106171,2,0,L|342:202,1,82.5000025177003,10|2,0:2|3:2,0:0:0:0:
408,147,106457,6,0,L|489:132,2,82.5000025177003,2|2|2,0:2|1:2|0:2,0:0:0:0:
464,225,106885,2,0,P|477:265|467:307,1,82.5000025177003,2|0,1:2|3:0,0:0:0:0:
379,311,107171,2,0,P|366:271|376:229,1,82.5000025177003,10|8,3:3|3:3,0:0:0:0:
408,147,107457,6,0,P|385:103|274:97,1,165.000005035401,6|2,3:2|1:2,0:0:0:0:
214,156,107885,2,0,B|185:162|165:171|148:201|148:201|127:172|108:163|79:157,1,165.000005035401,2|2,0:2|0:2,0:0:0:0:
71,249,108314,2,0,L|90:333,1,82.5000025177003,0|2,1:2|0:2,0:0:0:0:
165,379,108599,5,2,3:2:0:0:
243,335,108742,1,2,0:0:0:0:
229,245,108885,2,0,L|309:266,1,82.5000025177003,2|2,1:2|0:2,0:0:0:0:
387,322,109171,2,0,P|307:295|242:335,1,165.000005035401,2|2,3:2|1:2,0:0:0:0:
145,179,109742,6,0,L|135:95,2,82.5000025177003,2|2|2,3:2|0:2|1:2,0:0:0:0:
229,137,110171,2,0,L|219:53,1,82.5000025177003,2|0,0:2|3:2,0:0:0:0:
303,13,110457,2,0,L|313:95,1,82.5000025177003,2|0,0:2|1:2,0:0:0:0:
381,151,110742,1,2,0:2:0:0:
463,121,110885,5,2,1:2:0:0:
463,121,111028,1,2,1:2:0:0:
506,200,111171,1,2,1:2:0:0:
506,200,111314,1,2,1:2:0:0:
342,346,111599,1,2,1:2:0:0:
342,346,111671,1,0,1:0:0:0:
342,346,111742,2,0,P|382:356|419:342,1,82.5000025177003,0|2,1:2|3:2,0:0:0:0:
375,263,112028,6,0,B|304:213|281:299|214:261,1,165.000005035401,6|2,3:2|1:2,0:0:0:0:
145,205,112457,2,0,B|148:160|177:130|177:130|216:138|245:172,1,165.000005035401,2|2,0:2|0:2,0:0:0:0:
332,148,112885,1,2,1:2:0:0:
332,148,113028,1,2,0:2:0:0:
366,63,113171,6,0,P|331:39|290:38,1,82.5000025177003,2|2,3:2|0:2,0:0:0:0:
205,53,113457,2,0,P|170:29|129:28,1,82.5000025177003,2|2,1:2|0:2,0:0:0:0:
50,76,113742,2,0,P|47:122|152:158,1,165.000005035401,4|2,3:2|1:2,0:0:0:0:
291,333,114314,5,2,3:2:0:0:
291,333,114457,2,0,P|252:350|209:341,1,82.5000025177003,10|2,0:2|1:2,0:0:0:0:
131,310,114742,2,0,P|90:303|53:320,2,82.5000025177003,2|10|0,0:2|3:2|0:0,0:0:0:0:
203,259,115171,1,2,1:2:0:0:
203,259,115314,2,0,P|220:220|211:177,1,82.5000025177003,10|2,0:2|3:2,0:0:0:0:
179,100,115599,6,0,P|172:59|189:22,2,82.5000025177003,2|2|2,0:2|1:2|0:2,0:0:0:0:
269,111,116028,2,0,L|354:97,1,82.5000025177003,2|0,1:2|3:0,0:0:0:0:
428,147,116314,2,0,L|424:189,3,41.2500012588501,10|8|8|8,3:3|3:3|3:3|3:3,0:0:0:0:
441,223,116599,6,0,P|457:266|491:292,1,82.5000025177003,6|0,1:2|3:2,0:0:0:0:
377,282,116885,2,0,P|373:327|393:365,1,82.5000025177003,4|0,1:2|3:2,0:0:0:0:
294,300,117171,2,0,P|264:335|259:377,1,82.5000025177003,4|0,1:2|3:2,0:0:0:0:
218,258,117457,1,6,1:2:0:0:
218,258,117599,1,0,3:2:0:0:
291,218,117742,5,6,1:2:0:0:
285,137,117885,1,6,1:2:0:0:
55,266,118599,1,2,1:2:0:0:
55,266,118742,1,2,3:2:0:0:
100,192,118885,6,0,L|90:70,1,120,6|2,3:2|3:2,0:0:0:0:
168,23,119314,1,2,0:0:0:0:
168,23,119457,2,0,P|199:32|231:23,2,60,2|2|2,3:2|0:0|3:2,0:0:0:0:
389,111,120028,6,0,L|384:176,1,60,6|2,3:2|0:0,0:0:0:0:
299,189,120314,1,2,3:2:0:0:
299,189,120457,2,0,P|262:171|185:195,1,120,2|2,0:0|0:0,0:0:0:0:
247,257,120885,1,2,3:2:0:0:
434,343,121171,6,0,P|447:314|444:281,2,60,6|2|2,3:2|0:0|3:2,0:0:0:0:
360,296,121599,2,0,L|234:252,1,120,2|2,0:0|0:0,0:0:0:0:
170,288,122028,2,0,L|161:347,1,60,2|2,3:2|0:0,0:0:0:0:
83,317,122314,6,0,L|74:376,2,60,6|2|2,3:2|0:0|3:2,0:0:0:0:
42,242,122742,2,0,L|168:198,1,120,2|0,0:0|0:0,0:0:0:0:
215,132,123171,2,0,L|212:94,3,30,2|0|0|0,1:2|1:2|1:2|1:2,0:0:0:0:
239,62,123457,6,0,P|271:45|356:60,1,120,6|2,3:2|3:2,0:0:0:0:
358,139,123885,2,0,P|341:171|356:256,1,120,2|2,0:0|0:0,0:0:0:0:
492,135,124457,1,2,0:0:0:0:
441,202,124599,5,6,3:2:0:0:
441,202,124742,1,2,0:0:0:0:
490,277,124885,1,2,3:2:0:0:
490,277,125028,1,2,0:0:0:0:
481,362,125171,2,0,L|343:353,1,120,2|2,3:2|3:2,0:0:0:0:
214,187,125742,5,6,3:2:0:0:
214,187,125885,2,0,P|254:221|322:216,1,120,2|2,0:0|0:0,0:0:0:0:
283,142,126314,2,0,P|288:109|357:59,1,120,2|2,3:2|3:2,0:0:0:0:
367,143,126742,1,2,0:0:0:0:
422,211,126885,6,0,L|412:337,2,120,4|2|2,3:2|1:2|0:0,0:0:0:0:
482,155,127599,1,2,0:0:0:0:
482,155,127671,1,2,0:0:0:0:
482,155,127742,2,0,L|471:83,1,60,2|2,0:0|0:0,0:0:0:0:
403,42,128028,6,0,L|252:55,1,150,6|2,3:2|1:2,0:0:0:0:
188,113,128457,2,0,B|127:102|127:102|90:117|90:117|39:108,1,150,2|2,0:2|0:2,0:0:0:0:
51,197,128885,2,0,P|62:232|50:272,1,75,0|2,1:2|0:2,0:0:0:0:
126,309,129171,6,0,L|202:300,1,75,2|2,3:2|0:2,0:0:0:0:
274,254,129457,1,2,1:2:0:0:
340,310,129599,1,2,0:2:0:0:
399,158,129885,1,2,0:2:0:0:
399,158,129957,1,2,0:2:0:0:
399,158,130028,2,0,P|361:168|323:157,1,75,2|2,1:2|0:2,0:0:0:0:
269,91,130314,6,0,L|282:13,1,75,2|2,3:2|0:2,0:0:0:0:
365,31,130599,2,0,P|403:41|441:30,1,75,2|2,1:2|0:2,0:0:0:0:
482,105,130885,2,0,L|495:183,1,75,2|2,3:2|0:2,0:0:0:0:
443,250,131171,2,0,L|430:328,1,75,2|2,1:2|0:2,0:0:0:0:
337,330,131457,6,0,B|266:294|268:371|187:334,2,150,6|2|2,3:2|1:2|1:2,0:0:0:0:
349,247,132171,1,2,0:2:0:0:
349,247,132242,1,2,0:2:0:0:
349,247,132314,2,0,P|311:233|277:239,1,75,2|2,1:2|3:2,0:0:0:0:
192,259,132599,6,0,P|174:224|185:173,1,75,6|2,3:2|0:2,0:0:0:0:
239,129,132885,2,0,L|277:121,2,37.5,2|2|2,1:2|0:2|0:2,0:0:0:0:
193,53,133171,2,0,L|116:40,1,75,2|2,3:2|0:2,0:0:0:0:
41,85,133457,1,2,1:2:0:0:
5,167,133599,6,0,P|21:243|87:281,1,150,2|2,0:2|0:2,0:0:0:0:
167,287,134028,2,0,L|160:326,3,37.5,2|2|2|2,1:2|0:2|0:2|0:2,0:0:0:0:
179,360,134314,2,0,L|261:345,1,75,2|2,3:2|0:2,0:0:0:0:
330,304,134599,1,2,1:2:0:0:
262,247,134742,6,0,P|263:205|348:148,1,150,2|2,0:2|0:2,0:0:0:0:
395,76,135171,1,2,1:2:0:0:
395,76,135314,1,2,0:2:0:0:
305,52,135457,2,0,L|232:34,1,75,2|2,3:2|0:2,0:0:0:0:
206,50,135671,1,2,0:2:0:0:
206,50,135742,2,0,P|209:89|191:127,1,75,2|2,1:2|0:2,0:0:0:0:
127,177,136028,5,6,1:2:0:0:
127,177,136171,1,2,3:2:0:0:
179,245,136314,1,2,1:2:0:0:
118,308,136457,1,2,3:2:0:0:
190,237,136599,2,0,P|227:232|261:246,1,75,2|10,1:2|3:3,0:0:0:0:
287,265,136814,1,10,3:3:0:0:
287,265,136885,2,0,P|321:279|358:274,1,75,10|2,1:3|3:2,0:0:0:0:
410,195,137171,6,0,L|396:57,2,134.999995880127,14|8|8,3:2|1:2|3:2,0:0:0:0:
281,24,138028,1,8,1:2:0:0:
150,194,138314,6,0,L|164:56,2,134.999995880127,10|8|10,3:2|1:2|3:2,0:0:0:0:
79,241,139028,1,2,0:2:0:0:
11,191,139171,1,10,1:2:0:0:
181,329,139457,6,0,B|118:296|120:362|43:326,2,134.999995880127,10|10|10,3:2|1:2|3:2,0:0:0:0:
259,293,140171,1,2,0:2:0:0:
226,215,140314,1,10,1:2:0:0:
424,241,140599,6,0,L|346:231,1,67.4999979400635,10|2,3:2|0:2,0:0:0:0:
354,146,140885,2,0,L|276:156,1,67.4999979400635,10|2,1:2|0:2,0:0:0:0:
217,105,141171,1,10,3:2:0:0:
380,14,141457,1,10,1:2:0:0:
446,69,141599,1,0,1:0:0:0:
446,69,141671,1,0,1:0:0:0:
446,69,141742,6,0,L|453:117,7,41.2500012588501,12|0|0|0|8|0|0|0,1:2|1:2|1:2|1:2|1:2|1:2|1:2|1:2,0:0:0:0:
426,145,142314,2,0,L|419:194,7,41.2500012588501,8|0|0|0|8|0|0|0,1:2|1:2|1:2|1:2|1:2|1:2|1:2|1:2,0:0:0:0:
437,223,142885,6,0,L|451:306,1,82.5000025177003,12|0,1:2|1:2,0:0:0:0:
375,349,143171,2,0,L|293:334,1,82.5000025177003,8|0,1:2|1:2,0:0:0:0:
205,313,143457,2,0,L|167:281,2,41.2500012588501,8|0|0,1:2|1:2|1:2,0:0:0:0:
210,207,143742,2,0,P|169:195|132:207,1,82.5000025177003,8|0,1:2|1:2,0:0:0:0:
85,120,144028,5,12,1:2:0:0:
96,117,144099,1,0,1:2:0:0:
108,114,144171,1,0,1:2:0:0:
173,66,144314,2,0,L|162:23,2,41.2500012588501,8|0|0,1:2|1:2|1:2,0:0:0:0:
223,143,144599,2,0,L|212:186,2,41.2500012588501,8|0|0,1:2|1:2|1:2,0:0:0:0:
286,73,144885,2,0,L|291:29,2,41.2500012588501,8|0|0,1:2|1:2|1:2,0:0:0:0:
362,116,145171,6,0,L|351:197,1,82.5000025177003,12|0,1:2|3:0,0:0:0:0:
428,246,145457,2,0,L|439:165,1,82.5000025177003,0|0,1:2|3:0,0:0:0:0:
467,80,145742,1,8,3:3:0:0:
398,23,145885,1,8,3:3:0:0:
398,23,146028,2,0,P|357:37|313:26,1,82.5000025177003,2|2,3:2|3:0,0:0:0:0:
237,0,146314,5,6,3:2:0:0:
208,280,150885,6,0,L|113:268,1,89.9999972534181,4|0,3:2|3:2,0:0:0:0:
42,131,151457,2,0,L|137:143,1,89.9999972534181,0|0,3:2|3:2,0:0:0:0:
304,280,152028,6,0,L|399:268,1,89.9999972534181,6|0,3:1|3:2,0:0:0:0:
470,131,152599,2,0,L|375:143,1,89.9999972534181,0|0,3:2|3:2,0:0:0:0:
256,192,153171,5,4,3:2:0:0:
256,192,154314,6,0,L|256:105,1,82.5000025177003,8|0,3:3|1:0,0:0:0:0:
320,52,154599,1,0,1:0:0:0:
394,96,154742,1,0,1:0:0:0:
476,71,154885,2,0,B|505:99|505:99|496:186,1,123.75000377655,0|0,1:0|0:0,0:0:0:0:
491,210,155171,2,0,L|450:217,3,41.2500012588501,0|0|0|0,1:0|1:0|1:0|1:0,0:0:0:0:
420,245,155457,6,0,B|339:218|339:218|264:248,1,165.000005035401,6|2,3:2|1:2,0:0:0:0:
190,304,155885,2,0,B|160:333|160:333|43:283,1,165.000005035401,2|2,0:2|0:2,0:0:0:0:
0,211,156314,2,0,P|38:193|86:209,1,82.5000025177003,0|2,1:2|0:2,0:0:0:0:
167,185,156599,5,2,3:2:0:0:
167,185,156742,1,2,0:2:0:0:
122,102,156885,1,2,1:2:0:0:
122,102,157028,1,2,0:2:0:0:
193,48,157171,2,0,L|366:37,1,165.000005035401,2|2,3:2|1:2,0:0:0:0:
484,191,157742,6,0,P|431:212|359:142,1,165.000005035401,2|2,3:2|1:2,0:0:0:0:
270,122,158171,2,0,P|245:154|242:197,1,82.5000025177003,2|0,0:2|3:2,0:0:0:0:
178,257,158457,2,0,P|210:282|253:285,1,82.5000025177003,2|0,0:2|1:2,0:0:0:0:
323,343,158742,1,2,0:2:0:0:
394,291,158885,6,0,L|380:209,1,82.5000025177003,2|2,1:2|1:2,0:0:0:0:
419,129,159171,1,2,1:2:0:0:
376,52,159314,1,2,1:2:0:0:
206,141,159599,1,2,1:2:0:0:
206,141,159671,1,0,1:0:0:0:
206,141,159742,2,0,L|124:135,1,82.5000025177003,0|2,1:2|3:2,0:0:0:0:
37,76,160028,6,0,P|84:96|174:33,1,165.000005035401,6|2,3:2|1:2,0:0:0:0:
258,44,160457,2,0,P|296:57|339:46,1,82.5000025177003,2|0,0:2|3:2,0:0:0:0:
385,123,160742,2,0,L|372:205,2,82.5000025177003,2|0|2,0:2|1:2|0:2,0:0:0:0:
466,79,161171,5,2,3:2:0:0:
466,79,161314,1,2,0:0:0:0:
502,159,161457,1,2,1:2:0:0:
502,159,161599,1,2,0:2:0:0:
463,236,161742,2,0,B|440:270|422:335|422:335|407:309|372:294,1,165.000005035401,2|2,3:2|1:2,0:0:0:0:
196,249,162314,5,2,3:2:0:0:
196,249,162457,2,0,P|229:278|270:279,1,82.5000025177003,10|2,0:2|1:2,0:0:0:0:
335,215,162742,5,2,0:2:0:0:
335,215,162885,2,0,P|343:172|324:136,1,82.5000025177003,10|2,3:2|0:2,0:0:0:0:
236,111,163171,5,2,1:2:0:0:
236,111,163314,2,0,P|195:125|173:160,1,82.5000025177003,10|2,0:2|3:2,0:0:0:0:
196,249,163599,6,0,L|185:332,2,82.5000025177003,2|2|2,0:2|1:2|0:2,0:0:0:0:
293,297,164028,2,0,P|334:309|378:294,1,82.5000025177003,2|0,1:2|3:0,0:0:0:0:
413,216,164314,2,0,P|372:204|328:219,1,82.5000025177003,10|8,3:3|3:3,0:0:0:0:
269,146,164599,6,0,P|251:102|316:14,1,165.000005035401,6|2,3:2|1:2,0:0:0:0:
415,43,165028,2,0,P|455:52|490:84,1,82.5000025177003,2|0,0:2|3:2,0:0:0:0:
410,133,165314,2,0,P|370:124|335:92,1,82.5000025177003,2|0,0:2|1:2,0:0:0:0:
313,14,165599,1,2,0:2:0:0:
228,39,165742,6,0,L|144:18,1,82.5000025177003,2|2,3:2|0:2,0:0:0:0:
72,68,166028,1,2,1:2:0:0:
136,129,166171,1,2,0:2:0:0:
82,201,166314,2,0,L|90:368,1,165.000005035401,2|2,3:2|1:2,0:0:0:0:
286,319,166885,6,0,P|232:315|198:217,1,165.000005035401,2|2,3:2|1:2,0:0:0:0:
285,235,167314,2,0,B|314:229|334:220|351:190|351:190|372:219|391:228|420:234,1,165.000005035401,2|2,0:2|0:2,0:0:0:0:
508,166,167742,2,0,P|469:148|419:159,1,82.5000025177003,0|2,1:2|0:2,0:0:0:0:
337,87,168028,5,2,1:2:0:0:
337,87,168171,1,2,1:2:0:0:
258,127,168314,1,2,1:2:0:0:
258,127,168457,1,2,1:2:0:0:
94,29,168742,1,2,1:2:0:0:
94,29,168814,1,0,1:0:0:0:
94,29,168885,2,0,L|76:119,1,82.5000025177003,0|2,1:2|3:2,0:0:0:0:
181,90,169171,6,0,B|262:45|253:130|347:83,1,165.000005035401,6|2,3:2|1:2,0:0:0:0:
412,36,169599,2,0,B|436:2|436:2|452:124,1,165.000005035401,2|2,0:2|0:2,0:0:0:0:
415,214,170028,2,0,L|334:198,1,82.5000025177003,2|2,1:2|0:2,0:0:0:0:
265,262,170314,2,0,L|291:340,1,82.5000025177003,2|2,3:2|0:2,0:0:0:0:
381,366,170599,2,0,L|435:303,1,82.5000025177003,2|2,1:2|0:2,0:0:0:0:
415,214,170885,2,0,L|232:177,1,165.000005035401,2|2,3:2|1:2,0:0:0:0:
101,70,171457,5,2,3:2:0:0:
101,70,171599,2,0,L|82:154,1,82.5000025177003,10|2,0:2|1:2,0:0:0:0:
157,211,171885,5,2,0:2:0:0:
157,211,172028,2,0,L|176:127,1,82.5000025177003,10|2,3:2|0:2,0:0:0:0:
253,182,172314,5,2,1:2:0:0:
253,182,172457,2,0,L|234:266,1,82.5000025177003,10|2,0:2|3:2,0:0:0:0:
278,342,172742,6,0,P|313:356|359:345,2,82.5000025177003,2|2|2,0:2|1:2|0:2,0:0:0:0:
188,358,173171,2,0,L|105:350,1,82.5000025177003,2|0,1:2|3:0,0:0:0:0:
60,271,173457,2,0,L|107:263,3,41.2500012588501,10|8|8|8,3:3|3:3|3:3|3:3,0:0:0:0:
135,231,173742,6,0,P|151:194|139:146,1,82.5000025177003,6|0,1:2|3:2,0:0:0:0:
62,104,174028,2,0,P|46:141|58:189,1,82.5000025177003,2|2,1:2|3:2,0:0:0:0:
166,146,174314,6,0,L|250:131,1,82.5000025177003,0|0,1:2|3:2,0:0:0:0:
316,229,174599,2,0,L|232:214,1,82.5000025177003,2|0,1:2|3:2,0:0:0:0:
226,329,174885,5,4,1:2:0:0:
226,329,175028,1,2,3:2:0:0:
308,363,175171,2,0,B|349:378|349:378|399:362,1,82.5000025177003,2|2,1:2|3:2,0:0:0:0:
429,287,175457,2,0,B|417:250|417:250|432:209,1,82.5000025177003,2|2,1:2|3:2,0:0:0:0:
371,139,175742,2,0,B|382:102|382:102|367:61,1,82.5000025177003,2|2,1:2|3:2,0:0:0:0:
241,79,176028,6,0,P|197:89|160:73,1,82.5000025177003,6|0,1:2|3:2,0:0:0:0:
86,127,176314,2,0,P|130:137|167:121,1,82.5000025177003,2|2,1:2|3:2,0:0:0:0:
249,201,176599,6,0,B|244:243|244:243|266:283,1,82.5000025177003,0|0,1:2|3:2,0:0:0:0:
169,279,176885,2,0,B|174:321|174:321|152:361,1,82.5000025177003,2|0,1:2|3:2,0:0:0:0:
37,332,177171,5,6,1:2:0:0:
37,332,177314,1,2,3:2:0:0:
83,253,177457,2,0,P|100:214|89:167,1,82.5000025177003,2|2,1:2|3:2,0:0:0:0:
36,100,177742,2,0,P|19:61|30:14,1,82.5000025177003,2|10,1:2|3:3,0:0:0:0:
117,23,178028,2,0,P|156:40|203:29,1,82.5000025177003,2|10,1:2|3:3,0:0:0:0:
252,104,178314,6,0,L|235:190,1,82.5000025177003,6|0,1:2|3:2,0:0:0:0:
297,255,178599,1,2,1:2:0:0:
305,263,178671,1,0,3:0:0:0:
305,263,178742,1,2,3:2:0:0:
391,226,178885,2,0,L|486:219,1,82.5000025177003,0|0,1:2|3:2,0:0:0:0:
465,132,179171,2,0,L|476:89,2,41.2500012588501,2|0|0,1:2|3:0|3:2,0:0:0:0:
387,64,179457,5,4,1:2:0:0:
325,165,179599,1,4,1:2:0:0:
325,165,180314,2,0,L|284:159,3,37.5,2|0|2|0,1:2|1:2|1:2|1:2,0:0:0:0:
256,192,180599,6,0,L|263:269,1,75,6|2,3:2|0:2,0:0:0:0:
285,352,180885,1,2,1:2:0:0:
285,352,181028,2,0,P|266:315|164:294,1,150,2|2,0:2|0:2,0:0:0:0:
99,233,181457,2,0,P|108:193|98:160,1,75,0|2,1:2|0:2,0:0:0:0:
61,79,181742,6,0,L|143:74,1,75,2|2,3:2|0:2,0:0:0:0:
216,25,182028,1,2,1:2:0:0:
216,25,182171,1,2,0:2:0:0:
400,88,182457,1,2,0:2:0:0:
400,88,182528,1,2,0:2:0:0:
400,88,182599,2,0,L|325:94,1,75,2|2,1:2|0:2,0:0:0:0:
284,173,182885,6,0,L|438:187,2,150,2|2|2,3:2|1:2|3:2,0:0:0:0:
234,256,183599,1,2,0:2:0:0:
233,255,183742,2,0,P|269:263|305:256,1,75,2|2,1:2|0:2,0:0:0:0:
373,316,184028,6,0,B|371:245|436:269|432:186,2,150,6|2|2,3:2|1:2|1:2,0:0:0:0:
301,364,184742,1,2,0:2:0:0:
301,364,184814,1,2,0:2:0:0:
301,364,184885,2,0,L|221:353,1,75,2|2,1:2|3:2,0:0:0:0:
258,271,185171,6,0,B|218:260|218:260|174:277|174:277|105:267,1,150,6|2,3:2|1:2,0:0:0:0:
36,218,185599,2,0,P|78:173|159:188,1,150,2|2,0:2|0:2,0:0:0:0:
242,170,186028,2,0,L|236:90,1,75,0|2,1:2|0:2,0:0:0:0:
156,68,186314,6,0,P|121:82|86:72,2,75,2|2|2,3:2|0:2|1:2,0:0:0:0:
219,7,186742,1,2,0:2:0:0:
347,135,187028,1,2,0:2:0:0:
347,135,187099,1,2,0:2:0:0:
347,135,187171,2,0,L|334:213,1,75,2|2,1:2|0:2,0:0:0:0:
264,267,187457,6,0,B|237:239|237:239|256:126,2,150,2|2|2,3:2|1:2|3:2,0:0:0:0:
354,289,188171,1,2,0:2:0:0:
354,289,188314,2,0,P|359:335|376:362,1,75,2|2,1:2|0:2,0:0:0:0:
281,358,188599,6,0,P|208:374|141:344,2,150,6|2|2,3:2|1:2|1:2,0:0:0:0:
220,291,189314,1,2,0:2:0:0:
220,291,189385,1,2,0:2:0:0:
220,291,189457,2,0,L|219:210,1,75,2|2,1:2|3:2,0:0:0:0:
172,134,189742,6,0,P|128:151|45:97,1,150,6|2,3:2|1:2,0:0:0:0:
128,60,190171,2,0,P|182:46|252:100,1,150,2|2,0:2|0:2,0:0:0:0:
341,85,190599,2,0,P|379:85|414:63,1,75,0|2,1:2|0:2,0:0:0:0:
470,126,190885,6,0,P|457:161|464:198,1,75,2|2,3:2|0:2,0:0:0:0:
416,270,191171,1,2,1:2:0:0:
416,270,191314,2,0,P|345:241|280:272,1,150,2|2,0:2|0:2,0:0:0:0:
257,293,191671,1,2,0:2:0:0:
257,293,191742,2,0,P|225:315|179:309,1,75,2|2,1:2|0:2,0:0:0:0:
116,252,192028,6,0,P|57:259|6:334,2,150,2|2|2,3:2|1:2|3:2,0:0:0:0:
196,204,192742,1,2,0:2:0:0:
196,204,192885,2,0,L|212:127,1,75,2|2,1:2|0:2,0:0:0:0:
145,57,193171,6,0,P|110:86|7:62,2,150,6|2|2,3:2|1:2|1:2,0:0:0:0:
239,49,193885,1,2,0:2:0:0:
239,49,193957,1,2,0:2:0:0:
239,49,194028,2,0,L|323:34,1,75,2|2,1:2|3:2,0:0:0:0:
374,107,194314,6,0,P|386:154|479:199,1,150,6|2,3:2|1:2,0:0:0:0:
463,285,194742,2,0,L|404:333,1,75,2|0,0:2|3:2,0:0:0:0:
354,259,195028,2,0,L|271:264,1,75,2|0,0:2|1:2,0:0:0:0:
205,201,195314,1,2,0:2:0:0:
205,201,195457,6,0,P|192:160|207:126,2,75,2|2|2,3:2|0:2|1:2,0:0:0:0:
179,287,195885,1,2,0:2:0:0:
297,171,196171,1,2,0:2:0:0:
297,171,196242,1,2,0:2:0:0:
296,170,196314,2,0,P|306:134|293:100,1,75,2|2,1:2|0:2,0:0:0:0:
386,60,196599,6,0,B|408:90|408:90|393:127|401:164|433:193,2,150,2|2|2,3:2|1:2|3:2,0:0:0:0:
200,42,197457,1,2,1:2:0:0:
282,20,197599,1,2,0:2:0:0:
186,45,197742,6,0,L|38:27,1,150,6|2,3:2|1:2,0:0:0:0:
57,118,198171,1,2,0:0:0:0:
57,118,198314,2,0,P|45:156|58:192,1,75,2|2,1:2|0:0,0:0:0:0:
75,216,198528,1,2,0:0:0:0:
75,216,198599,2,0,P|112:207|149:226,1,75,2|2,1:2|3:0,0:0:0:0:
235,296,198885,6,0,L|224:222,1,75,6|2,3:2|0:0,0:0:0:0:
277,155,199171,1,2,1:2:0:0:
346,205,199314,1,0,0:0:0:0:
426,183,199457,2,0,L|436:264,1,75,0|2,1:2|1:2,0:0:0:0:
378,322,199742,1,0,1:2:0:0:
302,347,199885,1,2,0:0:0:0:
235,296,200028,5,0,3:2:0:0:
256,192,200171,12,0,202885,0:0:0:0:
