osu file format v14

[General]
AudioFilename: audio.mp3
AudioLeadIn: 0
PreviewTime: 154171
Countdown: 0
SampleSet: Soft
StackLeniency: 0.4
Mode: 0
LetterboxInBreaks: 0
WidescreenStoryboard: 1

[Editor]
DistanceSpacing: 0.4
BeatDivisor: 4
GridSize: 8
TimelineZoom: 2.1

[Metadata]
Title:Manemane Psychotropic
TitleUnicode:マネマネサイコトロピック
Artist:Kairiki bear feat. GUMI
ArtistUnicode:かいりきベア feat. GUMI
Creator:Livermorium
Version:Extra
Source:
Tags:vocaloid Kairikibear megpoid jrock j-rock rock japanese imitation
BeatmapID:2740274
BeatmapSetID:1315151

[Difficulty]
HPDrainRate:5
CircleSize:4
OverallDifficulty:8.8
ApproachRate:9.2
SliderMultiplier:1.8
SliderTickRate:1

[Events]
//Background and Video events
0,0,"gumi.jpg",0,0
//Break Periods
2,146514,150029
//Storyboard Layer 0 (Background)
//Storyboard Layer 1 (Fail)
//Storyboard Layer 2 (Pass)
//Storyboard Layer 3 (Foreground)
//Storyboard Layer 4 (Overlay)
//Storyboard Sound Samples

[TimingPoints]
11457,285.714285714286,4,2,1,90,1,0
14885,-80,4,2,1,90,0,0
15099,-80,4,2,1,5,0,0
15171,-100,4,2,1,90,0,0
19457,-80,4,2,1,90,0,0
19671,-80,4,2,1,5,0,0
19742,-100,4,2,1,90,0,0
20599,-100,4,2,1,75,0,0
22314,-80,4,2,3,75,0,0
22528,-111.111111111111,4,2,1,5,0,0
22599,-111.111111111111,4,2,1,75,0,0
24028,-111.111111111111,4,2,3,75,0,0
24171,-111.111111111111,4,2,1,75,0,0
26314,-80,4,2,3,75,0,0
26528,-111.111111111111,4,2,1,5,0,0
26599,-111.111111111111,4,2,3,75,0,0
26742,-111.111111111111,4,2,1,75,0,0
38885,-153.846153846154,4,2,1,75,0,0
43457,-133.333333333333,4,2,1,75,0,0
48028,-90.9090909090909,4,2,1,90,0,1
52599,-90.9090909090909,4,2,1,90,0,1
60099,-90.9090909090909,4,2,1,5,0,1
60171,-90.9090909090909,4,2,1,90,0,1
63457,-90.9090909090909,4,2,3,90,0,1
63599,-90.9090909090909,4,2,1,90,0,1
66314,-90.9090909090909,4,2,20,90,0,1
67457,-90.9090909090909,4,2,1,90,0,0
67742,-133.333333333333,4,2,1,90,0,0
68599,-100,4,2,1,90,0,0
68957,-100,4,2,1,5,0,0
69028,-100,4,2,1,90,0,0
70171,-100,4,2,3,90,0,0
70314,-100,4,2,1,90,0,0
70885,-125,4,2,1,65,0,0
77742,-111.111111111111,4,2,1,75,0,0
78885,-200,4,2,1,75,0,0
78957,-200,4,2,1,45,0,0
79742,-200,4,2,1,75,0,0
80028,-100,4,2,1,75,0,0
88028,-100,4,2,3,75,0,0
88171,-100,4,2,1,75,0,0
89171,-90.9090909090909,4,2,1,90,0,0
90314,-90.9090909090909,4,2,3,90,0,0
90457,-90.9090909090909,4,2,1,90,0,0
93742,-166.666666666667,4,2,1,60,0,0
95099,-166.666666666667,4,2,1,5,0,0
95171,-166.666666666667,4,2,1,60,0,0
96028,-166.666666666667,4,2,1,15,0,0
97171,-166.666666666667,4,2,1,70,0,0
98314,-86.9565217391304,4,2,1,90,0,1
110385,-86.9565217391304,4,2,1,5,0,1
110457,-86.9565217391304,4,2,1,90,0,1
113742,-86.9565217391304,4,2,3,90,0,1
113885,-86.9565217391304,4,2,1,90,0,1
116599,-86.9565217391304,4,2,20,90,0,1
117742,-83.3333333333333,4,2,1,90,0,0
118028,-133.333333333333,4,2,1,70,0,0
118885,-117.647058823529,4,2,1,70,0,0
128028,-100,4,2,1,80,0,0
137171,-111.111111111111,4,2,1,65,0,0
141742,-90.9090909090909,4,2,1,75,0,1
142885,-90.9090909090909,4,2,1,85,0,1
143457,-90.9090909090909,4,2,1,75,0,1
146314,-90.9090909090909,4,2,1,85,0,0
150599,-90.9090909090909,4,2,1,50,0,0
150885,-133.333333333333,4,2,1,55,0,0
152028,-133.333333333333,4,2,3,55,0,0
152171,-133.333333333333,4,2,1,55,0,0
154314,-90.9090909090909,4,2,1,70,0,0
155457,-83.3333333333333,4,2,1,90,0,1
160242,-83.3333333333333,4,2,1,5,0,1
160314,-83.3333333333333,4,2,1,90,0,1
173742,-83.3333333333333,4,2,20,90,0,1
179457,-83.3333333333333,4,2,1,90,0,0
179742,-125,4,2,1,90,0,0
180599,-100,4,2,1,90,0,0
184028,-80,4,2,1,90,0,0
184242,-80,4,2,1,5,0,0
184314,-100,4,2,1,90,0,0
188599,-80,4,2,1,90,0,0
188814,-80,4,2,1,5,0,0
188885,-100,4,2,1,90,0,0
193171,-80,4,2,1,90,0,0
193385,-80,4,2,1,5,0,0
193457,-100,4,2,1,90,0,0
197742,-86.9565217391304,4,2,1,90,0,0
200314,-86.9565217391304,4,2,1,80,0,0
200885,-86.9565217391304,4,2,1,65,0,0
201457,-86.9565217391304,4,2,1,50,0,0
202028,-86.9565217391304,4,2,1,35,0,0
202599,-86.9565217391304,4,2,1,20,0,0
202814,-86.9565217391304,4,2,1,10,0,0

[Colours]
Combo1 : 209,156,216
Combo2 : 107,170,239
Combo3 : 227,143,81
Combo4 : 173,219,98

[HitObjects]
256,192,11171,5,0,1:0:0:0:
256,192,11456,6,0,L|167:184,1,90,6|2,3:2|0:2,0:0:0:0:
83,102,11742,1,2,1:2:0:0:
285,17,11885,2,0,L|272:110,1,90,2|0,0:2|3:2,0:0:0:0:
404,214,12171,2,0,L|391:121,1,90,2|0,0:2|1:2,0:0:0:0:
235,325,12457,1,2,0:2:0:0:
423,296,12599,6,0,P|466:276|487:239,1,90,2|2,3:2|0:2,0:0:0:0:
476,147,12885,1,2,1:2:0:0:
335,354,13028,1,2,0:2:0:0:
333,333,13314,1,2,0:2:0:0:
331,315,13385,1,2,0:2:0:0:
330,297,13457,1,2,1:2:0:0:
161,369,13599,1,2,0:2:0:0:
230,214,13742,6,0,L|321:197,1,90,2|2,3:2|0:2,0:0:0:0:
88,146,14028,2,0,L|-3:129,1,90,2|2,1:2|0:2,0:0:0:0:
220,127,14314,1,2,3:2:0:0:
220,127,14457,1,2,0:2:0:0:
102,240,14599,1,2,1:2:0:0:
102,240,14742,1,2,0:2:0:0:
192,44,14885,6,0,P|263:27|338:85,1,168.75,6|0,3:2|0:0,0:0:0:0:
405,144,15171,2,0,L|426:55,1,90,2|2,1:2|0:2,0:0:0:0:
478,274,15457,1,2,1:2:0:0:
268,205,15599,2,0,L|319:223,1,45,2|2,0:2|0:2,0:0:0:0:
405,144,15742,1,2,1:2:0:0:
343,336,15885,1,2,3:2:0:0:
175,148,16028,6,0,B|157:178|134:198|134:198|165:251|184:304,1,180,6|2,3:2|1:2,0:0:0:0:
226,88,16457,2,0,P|183:68|137:81,1,90,2|0,0:2|3:2,0:0:0:0:
343,26,16742,2,0,L|331:116,1,90,2|0,0:2|1:2,0:0:0:0:
371,267,17028,1,2,0:2:0:0:
474,152,17171,5,2,3:2:0:0:
307,195,17314,1,2,0:2:0:0:
483,149,17457,1,2,1:2:0:0:
297,197,17599,2,0,L|207:182,1,90,2|0,0:2|3:2,0:0:0:0:
69,308,17885,1,2,0:2:0:0:
86,304,17957,1,2,0:2:0:0:
101,301,18028,2,0,L|191:286,1,90,2|2,1:2|0:2,0:0:0:0:
349,344,18314,6,0,P|307:323|291:285,1,90,2|2,3:2|0:2,0:0:0:0:
425,90,18599,2,0,P|467:111|483:149,1,90,2|2,1:2|0:2,0:0:0:0:
371,267,18885,1,2,3:2:0:0:
371,267,19028,1,2,0:2:0:0:
272,115,19171,2,0,L|288:24,1,90,2|2,1:2|0:2,0:0:0:0:
50,159,19457,6,0,P|104:186|92:108,1,168.75,6|0,3:2|0:0,0:0:0:0:
11,42,19742,2,0,L|102:27,1,90,2|2,1:2|0:2,0:0:0:0:
269,220,20028,1,2,1:2:0:0:
359,83,20171,1,2,0:2:0:0:
369,68,20242,1,2,0:2:0:0:
379,53,20314,1,2,1:2:0:0:
402,295,20599,6,0,B|326:255|308:339|227:300,1,180,6|2,3:2|1:2,0:0:0:0:
156,253,21028,1,2,0:2:0:0:
210,82,21171,5,2,3:2:0:0:
303,168,21314,1,2,0:2:0:0:
210,82,21457,1,2,1:2:0:0:
303,168,21599,1,2,0:2:0:0:
129,125,21742,5,2,3:2:0:0:
284,37,21885,1,2,0:2:0:0:
129,125,22028,1,2,1:2:0:0:
284,37,22171,1,2,0:2:0:0:
43,107,22314,6,0,B|38:150|53:187|91:209|91:209|66:251,1,168.75,4|0,3:2|0:0,0:0:0:0:
116,328,22599,2,0,P|155:341|192:332,1,80.9999975280763,2|0,1:2|0:0,0:0:0:0:
393,241,22885,5,2,3:2:0:0:
466,305,23028,1,2,0:2:0:0:
402,377,23171,2,0,L|321:361,1,80.9999975280763,2|2,1:2|0:2,0:0:0:0:
325,175,23457,2,0,P|351:127|452:107,1,161.999995056153,2|2,3:2|1:2,0:0:0:0:
340,25,23885,1,0,0:0:0:0:
129,125,24028,6,0,L|209:146,1,80.9999975280763,8|2,3:1|0:2,0:0:0:0:
240,235,24314,1,2,1:2:0:0:
189,31,24457,1,2,0:2:0:0:
39,183,24599,2,0,L|31:140,2,40.4999987640381,2|2|2,3:2|0:2|0:2,0:0:0:0:
82,47,24885,1,2,1:2:0:0:
82,47,24957,1,2,0:2:0:0:
82,47,25028,1,2,0:2:0:0:
144,241,25171,6,0,L|125:323,1,80.9999975280763,6|2,3:2|0:2,0:0:0:0:
35,286,25457,1,2,1:2:0:0:
35,286,25599,1,2,0:2:0:0:
266,357,25742,6,0,L|247:275,1,80.9999975280763,2|2,3:2|0:0,0:0:0:0:
247,278,25957,1,2,0:0:0:0:
247,278,26028,1,2,1:2:0:0:
369,288,26171,1,2,0:2:0:0:
254,88,26314,6,0,B|212:52|212:52|336:58,1,168.75,4|0,3:2|0:0,0:0:0:0:
390,118,26599,2,0,P|374:161|388:197,1,80.9999975280763,2|2,1:2|0:2,0:0:0:0:
268,199,26885,1,2,3:2:0:0:
460,7,27028,2,0,B|491:35|491:35|474:157,1,161.999995056153,2|2,0:2|0:2,0:0:0:0:
415,370,27457,6,0,P|380:334|412:226,1,161.999995056153,6|2,3:2|1:2,0:0:0:0:
475,299,27885,1,2,0:2:0:0:
283,360,28028,2,0,L|201:346,1,80.9999975280763,2|0,3:2|0:0,0:0:0:0:
61,239,28314,1,2,1:2:0:0:
117,357,28457,1,2,0:2:0:0:
210,182,28599,6,0,L|204:15,2,161.999995056153,2|2|2,3:1|1:2|1:2,0:0:0:0:
166,263,29314,1,10,3:3:0:0:
293,179,29457,1,10,3:3:0:0:
124,126,29599,1,0,3:2:0:0:
310,179,29742,6,0,L|390:166,1,80.9999975280763,6|2,3:2|0:2,0:0:0:0:
464,354,30028,2,0,L|451:265,1,80.9999975280763,2|2,1:2|0:2,0:0:0:0:
473,78,30314,1,2,3:2:0:0:
411,191,30457,1,2,0:2:0:0:
362,34,30599,2,0,P|322:22|285:35,1,80.9999975280763,2|2,1:2|0:2,0:0:0:0:
104,178,30885,5,2,3:2:0:0:
222,221,31028,1,2,0:2:0:0:
97,285,31171,1,2,1:2:0:0:
28,125,31314,2,0,P|64:96|183:130,1,161.999995056153,2|0,0:2|0:0,0:0:0:0:
264,294,31742,2,0,P|219:306|186:296,1,80.9999975280763,2|0,1:2|0:0,0:0:0:0:
323,192,32028,5,2,3:2:0:0:
390,282,32171,1,2,0:2:0:0:
264,294,32314,1,2,1:2:0:0:
331,384,32457,1,2,0:2:0:0:
488,300,32599,2,0,B|472:266|488:222|488:222|439:215|422:174,1,161.999995056153,2|2,3:2|1:2,0:0:0:0:
504,134,33028,1,2,0:2:0:0:
336,45,33171,6,0,L|348:126,1,80.9999975280763,2|2,3:2|0:2,0:0:0:0:
442,28,33457,1,2,1:2:0:0:
257,135,33599,2,0,B|204:123|204:123|151:142|151:142|101:132,1,161.999995056153,2|0,0:2|0:0,0:0:0:0:
207,209,34028,2,0,L|195:290,1,80.9999975280763,2|0,1:2|0:0,0:0:0:0:
381,349,34314,6,0,P|339:329|312:223,2,161.999995056153,6|2|2,3:2|1:2|3:2,0:0:0:0:
498,251,35028,1,2,0:2:0:0:
498,251,35099,1,2,0:2:0:0:
498,251,35171,2,0,P|455:235|423:247,1,80.9999975280763,2|0,1:2|0:0,0:0:0:0:
301,70,35457,6,0,L|381:84,1,80.9999975280763,2|2,3:2|0:2,0:0:0:0:
207,209,35742,2,0,L|287:195,1,80.9999975280763,2|2,1:2|0:2,0:0:0:0:
106,62,36028,2,0,L|186:76,1,80.9999975280763,2|2,3:2|0:2,0:0:0:0:
24,170,36314,1,2,1:2:0:0:
24,170,36457,1,2,0:2:0:0:
185,296,36599,6,0,B|215:327|215:327|206:197,1,161.999995056153,6|2,3:2|1:2,0:0:0:0:
292,305,37028,2,0,B|332:316|332:316|368:298,1,80.9999975280763,2|0,0:2|3:2,0:0:0:0:
123,240,37314,2,0,B|83:229|83:229|47:247,1,80.9999975280763,2|0,0:2|1:2,0:0:0:0:
177,132,37599,1,2,0:2:0:0:
320,227,37742,5,6,3:2:0:0:
163,123,37885,1,2,3:2:0:0:
335,229,38028,1,2,1:2:0:0:
108,243,38171,1,2,3:2:0:0:
436,40,38457,1,2,0:0:0:0:
436,40,38528,1,2,0:0:0:0:
436,40,38599,2,0,L|431:122,1,80.9999975280763,0|0,1:2|1:0,0:0:0:0:
241,86,38885,6,0,P|247:46|300:124,1,233.999989288331,6|10,3:2|1:2,0:0:0:0:
229,177,39599,1,2,0:2:0:0:
131,171,39742,2,0,P|102:167|71:154,1,58.4999973220826,10|2,3:2|3:2,0:0:0:0:
176,258,40028,5,10,3:2:0:0:
78,252,40171,2,0,P|49:248|18:235,1,58.4999973220826,0|10,1:0|3:2,0:0:0:0:
123,339,40457,1,2,0:2:0:0:
297,362,40599,2,0,L|285:243,1,116.999994644165,8|10,1:2|3:2,0:0:0:0:
330,165,41028,1,0,1:0:0:0:
475,278,41171,6,0,P|425:293|356:263,2,116.999994644165,14|10|10,3:2|3:2|1:2,0:0:0:0:
394,63,42028,1,10,3:2:0:0:
394,63,42171,1,2,3:2:0:0:
452,155,42314,5,10,0:2:0:0:
272,107,42457,2,0,P|267:74|271:49,2,58.4999973220826,0|10|2,1:0|3:2|0:2,0:0:0:0:
365,272,42885,1,8,1:2:0:0:
378,277,43171,2,0,L|315:285,1,58.4999973220826,10|2,1:2|1:2,0:0:0:0:
202,330,43457,6,0,P|190:299|197:262,1,67.5000025749208,14|2,3:2|0:2,0:0:0:0:
271,181,43742,1,10,3:2:0:0:
271,181,43885,1,2,0:2:0:0:
74,72,44028,5,10,1:2:0:0:
130,230,44171,1,2,0:2:0:0:
184,123,44314,1,10,3:2:0:0:
19,179,44457,1,2,3:2:0:0:
165,31,44599,6,0,L|239:21,1,67.5000025749208,10|2,3:2|1:2,0:0:0:0:
413,140,44885,1,10,3:2:0:0:
295,100,45028,1,2,0:2:0:0:
476,65,45171,2,0,P|510:126|497:194,1,135.000005149842,8|10,1:2|1:2,0:0:0:0:
412,233,45599,1,2,1:2:0:0:
256,192,45742,5,4,0:2:0:0:
314,129,46885,5,4,3:2:0:0:
256,274,47028,1,4,1:2:0:0:
203,85,47171,1,4,1:2:0:0:
256,291,47314,1,4,3:2:0:0:
53,193,48028,6,0,B|88:145|146:162|146:162|177:195|210:196|238:182,1,198.000006042481,6|2,3:2|1:2,0:0:0:0:
97,272,48457,2,0,P|48:290|2:272,1,99.0000030212403,2|0,0:2|3:2,0:0:0:0:
19,25,48742,2,0,B|-2:69|-2:69|18:120,1,99.0000030212403,2|0,0:2|1:2,0:0:0:0:
139,1,49028,1,2,0:2:0:0:
53,193,49171,5,2,3:2:0:0:
261,109,49314,1,2,0:2:0:0:
87,70,49457,1,2,1:2:0:0:
213,235,49599,1,2,0:2:0:0:
307,45,49742,2,0,P|260:30|208:51,1,99.0000030212403,2|0,3:2|0:0,0:0:0:0:
347,213,50028,2,0,L|449:197,1,99.0000030212403,2|0,1:2|0:0,0:0:0:0:
345,337,50314,6,0,B|274:322|274:322|225:342|225:342|152:328,1,198.000006042481,2|2,3:2|1:2,0:0:0:0:
156,161,50742,2,0,B|172:210|172:210|212:234,1,99.0000030212403,2|0,0:2|3:2,0:0:0:0:
363,118,51028,2,0,B|347:69|347:69|307:45,1,99.0000030212403,2|0,0:2|1:2,0:0:0:0:
206,35,51314,1,2,0:2:0:0:
436,22,51457,5,2,1:2:0:0:
277,123,51599,1,2,1:2:0:0:
452,19,51742,1,2,1:2:0:0:
190,34,51885,2,0,L|91:17,1,99.0000030212403,2|0,1:2|3:2,0:0:0:0:
52,197,52171,1,2,1:2:0:0:
52,197,52242,1,0,1:0:0:0:
52,197,52314,2,0,P|107:200|148:171,1,99.0000030212403,0|2,1:2|3:2,0:0:0:0:
274,342,52599,6,0,P|221:322|308:288,1,198.000006042481,6|2,3:2|1:2,0:0:0:0:
458,249,53028,2,0,L|439:352,1,99.0000030212403,2|0,0:2|3:2,0:0:0:0:
274,163,53314,2,0,L|294:268,1,99.0000030212403,2|0,0:2|1:2,0:0:0:0:
401,93,53599,1,2,0:2:0:0:
222,53,53742,5,2,3:2:0:0:
372,207,53885,1,2,0:2:0:0:
182,241,54028,2,0,B|147:231|147:231|121:237|121:237|77:226,1,99.0000030212403,2|2,1:2|0:2,0:0:0:0:
312,297,54314,2,0,B|347:287|347:287|373:293|373:293|411:284,1,99.0000030212403,2|2,3:2|0:0,0:0:0:0:
169,339,54599,2,0,L|183:233,1,99.0000030212403,2|0,1:2|0:0,0:0:0:0:
52,102,54885,5,2,3:2:0:0:
225,28,55028,2,0,P|243:79|228:128,1,99.0000030212403,10|2,0:2|1:2,0:0:0:0:
40,104,55314,5,2,0:2:0:0:
236,26,55457,2,0,P|254:77|239:126,1,99.0000030212403,10|2,3:2|0:2,0:0:0:0:
28,106,55742,5,2,1:2:0:0:
247,24,55885,2,0,P|265:75|250:124,1,99.0000030212403,10|2,0:2|3:2,0:0:0:0:
92,257,56171,5,2,0:2:0:0:
92,257,56314,2,0,L|209:249,1,99.0000030212403,2|2,1:2|0:2,0:0:0:0:
359,350,56599,1,2,1:2:0:0:
282,245,56742,1,0,3:0:0:0:
425,164,56885,1,10,3:3:0:0:
425,164,56957,1,8,3:3:0:0:
425,164,57028,2,0,L|411:217,1,49.5000015106202,8|8,3:3|3:3,0:0:0:0:
364,364,57171,6,0,B|289:306|248:407|170:353,1,198.000006042481,6|2,3:2|1:2,0:0:0:0:
77,130,57599,2,0,P|59:182|13:215,1,99.0000030212403,2|0,0:2|3:2,0:0:0:0:
189,48,57885,2,0,P|207:100|253:133,1,99.0000030212403,2|0,0:2|1:2,0:0:0:0:
286,42,58171,1,2,0:2:0:0:
188,240,58314,5,2,3:2:0:0:
385,278,58457,1,2,0:2:0:0:
247,131,58599,1,2,1:2:0:0:
272,330,58742,1,2,0:2:0:0:
372,157,58885,2,0,B|424:140|424:140|476:159,1,99.0000030212403,2|0,3:2|0:0,0:0:0:0:
413,360,59171,2,0,L|420:250,1,99.0000030212403,2|0,1:2|0:0,0:0:0:0:
299,349,59457,6,0,L|190:335,1,99.0000030212403,2|2,3:2|0:2,0:0:0:0:
99,129,59742,1,2,1:2:0:0:
193,135,59885,2,0,P|171:189|78:220,1,148.50000453186,2|0,0:2|0:0,0:0:0:0:
8,141,60171,2,0,L|28:34,1,99.0000030212403,2|0,0:2|1:2,0:0:0:0:
170,14,60457,1,2,0:2:0:0:
267,178,60599,5,2,1:2:0:0:
99,129,60742,1,2,1:2:0:0:
300,89,60885,1,2,1:2:0:0:
8,141,61028,1,2,1:2:0:0:
216,275,61314,1,2,1:2:0:0:
216,275,61385,1,0,1:0:0:0:
216,275,61457,2,0,P|266:293|323:272,1,99.0000030212403,0|0,1:2|1:0,0:0:0:0:
416,227,61671,1,0,1:0:0:0:
416,227,61742,6,0,B|386:182|386:182|396:346,1,198.000006042481,6|2,3:2|1:2,0:0:0:0:
495,199,62171,2,0,L|508:90,1,99.0000030212403,2|0,0:2|3:2,0:0:0:0:
302,164,62457,2,0,L|289:55,1,99.0000030212403,2|0,0:2|1:2,0:0:0:0:
381,15,62742,1,2,0:2:0:0:
206,97,62885,5,2,3:2:0:0:
410,145,63028,1,2,0:2:0:0:
135,223,63171,5,2,1:2:0:0:
322,184,63314,1,2,0:2:0:0:
128,43,63457,6,0,P|105:94|124:146,1,99.0000030212403,4|0,3:2|0:0,0:0:0:0:
160,337,63742,2,0,L|49:323,1,99.0000030212403,2|0,1:2|0:0,0:0:0:0:
321,169,64028,5,2,3:2:0:0:
389,331,64171,2,0,P|440:356|494:352,1,99.0000030212403,10|2,0:2|1:2,0:0:0:0:
321,151,64457,5,2,0:2:0:0:
253,313,64599,2,0,P|202:338|148:334,1,99.0000030212403,10|2,3:2|0:2,0:0:0:0:
322,133,64885,5,2,1:2:0:0:
390,295,65028,2,0,P|441:320|495:316,1,99.0000030212403,10|2,0:2|3:2,0:0:0:0:
322,115,65314,5,2,0:2:0:0:
187,258,65457,2,0,L|174:151,1,99.0000030212403,2|2,1:2|0:2,0:0:0:0:
420,67,65742,2,0,L|407:174,1,99.0000030212403,2|0,1:2|3:0,0:0:0:0:
312,331,66028,1,10,3:3:0:0:
332,335,66099,1,8,3:3:0:0:
353,339,66171,1,8,3:3:0:0:
373,343,66242,1,8,3:3:0:0:
394,348,66314,6,0,L|387:294,2,49.5000015106202,6|0|0,1:2|3:0|3:2,0:0:0:0:
289,197,66599,6,0,L|281:250,2,49.5000015106202,6|0|0,1:2|3:0|3:2,0:0:0:0:
173,354,66885,5,4,1:2:0:0:
169,332,66957,1,0,3:0:0:0:
165,310,67028,1,0,3:2:0:0:
77,178,67171,6,0,L|69:231,2,49.5000015106202,6|0|0,1:2|3:0|3:2,0:0:0:0:
14,333,67457,5,6,1:2:0:0:
188,157,67599,1,6,1:2:0:0:
19,112,68599,5,6,1:2:0:0:
201,49,68742,2,0,L|349:35,1,135,0|0,1:0|0:0,0:0:0:0:
442,72,69028,2,0,P|394:91|417:9,1,180,0|0,1:0|3:0,0:0:0:0:
483,211,69457,1,8,1:3:0:0:
483,211,69528,1,8,1:3:0:0:
483,211,69599,2,0,L|433:220,1,45,8|8,1:3|1:3,0:0:0:0:
293,235,69742,5,4,3:2:0:0:
421,322,69885,1,0,3:0:0:0:
349,164,70028,1,0,1:0:0:0:
232,373,70171,2,0,B|268:286|183:289|214:202,1,180,4|0,3:2|3:0,0:0:0:0:
151,336,70599,2,0,P|108:349|61:333,1,90,0|0,1:2|3:0,0:0:0:0:
9,150,70885,6,0,P|69:195|140:178,2,144,6|2|2,3:2|3:2|3:2,0:0:0:0:
43,44,71599,1,2,0:2:0:0:
145,94,71742,2,0,L|227:86,1,72,2|2,3:2|0:2,0:0:0:0:
332,198,72028,6,0,L|338:117,1,72,2|2,3:2|0:2,0:0:0:0:
218,275,72314,2,0,L|212:194,1,72,2|2,3:2|0:2,0:0:0:0:
315,326,72599,2,0,L|463:316,1,144,2|2,3:2|3:2,0:0:0:0:
512,237,73028,1,0,0:0:0:0:
462,158,73171,6,0,P|408:171|336:125,2,144,10|2|2,3:2|3:2|3:2,0:0:0:0:
416,87,73885,1,2,0:2:0:0:
327,24,74028,2,0,P|291:14|258:25,1,72,2|2,3:2|0:2,0:0:0:0:
145,93,74314,6,0,L|150:165,2,72,2|2|2,3:2|0:2|3:2,0:0:0:0:
73,205,74742,2,0,P|121:241|209:226,1,144,2|0,0:2|0:0,0:0:0:0:
292,348,75171,1,10,3:3:0:0:
300,360,75457,6,0,L|225:351,1,72,2|2,3:2|0:2,0:0:0:0:
367,274,75742,2,0,L|442:265,1,72,2|2,3:2|0:2,0:0:0:0:
295,193,76028,2,0,L|286:267,1,72,2|2,3:2|0:2,0:0:0:0:
409,183,76314,2,0,L|400:109,1,72,2|2,3:2|0:2,0:0:0:0:
237,37,76599,6,0,P|275:48|316:37,1,72,2|2,3:2|0:2,0:0:0:0:
154,108,76885,1,10,3:3:0:0:
154,108,77028,1,2,0:2:0:0:
207,199,77171,6,0,P|169:210|128:199,1,72,2|2,3:2|0:2,0:0:0:0:
290,270,77457,1,2,3:2:0:0:
290,270,77599,1,2,0:2:0:0:
138,351,77742,6,0,B|23:339|23:339|0:297,2,161.999995056153,6|2|2,3:2|3:2|3:2,0:0:0:0:
220,311,78457,1,2,0:2:0:0:
319,354,78599,1,0,1:2:0:0:
429,283,78742,1,2,0:2:0:0:
315,160,78885,5,6,3:2:0:0:
315,160,79742,1,2,1:2:0:0:
315,160,79885,1,0,3:0:0:0:
228,74,80028,6,0,L|320:55,1,90,6|2,3:2|0:2,0:0:0:0:
224,179,80314,2,0,L|132:160,1,90,2|2,1:2|0:2,0:0:0:0:
64,306,80599,1,2,3:2:0:0:
155,250,80742,1,2,0:2:0:0:
44,211,80885,1,2,1:2:0:0:
140,355,81028,1,2,0:2:0:0:
272,276,81171,6,0,P|316:268|359:287,2,90,2|2|2,3:2|0:2|1:2,0:0:0:0:
360,365,81599,2,0,P|422:344|426:241,1,180,2|0,0:2|0:0,0:0:0:0:
315,160,82028,2,0,L|330:69,1,90,2|0,1:2|0:0,0:0:0:0:
423,101,82314,5,2,3:2:0:0:
423,101,82457,1,2,0:2:0:0:
238,127,82599,1,2,1:2:0:0:
238,127,82742,1,2,0:2:0:0:
353,237,82885,1,2,3:2:0:0:
353,237,83028,1,2,0:2:0:0:
168,211,83171,1,2,1:2:0:0:
168,211,83314,1,2,0:2:0:0:
320,316,83457,6,0,L|305:225,1,90,2|2,3:2|0:2,0:0:0:0:
185,374,83742,1,2,1:2:0:0:
66,194,83885,2,0,P|31:204|100:259,1,180,2|0,0:2|0:0,0:0:0:0:
111,118,84314,2,0,P|68:103|26:116,1,90,2|0,1:2|0:0,0:0:0:0:
232,16,84599,6,0,L|219:108,1,90,6|2,3:2|0:2,0:0:0:0:
187,270,84885,1,2,1:2:0:0:
216,125,85028,1,2,0:2:0:0:
284,285,85171,6,0,L|297:193,1,90,2|2,3:2|0:2,0:0:0:0:
322,30,85457,1,2,1:2:0:0:
300,176,85599,1,2,0:2:0:0:
418,47,85742,6,0,L|405:139,1,90,2|2,3:2|0:2,0:0:0:0:
379,302,86028,1,2,1:2:0:0:
402,156,86171,1,2,0:2:0:0:
470,316,86314,6,0,L|483:224,1,90,2|2,3:2|0:2,0:0:0:0:
506,60,86599,1,2,1:2:0:0:
486,207,86742,1,2,0:2:0:0:
306,102,86885,6,0,B|209:71|227:155|130:120,1,180,2|2,3:2|1:2,0:0:0:0:
167,39,87314,1,2,0:2:0:0:
273,183,87457,1,2,3:2:0:0:
167,260,87599,1,2,0:2:0:0:
355,323,87742,2,0,L|342:230,1,90,2|2,1:2|0:2,0:0:0:0:
301,80,88028,5,4,3:3:0:0:
247,288,88171,1,2,3:2:0:0:
306,66,88314,1,0,1:2:0:0:
436,248,88457,2,0,B|468:283|468:283|459:145,1,180,2|0,3:2|3:0,0:0:0:0:
421,40,88885,1,0,1:2:0:0:
184,165,89171,5,4,1:2:0:0:
349,235,89314,1,0,1:2:0:0:
362,242,90028,2,0,L|258:249,1,99.0000030212403,0|0,1:2|3:2,0:0:0:0:
93,192,90314,5,4,1:3:0:0:
144,329,90457,2,0,P|184:364|235:369,1,99.0000030212403,0|0,3:0|3:0,0:0:0:0:
149,124,90742,2,0,P|74:108|3:194,1,198.000006042481,0|0,1:0|3:0,0:0:0:0:
144,329,91171,1,0,1:0:0:0:
279,82,91457,5,4,1:2:0:0:
196,246,91599,1,0,1:2:0:0:
188,258,92314,2,0,L|181:156,1,99.0000030212403,0|2,1:2|3:2,0:0:0:0:
181,159,92528,1,2,0:0:0:0:
181,159,92599,5,4,1:2:0:0:
365,205,92742,1,0,3:0:0:0:
280,293,92885,1,0,3:0:0:0:
311,105,93028,2,0,P|371:90|472:172,1,198.000006042481,0|0,1:0|3:0,0:0:0:0:
398,334,93457,2,0,L|497:316,1,99.0000030212403,0|0,1:0|3:0,0:0:0:0:
280,293,93742,6,0,L|273:353,1,53.9999983520508,6|2,3:2|0:0,0:0:0:0:
177,364,94028,1,2,3:2:0:0:
177,364,94171,1,2,0:0:0:0:
87,278,94314,2,0,L|143:270,1,53.9999983520508,6|2,3:3|0:0,0:0:0:0:
197,194,94599,2,0,L|253:202,1,53.9999983520508,2|2,3:0|0:0,0:0:0:0:
337,158,94885,6,0,L|347:64,1,80.9999975280763,6|0,3:2|0:0,0:0:0:0:
326,49,95171,2,0,P|295:57|266:49,1,53.9999983520508,2|2,3:2|0:0,0:0:0:0:
174,31,95457,2,0,P|143:23|114:31,1,53.9999983520508,4|0,3:3|0:0,0:0:0:0:
71,123,95742,1,2,1:2:0:0:
71,123,95885,1,0,0:0:0:0:
197,194,96028,5,2,0:0:0:0:
378,308,97171,5,4,3:2:0:0:
216,171,97314,1,4,1:2:0:0:
247,300,97457,1,4,1:2:0:0:
329,101,97599,1,4,3:2:0:0:
334,89,98028,5,0,1:0:0:0:
318,86,98099,1,0,1:0:0:0:
302,83,98171,1,0,1:0:0:0:
286,80,98242,1,0,1:0:0:0:
271,77,98314,6,0,B|164:62,1,103.500001974106,6|0,3:2|0:0,0:0:0:0:
186,198,98599,1,2,1:2:0:0:
55,225,98742,2,0,L|160:204,1,103.500001974106,2|0,0:2|3:2,0:0:0:0:
330,333,99028,2,0,L|225:312,1,103.500001974106,2|0,0:2|1:2,0:0:0:0:
443,222,99314,1,2,0:2:0:0:
302,167,99457,5,2,3:2:0:0:
441,316,99599,1,2,0:2:0:0:
475,136,99742,1,2,1:2:0:0:
330,333,99885,1,2,0:2:0:0:
245,107,100028,2,0,P|296:84|351:99,1,103.500001974106,2|0,3:2|0:0,0:0:0:0:
132,16,100314,2,0,L|144:120,1,103.500001974106,2|0,1:2|0:0,0:0:0:0:
75,352,100599,6,0,B|39:313|39:313|64:158,1,207.000003948212,2|2,3:2|1:2,0:0:0:0:
243,303,101028,2,0,L|139:283,1,103.500001974106,2|0,0:2|3:2,0:0:0:0:
315,236,101314,2,0,P|344:281|335:331,1,103.500001974106,2|0,0:2|1:2,0:0:0:0:
194,195,101599,1,2,0:2:0:0:
356,126,101742,5,2,1:2:0:0:
243,303,101885,1,2,1:2:0:0:
425,75,102028,1,2,1:2:0:0:
490,273,102171,2,0,L|387:255,1,103.500001974106,2|0,1:2|3:2,0:0:0:0:
252,75,102457,1,2,1:2:0:0:
252,75,102528,1,0,1:0:0:0:
252,75,102599,1,0,1:2:0:0:
174,206,102742,1,2,3:2:0:0:
102,25,102885,6,0,B|202:-18|194:79|307:27,1,207.000003948212,6|2,3:2|1:2,0:0:0:0:
141,111,103314,2,0,B|90:124|90:124|42:99,1,103.500001974106,2|0,0:2|3:2,0:0:0:0:
135,280,103599,2,0,B|186:293|186:293|234:268,1,103.500001974106,2|0,0:2|1:2,0:0:0:0:
326,318,103885,1,2,0:2:0:0:
409,122,104028,6,0,B|434:74|434:74|455:228,1,207.000003948212,2|2,3:2|1:2,0:0:0:0:
446,323,104457,1,2,0:2:0:0:
291,169,104599,2,0,B|253:160|253:160|223:170|223:170|189:162,1,103.500001974106,2|2,3:2|0:0,0:0:0:0:
409,122,104885,2,0,B|447:113|447:113|477:123|477:123|511:115,1,103.500001974106,2|0,1:2|0:0,0:0:0:0:
314,45,105171,5,2,3:2:0:0:
274,255,105314,2,0,L|251:359,1,103.500001974106,10|2,0:2|1:2,0:0:0:0:
38,281,105599,5,2,0:2:0:0:
158,332,105742,1,10,3:2:0:0:
132,217,105885,1,2,0:2:0:0:
75,363,106028,5,2,1:2:0:0:
35,153,106171,2,0,L|12:49,1,103.500001974106,10|2,0:2|3:2,0:0:0:0:
230,167,106457,5,2,0:2:0:0:
115,47,106599,2,0,P|163:28|218:50,1,103.500001974106,2|2,1:2|0:2,0:0:0:0:
364,213,106885,1,2,1:2:0:0:
422,79,107028,1,0,3:0:0:0:
489,259,107171,1,10,3:3:0:0:
489,259,107242,1,8,3:3:0:0:
489,259,107314,2,0,L|433:238,1,51.7500009870529,8|8,3:3|3:3,0:0:0:0:
218,295,107457,6,0,P|272:311|363:212,1,207.000003948212,6|2,3:2|1:2,0:0:0:0:
243,68,107885,2,0,L|348:48,1,103.500001974106,2|0,0:2|3:2,0:0:0:0:
153,146,108171,2,0,L|133:251,1,103.500001974106,2|0,0:2|1:2,0:0:0:0:
137,45,108457,1,2,0:2:0:0:
242,178,108599,5,2,3:2:0:0:
8,260,108742,2,0,L|72:263,1,51.7500009870529,2|2,0:0|0:0,0:0:0:0:
238,270,108885,1,2,1:2:0:0:
11,167,109028,1,2,0:2:0:0:
170,333,109171,2,0,L|273:312,1,103.500001974106,2|0,3:2|0:0,0:0:0:0:
480,340,109457,2,0,P|429:357|383:341,1,103.500001974106,2|2,1:2|0:0,0:0:0:0:
452,149,109742,6,0,L|436:257,1,103.500001974106,2|2,3:2|0:2,0:0:0:0:
377,65,110028,1,2,1:2:0:0:
285,245,110171,2,0,B|273:194|273:194|233:163|233:163|223:100,1,155.250002961159,2|0,0:2|0:0,0:0:0:0:
142,91,110457,2,0,P|92:111|35:95,1,103.500001974106,2|0,0:2|1:2,0:0:0:0:
85,15,110742,1,2,0:2:0:0:
177,224,110885,5,2,1:2:0:0:
273,42,111028,1,2,1:2:0:0:
63,191,111171,1,2,1:2:0:0:
284,32,111314,1,2,1:2:0:0:
371,209,111599,1,2,1:2:0:0:
371,209,111671,1,0,1:0:0:0:
371,209,111742,2,0,P|387:258|371:308,1,103.500001974106,0|2,1:2|3:2,0:0:0:0:
150,323,112028,6,0,B|109:356|109:356|271:324,1,207.000003948212,6|2,3:2|1:2,0:0:0:0:
175,126,112457,2,0,P|211:166|259:174,1,103.500001974106,2|0,0:2|3:2,0:0:0:0:
416,82,112742,1,2,0:2:0:0:
251,93,112885,1,2,1:2:0:0:
431,80,113028,1,2,0:2:0:0:
256,271,113171,5,2,3:2:0:0:
338,123,113314,1,2,0:2:0:0:
454,347,113457,1,2,1:2:0:0:
405,178,113599,1,2,0:2:0:0:
324,370,113742,6,0,L|426:352,1,103.500001974106,4|0,3:2|0:0,0:0:0:0:
151,227,114028,2,0,L|166:331,1,103.500001974106,2|2,1:2|1:2,0:0:0:0:
165,329,114242,1,2,1:2:0:0:
165,329,114314,5,2,3:2:0:0:
93,169,114457,2,0,P|139:145|192:157,1,103.500001974106,10|2,0:2|1:2,0:0:0:0:
320,240,114742,5,2,0:2:0:0:
392,79,114885,2,0,P|346:55|293:67,1,103.500001974106,10|0,3:2|0:0,0:0:0:0:
151,227,115171,5,2,1:2:0:0:
334,142,115314,1,10,0:2:0:0:
166,88,115457,1,2,3:2:0:0:
267,307,115599,5,2,0:2:0:0:
267,307,115742,2,0,P|316:327|366:312,1,103.500001974106,2|2,1:2|0:2,0:0:0:0:
463,160,116028,2,0,L|478:264,1,103.500001974106,2|0,1:2|3:0,0:0:0:0:
314,116,116314,1,10,3:3:0:0:
333,109,116385,1,8,3:3:0:0:
352,102,116457,1,8,3:3:0:0:
371,95,116528,1,8,3:3:0:0:
390,88,116599,6,0,L|384:36,2,51.7500009870529,6|0|0,1:2|3:0|3:2,0:0:0:0:
317,201,116885,6,0,L|311:253,2,51.7500009870529,4|0|0,1:2|3:0|3:2,0:0:0:0:
203,96,117171,5,4,1:2:0:0:
208,76,117242,1,0,3:0:0:0:
213,55,117314,1,0,3:2:0:0:
88,167,117457,6,0,L|82:219,2,51.7500009870529,6|0|0,1:2|3:0|3:2,0:0:0:0:
197,295,117742,5,6,1:2:0:0:
41,72,117885,1,6,1:2:0:0:
347,107,118599,5,2,1:2:0:0:
256,192,118742,1,2,3:2:0:0:
417,237,118885,6,0,B|413:176|413:176|438:141|438:141|435:90,1,153.000002918243,6|2,3:2|3:2,0:0:0:0:
357,21,119314,1,2,0:0:0:0:
250,90,119457,1,2,3:2:0:0:
250,90,119599,1,2,0:0:0:0:
148,45,119742,2,0,L|73:33,1,76.5000014591217,2|0,3:2|0:0,0:0:0:0:
38,214,120028,6,0,P|26:176|33:133,1,76.5000014591217,6|2,3:2|0:0,0:0:0:0:
151,152,120314,1,2,3:2:0:0:
189,266,120457,2,0,P|139:280|51:234,1,153.000002918243,2|2,0:0|0:0,0:0:0:0:
151,152,120885,1,2,3:2:0:0:
307,362,121171,5,6,3:2:0:0:
374,284,121314,1,2,0:0:0:0:
316,171,121457,1,2,3:2:0:0:
428,67,121599,2,0,P|427:116|331:167,1,153.000002918243,2|2,0:0|0:0,0:0:0:0:
235,61,122028,2,0,P|267:50|311:63,1,76.5000014591217,2|2,3:2|0:0,0:0:0:0:
151,152,122314,6,0,L|147:74,2,76.5000014591217,6|2|2,3:2|0:0|3:2,0:0:0:0:
99,227,122742,1,2,0:0:0:0:
259,353,123028,1,0,0:0:0:0:
291,247,123171,1,2,1:2:0:0:
295,232,123242,1,0,1:2:0:0:
299,217,123314,1,0,1:2:0:0:
304,202,123385,1,0,1:2:0:0:
309,187,123457,6,0,P|355:159|443:195,1,153.000002918243,6|2,3:2|3:2,0:0:0:0:
501,89,123885,1,2,0:0:0:0:
501,89,123957,1,2,0:0:0:0:
501,89,124028,1,2,3:2:0:0:
407,34,124171,2,0,L|329:47,1,76.5000014591217,2|0,0:0|3:2,0:0:0:0:
237,17,124457,1,2,0:0:0:0:
150,145,124599,5,6,3:2:0:0:
254,123,124742,2,0,L|291:113,2,38.2500007295609,2|2|2,0:0|0:0|3:2,0:0:0:0:
66,161,125028,1,2,0:0:0:0:
66,161,125099,1,2,0:0:0:0:
66,161,125171,2,0,B|59:214|59:214|81:266|81:266|73:308,1,153.000002918243,2|2,3:2|3:2,0:0:0:0:
214,356,125599,2,0,L|206:309,1,38.2500007295609,2|2,0:0|0:0,0:0:0:0:
180,172,125742,5,6,3:2:0:0:
289,243,125885,2,0,L|304:157,1,76.5000014591217,2|0,0:0|3:2,0:0:0:0:
181,157,126171,5,2,0:0:0:0:
79,236,126314,2,0,L|64:150,1,76.5000014591217,2|0,3:2|0:0,0:0:0:0:
183,141,126599,5,2,3:2:0:0:
292,212,126742,2,0,L|307:126,1,76.5000014591217,2|4,0:0|3:2,0:0:0:0:
222,68,127028,5,2,0:2:0:0:
334,23,127171,1,2,1:2:0:0:
424,165,127314,1,2,0:2:0:0:
512,45,127457,2,0,P|476:32|434:45,1,76.5000014591217,2|2,0:0|0:0,0:0:0:0:
439,41,127671,1,2,0:0:0:0:
439,41,127742,1,2,0:0:0:0:
305,136,127885,1,2,0:0:0:0:
487,225,128028,6,0,P|511:180|501:131,2,90,6|2|2,3:2|0:2|1:2,0:0:0:0:
366,356,128457,2,0,L|459:337,1,90,2|0,0:2|3:2,0:0:0:0:
259,209,128742,2,0,L|352:228,1,90,2|0,0:2|1:2,0:0:0:0:
129,296,129028,1,2,0:2:0:0:
247,339,129171,5,2,3:2:0:0:
156,192,129314,1,2,0:2:0:0:
31,349,129457,1,2,1:2:0:0:
129,296,129599,2,0,L|119:205,1,90,2|0,0:2|3:2,0:0:0:0:
166,52,129885,1,2,0:2:0:0:
183,55,129957,1,2,0:2:0:0:
200,58,130028,2,0,P|241:62|291:43,1,90,2|2,1:2|0:2,0:0:0:0:
402,173,130314,6,0,L|412:81,1,90,2|2,3:2|0:2,0:0:0:0:
251,227,130599,2,0,L|261:319,1,90,2|2,1:2|0:2,0:0:0:0:
416,163,130885,2,0,L|426:71,1,90,2|2,3:2|0:2,0:0:0:0:
237,217,131171,2,0,L|247:309,1,90,2|2,1:2|0:2,0:0:0:0:
432,328,131457,6,0,L|334:314,1,90,6|2,3:2|0:2,0:0:0:0:
138,251,131742,1,2,1:2:0:0:
304,131,131885,1,2,0:2:0:0:
208,344,132028,1,2,1:2:0:0:
99,155,132171,1,2,0:2:0:0:
91,138,132242,1,2,0:2:0:0:
84,121,132314,1,2,1:2:0:0:
138,251,132457,1,2,3:2:0:0:
243,63,132599,6,0,L|150:50,1,90,6|2,3:2|0:2,0:0:0:0:
260,217,132885,2,0,L|305:211,2,45,2|2|2,1:2|0:2|0:2,0:0:0:0:
402,86,133171,1,2,3:2:0:0:
431,222,133314,1,2,0:2:0:0:
436,239,133385,1,2,0:2:0:0:
441,256,133457,1,2,1:2:0:0:
484,110,133599,6,0,P|471:41|361:8,1,180,2|2,0:2|0:2,0:0:0:0:
256,131,134028,1,2,1:2:0:0:
244,144,134099,1,2,0:2:0:0:
224,155,134171,1,2,0:2:0:0:
198,161,134242,1,2,0:2:0:0:
166,158,134314,1,2,3:2:0:0:
128,291,134457,1,2,0:2:0:0:
145,289,134528,1,2,0:2:0:0:
162,287,134599,1,2,1:2:0:0:
14,299,134742,6,0,L|3:109,1,180,2|2,0:2|0:2,0:0:0:0:
91,176,135171,1,2,1:2:0:0:
190,72,135314,1,2,0:2:0:0:
272,229,135457,2,0,L|254:322,1,90,2|2,3:2|0:2,0:0:0:0:
327,354,135671,1,2,0:2:0:0:
327,354,135742,2,0,L|420:347,1,90,2|2,1:2|0:2,0:0:0:0:
481,65,136028,5,6,1:2:0:0:
361,254,136171,1,2,3:2:0:0:
377,54,136314,5,2,1:2:0:0:
469,271,136457,1,2,3:2:0:0:
490,49,136599,5,2,1:2:0:0:
349,275,136742,2,0,L|356:228,1,45,10|10,3:3|3:3,0:0:0:0:
373,32,136885,5,10,1:3:0:0:
479,286,137028,1,2,3:2:0:0:
261,137,137171,6,0,B|189:172|183:88|109:125,2,161.999995056153,14|8|8,3:2|1:2|3:2,0:0:0:0:
192,330,138028,2,0,L|107:338,1,80.9999975280763,8|2,1:2|0:2,0:0:0:0:
45,278,138242,1,2,0:2:0:0:
45,278,138314,6,0,P|79:243|198:255,1,161.999995056153,10|8,3:2|1:2,0:0:0:0:
269,211,138742,1,2,0:2:0:0:
442,363,138885,1,10,3:2:0:0:
332,367,139028,1,2,0:2:0:0:
450,228,139171,1,10,1:2:0:0:
375,291,139314,1,2,0:2:0:0:
376,138,139457,6,0,L|467:128,1,80.9999975280763,10|2,3:2|0:2,0:0:0:0:
324,57,139742,2,0,B|269:49|269:49|218:71|218:71|167:63,1,161.999995056153,10|10,1:2|3:2,0:0:0:0:
74,165,140171,1,2,0:2:0:0:
74,165,140314,2,0,L|66:82,1,80.9999975280763,10|0,1:2|0:0,0:0:0:0:
171,220,140599,5,10,3:2:0:0:
3,276,140742,1,2,0:2:0:0:
246,195,140885,1,10,1:2:0:0:
78,251,141028,1,2,0:2:0:0:
275,283,141171,2,0,P|320:255|316:138,1,161.999995056153,10|10,3:2|1:2,0:0:0:0:
200,75,141599,2,0,L|256:62,1,40.4999987640381,0|0,1:0|1:0,0:0:0:0:
390,32,141742,5,12,1:2:0:0:
421,45,141814,1,0,1:2:0:0:
446,69,141885,1,0,1:2:0:0:
461,100,141957,1,0,1:2:0:0:
464,134,142028,1,8,1:2:0:0:
442,160,142099,1,0,1:2:0:0:
429,192,142171,1,0,1:2:0:0:
428,227,142242,1,0,1:2:0:0:
438,260,142314,6,0,L|499:247,3,49.5000015106202,8|0|0|0,1:2|1:2|1:2|1:2,0:0:0:0:
349,336,142599,1,8,1:2:0:0:
309,331,142671,1,0,1:2:0:0:
269,326,142742,1,0,1:2:0:0:
229,321,142814,1,0,1:2:0:0:
189,317,142885,6,0,L|182:366,3,49.5000015106202,12|0|0|0,1:2|1:2|1:2|1:2,0:0:0:0:
98,167,143171,1,8,1:2:0:0:
117,210,143242,1,0,1:2:0:0:
160,234,143314,1,0,1:2:0:0:
208,225,143385,1,0,1:2:0:0:
241,190,143457,5,8,1:2:0:0:
265,163,143528,1,0,1:2:0:0:
301,157,143599,1,0,1:2:0:0:
334,175,143671,1,0,1:2:0:0:
348,207,143742,2,0,L|451:197,1,99.0000030212403,8|0,1:2|1:2,0:0:0:0:
330,24,144028,5,12,1:2:0:0:
312,49,144099,1,0,1:2:0:0:
288,72,144171,1,0,1:2:0:0:
261,87,144242,1,0,1:2:0:0:
230,96,144314,2,0,L|231:153,3,49.5000015106202,8|0|0|0,1:2|1:2|1:2|1:2,0:0:0:0:
114,60,144599,5,8,1:2:0:0:
126,88,144671,1,0,1:2:0:0:
128,120,144742,1,0,1:2:0:0:
122,151,144814,1,0,1:2:0:0:
106,178,144885,1,8,1:2:0:0:
92,207,144957,1,0,1:2:0:0:
92,239,145028,1,0,1:2:0:0:
103,268,145099,1,0,1:2:0:0:
124,291,145171,6,0,L|21:280,1,99.0000030212403,12|0,1:2|3:0,0:0:0:0:
246,358,145457,2,0,L|230:258,1,99.0000030212403,0|0,1:2|3:0,0:0:0:0:
365,168,145742,1,8,3:3:0:0:
363,187,145814,1,8,3:3:0:0:
361,206,145885,1,8,3:3:0:0:
359,225,145957,1,8,3:3:0:0:
357,244,146028,1,2,3:2:0:0:
463,134,146171,1,2,3:0:0:0:
256,192,146314,5,6,3:2:0:0:
256,104,150599,5,0,1:0:0:0:
256,104,150742,1,0,1:0:0:0:
256,192,150885,5,4,3:2:0:0:
256,192,151171,1,0,3:2:0:0:
256,192,151457,1,0,3:2:0:0:
256,192,151742,1,0,3:2:0:0:
398,97,152028,6,0,L|386:233,1,135.000005149842,6|0,3:1|3:2,0:0:0:0:
136,285,152599,2,0,L|124:150,1,135.000005149842,0|0,3:2|3:2,0:0:0:0:
256,360,153171,5,4,3:2:0:0:
266,108,154314,5,8,3:3:0:0:
196,238,154457,1,0,1:0:0:0:
271,89,154599,5,0,1:0:0:0:
311,294,154742,1,0,1:0:0:0:
275,71,154885,5,0,1:0:0:0:
178,260,155028,1,0,1:0:0:0:
371,179,155171,5,0,1:0:0:0:
371,179,155242,1,0,1:0:0:0:
371,179,155314,2,0,L|314:166,1,49.5000015106202,0|0,1:0|1:0,0:0:0:0:
67,80,155457,6,0,B|133:64|133:64|208:89|208:89|278:70,1,215.999993408203,6|2,3:2|1:2,0:0:0:0:
465,188,155885,2,0,L|447:294,1,107.999996704102,2|0,0:2|3:2,0:0:0:0:
271,360,156171,2,0,L|253:254,1,107.999996704102,2|0,0:2|1:2,0:0:0:0:
210,13,156457,1,2,0:2:0:0:
139,182,156599,5,2,3:2:0:0:
360,123,156742,1,2,0:2:0:0:
212,98,156885,1,2,1:2:0:0:
330,268,157028,1,2,0:2:0:0:
411,58,157171,2,0,P|359:42|309:60,1,107.999996704102,2|0,3:2|0:0,0:0:0:0:
139,182,157457,2,0,L|126:71,1,107.999996704102,2|0,1:2|0:0,0:0:0:0:
19,267,157742,6,0,B|57:306|57:306|224:283,1,215.999993408203,2|2,3:2|1:2,0:0:0:0:
422,340,158171,2,0,P|372:360|320:344,1,107.999996704102,2|0,0:2|3:2,0:0:0:0:
377,164,158457,2,0,L|370:278,1,107.999996704102,2|0,0:2|1:2,0:0:0:0:
484,210,158742,1,2,0:2:0:0:
264,190,158885,5,2,1:2:0:0:
443,75,159028,1,2,1:2:0:0:
371,272,159171,1,2,1:2:0:0:
315,67,159314,2,0,P|262:50|213:68,1,107.999996704102,2|0,1:2|3:2,0:0:0:0:
116,235,159599,1,2,1:2:0:0:
116,235,159671,1,0,1:0:0:0:
116,235,159742,1,0,1:2:0:0:
28,103,159885,1,2,3:2:0:0:
186,293,160028,6,0,P|138:327|40:297,1,161.999995056153,6|0,3:2|0:0,0:0:0:0:
0,239,160314,1,2,1:2:0:0:
242,232,160457,2,0,P|269:287|246:348,1,107.999996704102,2|0,0:2|3:2,0:0:0:0:
147,156,160742,1,2,0:2:0:0:
347,200,160885,1,0,1:2:0:0:
131,151,161028,1,2,0:2:0:0:
346,27,161171,5,2,3:2:0:0:
242,232,161314,1,2,0:0:0:0:
234,8,161457,1,2,1:2:0:0:
359,212,161599,1,2,0:2:0:0:
453,28,161742,2,0,L|342:26,1,107.999996704102,2|0,3:2|0:0,0:0:0:0:
488,245,162028,2,0,L|467:123,1,107.999996704102,2|2,1:2|0:0,0:0:0:0:
410,323,162314,5,2,3:2:0:0:
305,162,162457,2,0,P|253:146|201:165,1,107.999996704102,10|2,0:2|1:2,0:0:0:0:
308,323,162742,5,2,0:2:0:0:
203,162,162885,2,0,P|151:146|99:165,1,107.999996704102,10|2,3:2|0:2,0:0:0:0:
207,324,163171,5,2,1:2:0:0:
102,163,163314,2,0,P|50:147|-2:166,1,107.999996704102,10|2,0:2|3:2,0:0:0:0:
51,274,163599,5,2,0:2:0:0:
147,73,163742,1,2,1:2:0:0:
255,232,163885,1,2,0:2:0:0:
240,47,164028,2,0,L|132:32,1,107.999996704102,2|0,1:2|3:0,0:0:0:0:
305,162,164314,1,10,3:3:0:0:
326,160,164385,1,8,3:3:0:0:
347,158,164457,1,8,3:3:0:0:
368,156,164528,1,8,3:3:0:0:
389,154,164599,6,0,B|421:249|345:236|375:328|375:328|377:310|389:289,1,215.999993408203,6|2,3:2|1:2,0:0:0:0:
255,232,165028,2,0,L|276:337,1,107.999996704102,2|0,0:2|3:2,0:0:0:0:
472,256,165314,2,0,L|494:148,1,107.999996704102,2|0,0:2|1:2,0:0:0:0:
398,45,165599,1,2,0:2:0:0:
254,127,165742,5,2,3:2:0:0:
387,234,165885,1,2,0:2:0:0:
157,136,166028,1,2,1:2:0:0:
289,29,166171,1,2,0:2:0:0:
107,226,166314,2,0,B|157:246|157:246|212:227,1,107.999996704102,2|0,3:2|0:0,0:0:0:0:
150,28,166599,2,0,L|157:153,1,107.999996704102,2|0,1:2|0:0,0:0:0:0:
263,341,166885,6,0,P|300:296|206:307,1,215.999993408203,2|2,3:2|1:2,0:0:0:0:
377,353,167314,2,0,P|395:298|376:237,1,107.999996704102,2|0,0:2|3:2,0:0:0:0:
310,138,167599,1,2,0:2:0:0:
204,296,167742,1,0,1:2:0:0:
384,250,167885,1,2,0:2:0:0:
209,102,168028,5,2,1:2:0:0:
295,311,168171,1,2,1:2:0:0:
366,59,168314,1,2,1:2:0:0:
297,328,168457,1,2,1:2:0:0:
117,161,168742,1,2,1:2:0:0:
117,161,168814,1,0,1:0:0:0:
117,161,168885,2,0,P|99:106|118:45,1,107.999996704102,0|2,1:2|3:2,0:0:0:0:
140,276,169171,6,0,L|35:253,1,107.999996704102,6|0,3:2|0:0,0:0:0:0:
269,148,169457,1,2,1:2:0:0:
154,363,169599,2,0,L|49:340,1,107.999996704102,2|0,0:2|3:2,0:0:0:0:
297,328,169885,2,0,L|402:305,1,107.999996704102,2|2,0:2|1:2,0:0:0:0:
181,186,170171,1,2,0:2:0:0:
334,87,170314,5,2,3:2:0:0:
426,300,170457,1,2,0:2:0:0:
269,148,170599,1,2,1:2:0:0:
489,104,170742,1,2,0:2:0:0:
292,239,170885,2,0,P|231:238|195:205,1,107.999996704102,2|0,3:2|0:0,0:0:0:0:
313,5,171171,2,0,P|374:6|410:39,1,107.999996704102,2|0,1:2|0:0,0:0:0:0:
377,248,171457,5,2,3:2:0:0:
410,111,171599,1,10,0:2:0:0:
511,208,171742,1,2,1:2:0:0:
264,294,171885,5,2,0:2:0:0:
360,171,172028,1,10,3:2:0:0:
416,316,172171,1,2,0:2:0:0:
138,288,172314,5,2,1:2:0:0:
289,209,172457,1,10,0:2:0:0:
278,380,172599,1,2,3:2:0:0:
58,241,172742,5,2,0:2:0:0:
267,116,172885,2,0,L|255:226,1,107.999996704102,2|2,1:2|0:2,0:0:0:0:
153,94,173171,5,2,1:2:0:0:
332,42,173314,1,0,3:0:0:0:
155,184,173457,1,10,3:3:0:0:
115,178,173528,1,8,3:3:0:0:
82,156,173599,1,8,3:3:0:0:
63,120,173671,1,8,3:3:0:0:
62,80,173742,6,0,L|76:27,2,53.9999983520508,6|0|0,1:2|3:0|3:2,0:0:0:0:
175,280,174028,6,0,L|189:333,2,53.9999983520508,2|0|2,1:2|3:0|3:2,0:0:0:0:
246,147,174314,5,0,1:2:0:0:
267,144,174385,1,0,3:0:0:0:
288,141,174457,1,0,3:2:0:0:
415,271,174599,5,2,1:2:0:0:
394,268,174671,1,0,3:0:0:0:
373,265,174742,1,0,3:2:0:0:
407,58,174885,6,0,L|389:167,1,107.999996704102,4|2,1:2|3:2,0:0:0:0:
298,313,175171,1,2,1:2:0:0:
149,118,175314,1,2,3:2:0:0:
383,189,175457,5,2,1:2:0:0:
153,269,175599,1,2,3:2:0:0:
292,68,175742,5,2,1:2:0:0:
300,326,175885,1,2,3:2:0:0:
136,113,176028,6,0,L|81:103,2,53.9999983520508,6|0|0,1:2|3:0|3:2,0:0:0:0:
265,218,176314,5,2,1:2:0:0:
269,197,176385,1,0,3:0:0:0:
273,175,176457,1,2,3:2:0:0:
78,256,176599,6,0,L|23:246,2,53.9999983520508,0|0|0,1:2|3:0|3:2,0:0:0:0:
207,361,176885,5,2,1:2:0:0:
211,340,176957,1,0,3:0:0:0:
215,318,177028,1,0,3:2:0:0:
58,367,177171,5,6,1:2:0:0:
169,200,177314,1,2,3:2:0:0:
305,368,177457,5,2,1:2:0:0:
168,184,177599,1,2,3:2:0:0:
49,378,177742,6,0,L|61:269,1,107.999996704102,2|10,1:2|3:3,0:0:0:0:
206,52,178028,1,2,1:2:0:0:
68,81,178171,1,10,3:3:0:0:
272,188,178314,5,6,1:2:0:0:
307,206,178385,1,0,3:0:0:0:
347,211,178457,1,0,3:2:0:0:
386,200,178528,1,0,3:0:0:0:
419,176,178599,1,2,1:2:0:0:
440,142,178671,1,0,3:0:0:0:
448,103,178742,1,2,3:2:0:0:
441,63,178814,1,0,3:0:0:0:
420,29,178885,5,0,1:2:0:0:
398,62,178957,1,0,3:0:0:0:
390,102,179028,1,0,3:2:0:0:
397,142,179099,1,0,3:0:0:0:
418,176,179171,1,2,1:2:0:0:
440,209,179242,1,0,3:0:0:0:
448,249,179314,1,0,3:2:0:0:
441,289,179385,1,0,3:0:0:0:
420,323,179457,5,4,1:2:0:0:
181,370,179599,1,4,1:2:0:0:
195,127,180314,2,0,L|206:180,1,36,2|0,1:2|1:2,0:0:0:0:
258,279,180457,2,0,L|269:226,1,36,2|0,1:2|1:2,0:0:0:0:
277,80,180599,6,0,P|199:37|115:75,1,180,6|2,3:2|1:2,0:0:0:0:
60,230,181028,2,0,P|33:194|30:149,1,90,2|0,0:2|3:2,0:0:0:0:
142,358,181314,2,0,P|169:322|172:277,1,90,2|0,0:2|1:2,0:0:0:0:
45,328,181599,1,2,0:2:0:0:
150,194,181742,5,2,3:2:0:0:
150,194,181885,1,2,0:2:0:0:
262,345,182028,1,2,1:2:0:0:
262,345,182171,2,0,L|353:327,1,90,2|0,0:2|3:2,0:0:0:0:
461,235,182457,1,2,0:2:0:0:
443,230,182528,1,2,0:2:0:0:
425,225,182599,2,0,L|333:201,1,90,2|2,1:2|0:2,0:0:0:0:
171,37,182885,6,0,L|166:130,1,90,2|2,3:2|0:2,0:0:0:0:
343,28,183171,2,0,L|348:121,1,90,2|2,1:2|0:2,0:0:0:0:
153,44,183457,2,0,L|148:137,1,90,2|2,3:2|0:2,0:0:0:0:
361,35,183742,2,0,L|366:128,1,90,2|0,1:2|0:0,0:0:0:0:
228,350,184028,6,0,B|210:320|187:300|187:300|218:247|231:201,1,168.75,6|0,3:2|0:0,0:0:0:0:
306,265,184314,2,0,L|401:252,1,90,2|2,1:2|0:2,0:0:0:0:
486,158,184599,1,2,1:2:0:0:
302,122,184742,1,2,0:2:0:0:
284,119,184814,1,2,0:2:0:0:
266,116,184885,1,2,1:2:0:0:
402,142,185028,1,2,3:2:0:0:
231,220,185171,6,0,P|214:262|228:305,1,90,6|2,3:2|0:2,0:0:0:0:
301,357,185457,1,2,1:2:0:0:
98,338,185599,2,0,L|4:324,1,90,2|0,0:2|3:2,0:0:0:0:
47,171,185885,2,0,L|141:157,1,90,2|0,0:2|1:2,0:0:0:0:
208,51,186171,1,2,0:2:0:0:
317,233,186314,5,2,3:2:0:0:
158,155,186457,1,2,0:2:0:0:
328,92,186599,1,2,1:2:0:0:
208,299,186742,1,2,0:2:0:0:
228,302,187028,1,2,0:2:0:0:
245,305,187099,1,2,0:2:0:0:
262,308,187171,1,2,1:2:0:0:
113,361,187314,1,2,0:2:0:0:
328,371,187457,6,0,P|353:331|348:282,1,90,2|2,3:2|0:2,0:0:0:0:
158,155,187742,2,0,P|133:195|138:244,1,90,2|2,1:2|0:2,0:0:0:0:
262,308,188028,1,2,3:2:0:0:
262,308,188171,1,2,0:2:0:0:
336,111,188314,2,0,P|348:66|333:17,1,90,2|2,1:2|0:2,0:0:0:0:
335,191,188599,6,0,B|310:199|280:186|261:157|261:157|222:134|182:149,1,168.75,6|0,3:2|0:0,0:0:0:0:
100,93,188885,2,0,L|112:4,1,90,2|2,1:2|0:2,0:0:0:0:
174,260,189171,1,2,1:2:0:0:
12,188,189314,2,0,L|58:172,1,45,2|2,0:2|0:2,0:0:0:0:
191,117,189457,1,2,1:2:0:0:
58,293,189599,1,2,3:2:0:0:
257,350,189742,6,0,B|298:343|314:331|335:309|335:309|356:332|373:343|413:351,1,180,6|2,3:2|1:2,0:0:0:0:
456,189,190171,2,0,P|422:228|414:269,1,90,2|0,0:2|3:2,0:0:0:0:
254,265,190457,2,0,P|242:222|212:190,1,90,2|0,0:2|1:2,0:0:0:0:
124,148,190742,1,2,0:2:0:0:
275,119,190885,5,2,3:2:0:0:
97,35,191028,1,2,0:2:0:0:
284,122,191171,1,2,1:2:0:0:
88,30,191314,2,0,L|180:24,1,90,2|0,0:2|3:2,0:0:0:0:
377,161,191599,1,2,0:2:0:0:
375,142,191671,1,2,0:2:0:0:
373,124,191742,2,0,P|381:78|413:49,1,90,2|2,1:2|0:2,0:0:0:0:
421,233,192028,6,0,P|377:245|327:227,1,90,2|2,3:2|0:2,0:0:0:0:
151,179,192314,2,0,P|195:167|245:185,1,90,2|2,1:2|0:2,0:0:0:0:
68,251,192599,2,0,L|58:157,1,90,2|2,3:2|0:2,0:0:0:0:
196,262,192885,1,2,1:2:0:0:
196,262,193028,1,2,0:2:0:0:
152,81,193171,6,0,L|327:60,1,168.75,6|0,3:2|0:0,0:0:0:0:
374,123,193457,2,0,P|390:168|378:210,1,90,2|2,1:2|0:2,0:0:0:0:
298,310,193742,1,2,1:2:0:0:
499,254,193885,2,0,L|456:236,1,45,2|2,0:2|0:2,0:0:0:0:
296,169,194028,1,2,1:2:0:0:
464,123,194171,1,2,3:2:0:0:
411,331,194314,6,0,B|394:373|394:373|374:225,1,180,6|2,3:2|1:2,0:0:0:0:
208,188,194742,2,0,L|314:165,1,90,2|0,0:2|3:2,0:0:0:0:
165,353,195028,2,0,L|144:261,1,90,2|0,0:2|1:2,0:0:0:0:
73,187,195314,1,2,0:2:0:0:
257,270,195457,5,2,3:2:0:0:
61,300,195599,1,2,0:2:0:0:
208,188,195742,1,2,1:2:0:0:
13,98,195885,2,0,L|111:86,1,90,2|0,0:2|3:2,0:0:0:0:
293,112,196171,1,2,0:2:0:0:
287,129,196242,1,2,0:2:0:0:
281,146,196314,2,0,P|251:178|206:187,1,90,2|2,1:2|0:2,0:0:0:0:
227,45,196599,6,0,L|324:27,1,90,2|2,3:2|0:2,0:0:0:0:
485,229,196885,2,0,L|388:211,1,90,2|2,1:2|0:2,0:0:0:0:
212,33,197171,2,0,L|309:15,1,90,2|2,3:2|0:2,0:0:0:0:
470,241,197457,2,0,L|373:223,1,90,2|2,1:2|0:2,0:0:0:0:
449,22,197742,6,0,P|468:74|451:122,1,103.500001974106,6|0,3:2|0:0,0:0:0:0:
338,302,198028,1,2,1:2:0:0:
174,133,198171,1,2,0:0:0:0:
358,109,198314,1,2,1:2:0:0:
190,297,198457,1,2,0:0:0:0:
177,313,198528,1,2,0:0:0:0:
164,329,198599,2,0,P|117:348|67:334,1,103.500001974106,2|2,1:2|3:0,0:0:0:0:
27,86,198885,5,6,3:2:0:0:
109,266,199028,1,2,0:0:0:0:
14,73,199171,5,2,1:2:0:0:
211,200,199314,1,0,0:0:0:0:
2,61,199457,5,0,1:2:0:0:
277,98,199599,1,2,1:2:0:0:
297,100,199671,1,2,1:2:0:0:
317,102,199742,5,0,1:2:0:0:
123,76,199885,1,2,0:0:0:0:
256,260,200028,5,0,3:2:0:0:
256,192,200171,12,0,202885,0:0:0:0:
