osu file format v14

[General]
AudioFilename: audio.mp3
AudioLeadIn: 0
PreviewTime: 55597
Countdown: 0
SampleSet: Soft
StackLeniency: 0.4
Mode: 0
LetterboxInBreaks: 0
WidescreenStoryboard: 1

[Editor]
DistanceSpacing: 1
BeatDivisor: 2
GridSize: 16
TimelineZoom: 2.2

[Metadata]
Title:Manemane Psychotropic [Album Ver.]
TitleUnicode:マネマネサイコトロピック [Album Ver.]
Artist:Kairiki bear feat. GUMI
ArtistUnicode:かいりきベア feat. GUMI
Creator:Nevo
Version:Kudotsu's Extreme
Source:
Tags:wanpachi cycopton Serizawa Haruki irohas xchorse frostwich synderes agatsu kudosu so0p japanese rock vocaloid Jack J_a_c_k
BeatmapID:2447092
BeatmapSetID:1156937

[Difficulty]
HPDrainRate:5.5
CircleSize:4.1
OverallDifficulty:8.5
ApproachRate:9.4
SliderMultiplier:1.7
SliderTickRate:1

[Events]
//Background and Video events
0,0,"bg_waifu2x_art_noise3_scale_tta_1.jpg",0,0
//Break Periods
//Storyboard Layer 0 (Background)
//Storyboard Layer 1 (Fail)
//Storyboard Layer 2 (Pass)
//Storyboard Layer 3 (Foreground)
//Storyboard Layer 4 (Overlay)
//Storyboard Sound Samples

[TimingPoints]
290,285.714285714286,4,2,1,50,1,0
7147,292.682926829268,4,2,1,50,1,0
8332,333.333333333333,4,2,1,35,1,0
9665,-100,4,2,1,60,0,0
9955,285.714285714286,4,2,1,70,1,0
9955,-100,4,2,1,70,0,0
10169,-100,4,2,1,5,0,0
10240,-100,4,2,1,70,0,0
14740,-100,4,2,1,70,0,0
19097,-111.111111111111,4,2,1,65,0,0
37383,-100,4,2,1,70,0,0
46526,-111.111111111111,4,2,1,60,0,0
55669,-95.2380952380952,4,2,2,80,0,1
55812,-95.2380952380952,4,2,1,80,0,1
75097,-95.2380952380952,4,2,1,50,0,1
76240,-105.263157894737,4,2,1,60,0,0
78526,-125,4,2,1,60,0,0
87383,-111.111111111111,4,2,1,60,0,0
87669,-111.111111111111,4,2,1,65,0,0
101383,-125,4,2,1,60,0,0
103669,-125,4,2,1,40,0,0
104812,-125,4,2,1,50,0,0
105955,-100,4,2,2,70,0,1
106097,-100,4,2,1,70,0,1
106383,-100,4,2,1,70,0,1
110526,-100,4,2,1,70,0,1
110955,-100,4,2,1,70,0,1
115097,-100,4,2,1,70,0,1
115526,-100,4,2,1,70,0,1
119669,-100,4,2,1,70,0,1
120098,-100,4,2,1,70,0,1
124240,-100,4,2,1,70,0,1
125383,-100,4,2,1,50,0,1
126526,-111.111111111111,4,2,1,55,0,0
135669,-111.111111111111,4,2,1,65,0,0
149383,-95.2380952380952,4,2,1,70,0,1
153955,-133.333333333333,4,2,1,45,0,0
160812,-133.333333333333,4,2,1,40,0,0
163097,-90.9090909090909,4,2,2,80,0,1
163240,-90.9090909090909,4,2,1,80,0,1
187097,-90.9090909090909,4,2,1,50,0,1
187240,-111.111111111111,4,2,1,50,0,0
188240,-111.111111111111,4,2,1,60,0,0
190526,-100,4,2,1,70,0,0

[Colours]
Combo1 : 255,91,91
Combo2 : 0,128,64
Combo3 : 0,128,255
Combo4 : 251,187,38

[HitObjects]
352,281,9665,5,8,0:0:0:0:
17,192,9955,6,0,P|92:182|142:238,1,127.5,6|0,1:2|0:0,0:0:0:0:
134,226,10240,1,10,0:0:0:0:
323,131,10383,2,0,P|282:123|240:116,1,85,2|0,0:0|1:0,0:0:0:0:
352,281,10669,1,2,0:0:0:0:
448,150,10812,1,8,0:0:0:0:
264,220,10955,1,2,0:0:0:0:
417,345,11097,6,0,P|458:337|500:330,1,85,2|0,1:2|0:0,0:0:0:0:
256,327,11383,1,10,0:0:0:0:
446,230,11526,2,0,P|458:181|444:144,1,85,2|0,0:0|1:0,0:0:0:0:
294,24,11812,1,2,0:0:0:0:
294,24,11883,1,2,0:0:0:0:
294,24,11955,1,10,0:0:0:0:
378,187,12097,1,2,0:0:0:0:
167,266,12240,6,0,P|130:245|88:249,1,85,2|0,1:2|0:0,0:0:0:0:
246,108,12526,2,0,P|252:145|261:202,1,85,10|0,2:2|0:0,0:0:0:0:
44,41,12812,1,2,1:2:0:0:
246,108,12955,1,0,0:0:0:0:
88,248,13097,1,10,2:2:0:0:
125,131,13240,1,0,1:0:0:0:
306,353,13383,6,0,P|264:359|222:366,1,85,6|0,1:2|0:0,0:0:0:0:
423,232,13669,1,10,2:2:0:0:
390,367,13812,1,0,1:0:0:0:
288,171,13955,1,10,2:2:0:0:
461,316,14097,1,2,1:2:0:0:
461,316,14169,1,2,0:0:0:0:
461,316,14240,1,10,0:0:0:0:
496,137,14383,1,0,1:0:0:0:
277,263,14526,6,0,P|209:252|150:245,1,127.5,6|0,1:2|0:0,0:0:0:0:
133,253,14812,1,10,2:2:0:0:
288,171,14955,2,0,P|308:117|293:81,1,85,2|0,2:2|1:0,0:0:0:0:
361,232,15240,1,2,2:0:0:0:
159,88,15383,1,8,0:0:0:0:
220,221,15526,1,2,0:0:0:0:
328,18,15669,6,0,P|376:25|438:33,1,85,2|0,1:2|0:0,0:0:0:0:
230,119,15955,1,10,0:0:0:0:
93,49,16097,2,0,P|45:56|-17:64,1,85,2|0,0:0|1:0,0:0:0:0:
220,221,16383,1,2,0:0:0:0:
220,221,16455,1,2,0:0:0:0:
220,221,16526,1,10,0:0:0:0:
167,78,16669,1,2,0:0:0:0:
38,242,16812,6,0,P|45:286|51:337,1,85,2|0,1:2|0:0,0:0:0:0:
295,239,17097,2,0,P|250:214|215:222,1,85,10|0,2:2|0:0,0:0:0:0:
341,349,17383,1,2,1:2:0:0:
378,211,17526,1,0,0:0:0:0:
208,357,17669,1,10,0:0:0:0:
360,280,17812,1,0,1:0:0:0:
230,83,17955,6,0,P|187:89|145:94,1,85,6|0,1:2|0:0,0:0:0:0:
295,239,18240,1,10,2:2:0:0:
313,58,18383,1,0,1:2:0:0:
182,278,18526,1,10,2:2:0:0:
383,207,18669,1,2,1:2:0:0:
383,207,18740,1,2,0:0:0:0:
383,207,18812,2,0,P|436:216|493:221,1,85,10|0,0:0|1:0,0:0:0:0:
327,327,19097,6,0,P|290:331|251:337,1,76.4999976654053,6|0,1:2|0:0,0:0:0:0:
73,296,19383,2,0,P|128:302|158:286,1,76.4999976654053,10|0,0:0|0:0,0:0:0:0:
261,169,19669,1,2,1:2:0:0:
228,257,19812,1,2,0:0:0:0:
184,88,19955,1,10,0:0:0:0:
151,176,20097,1,2,0:0:0:0:
292,61,20240,6,0,P|331:69|371:73,1,76.4999976654053,2|2,1:2|2:2,0:0:0:0:
512,193,20526,1,10,2:2:0:0:
474,85,20669,1,2,2:2:0:0:
384,201,20812,2,0,P|392:247|404:327,1,114.749996498108,0|0,1:2|0:0,0:0:0:0:
431,344,21097,2,0,P|478:333|537:353,1,76.4999976654053,10|0,2:2|0:0,0:0:0:0:
299,269,21383,5,2,1:2:0:0:
229,357,21526,1,2,0:0:0:0:
97,244,21669,1,10,0:0:0:0:
217,275,21812,1,2,0:0:0:0:
77,360,21955,2,0,P|35:352|-2:347,1,76.4999976654053,2|0,1:2|0:0,0:0:0:0:
168,215,22240,2,0,P|180:167|155:123,1,76.4999976654053,10|0,2:2|0:0,0:0:0:0:
219,0,22526,5,2,1:2:0:0:
86,97,22669,2,0,P|93:134|98:176,1,76.4999976654053,2|10,0:0|0:0,0:0:0:0:
65,284,22955,1,2,0:0:0:0:
171,142,23097,2,0,P|213:129|269:154,1,76.4999976654053,0|0,1:2|0:0,0:0:0:0:
420,229,23383,2,0,P|358:217|293:208,1,114.749996498108,10|0,2:2|0:0,0:0:0:0:
275,235,23669,6,0,P|261:288|279:336,1,76.4999976654053,6|0,1:2|0:0,0:0:0:0:
368,126,23955,1,10,2:2:0:0:
257,151,24097,1,2,2:2:0:0:
451,240,24240,1,2,1:2:0:0:
503,108,24383,1,2,2:2:0:0:
503,108,24455,1,2,2:2:0:0:
503,108,24526,2,0,P|495:66|487:13,1,76.4999976654053,10|2,2:2|0:0,0:0:0:0:
355,225,24812,6,0,L|370:319,1,76.4999976654053,2|0,1:2|0:0,0:0:0:0:
149,191,25097,2,0,P|160:132|169:64,1,114.749996498108,10|0,2:2|0:0,0:0:0:0:
156,56,25383,1,2,1:2:0:0:
56,214,25526,2,0,P|46:261|64:308,1,76.4999976654053,2|8,2:2|2:2,0:0:0:0:
33,121,25812,1,2,2:2:0:0:
182,323,25955,6,0,P|230:293|283:311,1,114.749996498108,6|0,1:2|0:0,0:0:0:0:
300,325,26240,1,10,2:2:0:0:
159,208,26383,1,2,2:2:0:0:
338,132,26526,2,0,P|331:165|322:226,1,76.4999976654053,2|0,1:2|0:0,0:0:0:0:
251,34,26812,1,10,0:0:0:0:
404,182,26955,1,2,0:0:0:0:
169,100,27097,5,6,1:2:0:0:
436,45,27383,5,6,1:2:0:0:
312,290,27669,6,0,P|272:282|232:277,1,76.4999976654053,6|0,1:2|1:3,0:0:0:0:
445,352,27955,6,0,L|455:288,3,38.2499988327027,2|2|2|2,2:2|2:2|2:2|2:2,0:0:0:0:
396,166,28240,5,6,1:2:0:0:
320,304,28383,1,2,0:0:0:0:
250,125,28526,2,0,P|256:87|262:45,1,76.4999976654053,10|2,0:0|0:0,0:0:0:0:
140,193,28812,1,2,1:2:0:0:
329,98,28955,1,2,2:2:0:0:
129,32,29097,2,0,P|85:26|43:36,1,76.4999976654053,10|0,2:2|0:0,0:0:0:0:
213,190,29383,5,2,1:2:0:0:
329,28,29526,1,2,2:2:0:0:
253,254,29669,1,10,2:2:0:0:
204,111,29812,1,2,2:2:0:0:
378,241,29955,2,0,P|415:234|453:228,1,76.4999976654053,0|0,1:2|0:0,0:0:0:0:
264,366,30240,2,0,P|212:389|158:373,1,114.749996498108,10|0,2:2|0:0,0:0:0:0:
134,354,30526,5,2,1:2:0:0:
285,251,30669,1,2,2:2:0:0:
79,196,30812,2,0,P|43:204|3:207,1,76.4999976654053,10|2,2:2|2:2,0:0:0:0:
205,135,31097,2,0,P|214:86|183:43,1,76.4999976654053,2|0,1:2|0:0,0:0:0:0:
347,161,31383,2,0,P|353:199|359:237,1,76.4999976654053,10|2,2:2|2:2,0:0:0:0:
264,366,31669,5,2,1:2:0:0:
355,254,31812,1,2,2:2:0:0:
208,153,31955,1,10,2:2:0:0:
366,357,32097,1,2,2:2:0:0:
440,224,32240,2,0,P|432:183|424:129,1,76.4999976654053,2|0,1:2|0:0,0:0:0:0:
246,78,32526,2,0,P|186:68|137:112,1,114.749996498108,10|0,2:2|0:0,0:0:0:0:
131,129,32812,6,0,P|135:165|142:204,1,76.4999976654053,6|0,1:2|0:0,0:0:0:0:
337,113,33097,2,0,P|329:75|325:37,1,76.4999976654053,10|0,2:2|0:0,0:0:0:0:
255,210,33383,1,2,1:2:0:0:
406,68,33526,1,2,0:0:0:0:
406,68,33597,1,2,0:0:0:0:
406,68,33669,2,0,P|454:54|493:77,1,76.4999976654053,8|0,0:0|0:0,0:0:0:0:
436,241,33955,5,2,1:2:0:0:
448,140,34097,1,2,0:0:0:0:
338,289,34240,1,10,0:0:0:0:
306,192,34383,1,2,0:0:0:0:
429,350,34526,2,0,P|466:343|504:338,1,76.4999976654053,2|0,1:2|0:0,0:0:0:0:
238,269,34812,1,10,2:2:0:0:
381,183,34955,1,2,2:2:0:0:
213,96,35097,6,0,P|218:133|225:171,1,76.4999976654053,6|0,1:2|0:0,0:0:0:0:
185,352,35383,1,10,2:2:0:0:
75,304,35526,2,0,P|37:311|0:315,1,76.4999976654053,2|0,2:2|1:0,0:0:0:0:
238,269,35812,2,0,P|275:276|313:280,1,76.4999976654053,2|8,2:0|2:0,0:0:0:0:
142,206,36097,1,2,0:0:0:0:
264,375,36240,5,6,1:2:0:0:
350,185,36383,1,2,1:2:0:0:
154,280,36526,1,10,2:2:0:0:
392,342,36669,2,0,P|432:334|467:330,1,76.4999976654053,6|0,1:2|0:0,0:0:0:0:
249,200,36955,5,0,1:2:0:0:
441,112,37097,1,8,2:2:0:0:
313,280,37240,1,8,2:2:0:0:
172,80,37383,6,0,P|132:120|136:194,1,127.5,6|0,1:2|0:0,0:0:0:0:
145,209,37669,1,10,0:0:0:0:
205,384,37812,2,0,P|214:343|225:294,1,85,2|0,0:0|1:0,0:0:0:0:
94,317,38097,1,2,0:0:0:0:
256,192,38240,1,8,0:0:0:0:
57,80,38383,1,2,0:0:0:0:
145,209,38526,6,0,B|152:169|152:169|144:112,1,85,2|0,1:2|0:0,0:0:0:0:
31,231,38812,1,10,0:0:0:0:
151,20,38955,2,0,L|271:11,1,85,2|0,0:0|1:0,0:0:0:0:
400,175,39240,1,2,0:0:0:0:
402,163,39312,1,2,0:0:0:0:
400,151,39383,1,10,0:0:0:0:
305,237,39526,1,2,0:0:0:0:
480,74,39669,6,0,P|504:111|496:164,1,85,2|0,1:2|0:0,0:0:0:0:
328,23,39955,2,0,P|365:-1|418:7,1,85,10|0,2:2|0:0,0:0:0:0:
305,237,40240,2,0,B|223:246|225:184|127:202,1,170,2|10,1:2|2:2,0:0:0:0:
251,328,40669,1,0,1:0:0:0:
243,89,40812,5,6,1:2:0:0:
139,305,40955,1,0,0:0:0:0:
245,60,41097,1,10,2:2:0:0:
356,299,41240,1,0,1:0:0:0:
247,36,41383,5,10,2:2:0:0:
105,189,41526,1,2,1:2:0:0:
102,175,41597,1,2,0:0:0:0:
105,159,41669,1,10,0:0:0:0:
269,255,41812,1,0,1:0:0:0:
32,251,41955,6,0,B|77:219|143:226|143:226|165:257|199:258,1,170,6|10,1:2|2:2,0:0:0:0:
422,126,42383,2,0,P|411:170|400:227,1,85,2|0,2:2|1:0,0:0:0:0:
210,60,42669,2,0,P|221:104|232:161,1,85,2|8,2:0|0:0,0:0:0:0:
333,60,42955,1,2,0:0:0:0:
213,252,43097,6,0,P|168:243|122:237,1,85,2|0,1:2|0:0,0:0:0:0:
228,142,43383,1,10,0:0:0:0:
340,311,43526,2,0,P|408:319|449:260,1,127.5,2|0,0:0|0:0,0:0:0:0:
500,193,43812,1,2,0:0:0:0:
485,189,43883,1,2,0:0:0:0:
470,186,43955,1,10,0:0:0:0:
506,364,44097,1,2,0:0:0:0:
375,211,44240,6,0,B|300:200|293:253|204:251,1,170,2|10,1:2|2:2,0:0:0:0:
282,365,44669,1,0,0:0:0:0:
115,184,44812,1,8,2:2:0:0:
63,186,44883,1,8,2:2:0:0:
26,223,44955,1,8,2:2:0:0:
22,274,45026,1,8,2:2:0:0:
51,315,45097,2,0,L|104:306,1,42.5,10|8,2:2|2:2,0:0:0:0:
213,162,45240,2,0,L|254:169,1,42.5,8|8,2:2|2:2,0:0:0:0:
409,317,45383,5,10,2:2:0:0:
443,243,46240,5,10,0:0:0:0:
333,313,46383,1,8,0:3:0:0:
210,234,46526,6,0,P|153:221|107:297,1,152.999995330811,6|2,1:2|1:3,0:0:0:0:
222,131,46955,1,0,0:0:0:0:
154,30,47097,2,0,P|128:70|134:110,1,76.4999976654053,10|2,2:0|0:0,0:0:0:0:
297,193,47383,2,0,P|337:187|386:180,1,76.4999976654053,2|2,1:3|1:2,0:0:0:0:
474,232,47669,6,0,P|486:156|505:67,1,152.999995330811,2|2,1:2|1:3,0:0:0:0:
372,181,48097,2,0,B|337:148|284:146|284:146|261:165|221:169,1,152.999995330811,2|0,0:0|0:0,0:0:0:0:
123,139,48526,2,0,P|130:174|137:227,1,76.4999976654053,2|0,1:3|1:2,0:0:0:0:
12,327,48812,6,0,B|86:312|93:359|170:346,1,152.999995330811,6|2,1:2|1:3,0:0:0:0:
350,270,49240,1,2,0:0:0:0:
266,214,49383,2,0,P|257:256|246:307,1,76.4999976654053,8|0,0:0|0:0,0:0:0:0:
333,376,49669,2,0,P|368:368|416:360,1,76.4999976654053,2|0,1:3|1:2,0:0:0:0:
485,256,49955,6,0,B|401:232|401:232|379:271|327:273,1,152.999995330811,2|2,1:2|1:3,0:0:0:0:
187,168,50383,2,0,P|203:93|225:-3,1,152.999995330811,2|0,0:0|0:0,0:0:0:0:
93,101,50812,2,0,P|65:141|73:196,1,76.4999976654053,2|8,1:3|0:0,0:0:0:0:
163,271,51097,6,0,P|205:266|264:261,1,76.4999976654053,6|2,1:2|0:0,0:0:0:0:
76,364,51383,2,0,P|34:359|-25:354,1,76.4999976654053,2|2,1:3|0:0,0:0:0:0:
59,264,51669,1,10,0:0:0:0:
59,264,51812,1,2,0:0:0:0:
199,384,51955,2,0,B|207:346|207:346|201:292,1,76.4999976654053,2|2,1:3|1:2,0:0:0:0:
350,220,52240,6,0,P|394:227|442:235,1,76.4999976654053,2|10,1:2|0:0,0:0:0:0:
372,317,52526,1,2,1:3:0:0:
254,221,52669,1,2,0:0:0:0:
363,102,52812,2,0,B|410:71|464:75|464:75|479:101|514:114,1,152.999995330811,10|2,2:2|1:3,0:0:0:0:
381,0,53240,1,8,0:0:0:0:
266,119,53383,5,6,1:2:0:0:
465,368,54526,6,0,L|476:312,1,38.2499988327027,4|0,1:2|1:2,0:0:0:0:
494,313,54669,1,8,2:2:0:0:
296,261,54812,6,0,L|285:205,1,38.2499988327027,8|0,0:0|0:0,0:0:0:0:
267,206,54955,1,2,1:2:0:0:
257,201,55026,1,2,0:0:0:0:
247,195,55097,1,2,0:0:0:0:
201,189,55169,1,2,0:0:0:0:
152,205,55240,1,2,0:0:0:0:
123,248,55312,1,2,0:0:0:0:
123,300,55383,6,0,L|139:348,1,38.2499988327027,2|0,0:0|0:0,0:0:0:0:
322,384,55526,2,0,L|334:347,1,38.2499988327027
226,167,55669,6,0,B|187:124|125:119|125:119|101:149|58:153,1,178.499994552612,6|10,1:2|0:0,0:0:0:0:
257,44,56097,2,0,P|299:38|378:23,1,89.2499972763062,2|0,0:0|1:0,0:0:0:0:
494,182,56383,2,0,B|499:141|499:141|484:81,1,89.2499972763062,2|8,2:0|2:0,0:0:0:0:
379,151,56669,1,2,2:0:0:0:
497,296,56812,5,2,1:2:0:0:
298,196,56955,1,2,2:2:0:0:
393,378,57097,2,0,P|396:335|404:268,1,89.2499972763062,10|0,2:2|0:0,0:0:0:0:
198,169,57383,2,0,P|151:210|171:304,1,133.874995914459,2|0,1:2|0:0,0:0:0:0:
239,356,57669,2,0,P|243:302|250:251,1,89.2499972763062,10|0,2:2|0:0,0:0:0:0:
86,123,57955,6,0,P|40:134|-5:144,1,89.2499972763062,2|0,1:2|0:0,0:0:0:0:
74,230,58240,1,10,2:2:0:0:
198,72,58383,2,0,P|231:126|219:171,1,89.2499972763062,2|0,2:2|1:2,0:0:0:0:
105,332,58669,2,0,P|58:321|-16:308,1,89.2499972763062,2|8,2:2|2:2,0:0:0:0:
152,195,58955,1,2,1:2:0:0:
296,341,59097,5,10,0:2:0:0:
74,230,59240,1,10,0:2:0:0:
318,144,59383,1,2,1:2:0:0:
200,382,59526,2,0,B|195:340|195:340|205:290,1,89.2499972763062,14|0,0:2|1:0,0:0:0:0:
411,118,59812,1,10,2:0:0:0:
415,133,59883,1,8,2:0:0:0:
414,149,59955,1,8,2:0:0:0:
241,77,60097,1,10,0:0:0:0:
462,257,60240,6,0,B|361:228|361:228|341:265|292:273,1,178.499994552612,6|10,1:2|0:0,0:0:0:0:
213,211,60669,2,0,B|200:258|200:258|204:322,1,89.2499972763062,2|0,0:0|1:0,0:0:0:0:
376,130,60955,2,0,P|421:124|481:118,1,89.2499972763062,2|8,2:0|2:0,0:0:0:0:
403,35,61240,1,2,2:0:0:0:
307,197,61383,5,2,1:2:0:0:
160,73,61526,1,2,2:2:0:0:
275,20,61669,2,0,P|267:64|259:115,1,89.2499972763062,10|0,2:2|0:0,0:0:0:0:
30,216,61955,2,0,P|62:184|151:199,1,133.874995914459,2|0,1:2|0:0,0:0:0:0:
197,301,62240,2,0,P|158:294|101:286,1,89.2499972763062,10|0,2:2|1:2,0:0:0:0:
250,204,62526,5,2,1:2:0:0:
365,382,62669,2,0,P|382:338|363:276,1,89.2499972763062,2|8,0:3|0:2,0:0:0:0:
263,376,62955,5,2,0:0:0:0:
357,189,63097,1,2,1:3:0:0:
479,324,63240,1,0,0:0:0:0:
281,284,63383,5,10,0:2:0:0:
478,128,63526,2,0,P|467:184|458:237,1,89.2499972763062,2|0,0:3|1:3,0:0:0:0:
241,112,63812,5,2,2:2:0:0:
375,297,63955,1,10,2:2:0:0:
415,63,64097,1,0,1:2:0:0:
281,284,64240,6,0,P|225:294|181:268,1,89.2499972763062,10|0,2:2|1:2,0:0:0:0:
132,210,64455,1,0,0:0:0:0:
128,203,64526,2,0,P|139:152|152:86,1,89.2499972763062,10|0,2:2|1:2,0:0:0:0:
81,37,64740,1,0,0:0:0:0:
87,30,64812,6,0,B|201:17|201:17|223:56|264:60,1,178.499994552612,6|10,1:2|0:0,0:0:0:0:
385,155,65240,2,0,P|392:114|409:46,1,89.2499972763062,2|0,0:0|1:0,0:0:0:0:
221,194,65526,2,0,P|193:236|200:292,1,89.2499972763062,2|8,2:0|2:0,0:0:0:0:
302,251,65812,1,2,2:0:0:0:
112,135,65955,5,2,1:2:0:0:
285,19,66097,1,2,2:2:0:0:
221,194,66240,2,0,P|217:147|212:84,1,89.2499972763062,10|0,2:2|0:0,0:0:0:0:
15,294,66526,2,0,P|35:266|136:275,1,133.874995914459,2|0,1:2|0:0,0:0:0:0:
197,338,66812,2,0,P|245:330|305:325,1,89.2499972763062,10|0,2:2|0:0,0:0:0:0:
492,324,67097,5,2,1:2:0:0:
349,200,67240,1,2,0:0:0:0:
393,384,67383,1,10,2:2:0:0:
441,146,67526,2,0,B|453:191|453:191|443:247,1,89.2499972763062,2|0,2:2|1:2,0:0:0:0:
281,117,67812,1,2,2:2:0:0:
415,28,67955,2,0,P|461:35|525:45,1,89.2499972763062,8|2,2:2|1:2,0:0:0:0:
349,200,68240,5,10,0:2:0:0:
259,0,68383,1,10,0:2:0:0:
441,146,68526,1,2,1:2:0:0:
228,276,68669,2,0,L|246:176,1,89.2499972763062,14|0,0:2|1:0,0:0:0:0:
75,62,68955,1,10,2:0:0:0:
70,72,69026,1,8,2:0:0:0:
69,86,69097,1,8,2:0:0:0:
143,283,69240,1,10,0:0:0:0:
0,148,69383,6,0,B|46:117|123:129|123:129|141:162|179:168,1,178.499994552612,6|10,1:2|0:0,0:0:0:0:
263,121,69812,2,0,P|270:80|281:17,1,89.2499972763062,2|0,0:0|1:0,0:0:0:0:
435,178,70097,2,0,P|463:222|459:265,1,89.2499972763062,2|8,2:0|2:0,0:0:0:0:
491,93,70383,1,2,2:0:0:0:
353,244,70526,6,0,P|308:238|238:228,1,89.2499972763062,2|0,1:2|2:2,0:0:0:0:
54,298,70812,2,0,P|41:251|58:206,1,89.2499972763062,10|0,2:2|0:0,0:0:0:0:
187,105,71097,2,0,P|177:176|164:268,1,133.874995914459,2|0,1:2|0:0,0:0:0:0:
152,256,71383,1,10,2:2:0:0:
84,94,71526,1,0,1:2:0:0:
296,220,71669,5,2,1:2:0:0:
94,341,71812,2,0,P|37:332|-4:326,1,89.2499972763062,2|8,0:3|0:2,0:0:0:0:
123,176,72097,5,2,0:0:0:0:
255,376,72240,1,2,1:3:0:0:
280,139,72383,1,0,0:0:0:0:
184,304,72526,5,10,0:2:0:0:
373,182,72669,2,0,P|399:232|390:285,1,89.2499972763062,2|0,0:3|1:3,0:0:0:0:
218,213,72955,5,2,2:2:0:0:
430,83,73097,1,10,2:2:0:0:
306,292,73240,1,0,1:2:0:0:
154,68,73383,6,0,P|199:65|262:60,1,89.2499972763062,10|0,2:2|1:2,0:0:0:0:
325,3,73597,1,0,0:0:0:0:
330,12,73669,2,0,B|342:56|342:56|338:112,1,89.2499972763062,10|0,2:2|1:0,0:0:0:0:
288,176,73883,1,0,1:0:0:0:
281,184,73955,5,6,1:2:0:0:
489,282,74097,1,0,1:3:0:0:
272,381,74240,1,10,2:2:0:0:
512,283,74383,1,2,1:2:0:0:
340,101,74526,5,8,2:2:0:0:
383,368,74669,1,0,1:3:0:0:
386,354,74740,1,0,1:3:0:0:
385,340,74812,1,10,2:2:0:0:
170,197,74955,1,0,1:3:0:0:
429,225,75097,5,10,0:0:0:0:
130,339,75240,1,10,0:0:0:0:
326,32,76240,5,14,0:0:0:0:
362,246,76383,1,10,0:0:0:0:
314,19,76669,5,8,0:0:0:0:
360,272,76955,5,0,1:0:0:0:
188,167,77097,1,8,2:0:0:0:
141,155,77169,1,8,2:0:0:0:
93,164,77240,1,8,2:0:0:0:
56,201,77312,1,8,2:0:0:0:
46,250,77383,6,0,P|50:297|55:353,1,80.7499978437424,4|0,1:2|1:2,0:0:0:0:
166,261,77669,1,8,0:0:0:0:
0,110,77812,2,0,B|93:89|93:89|113:124|151:133,1,161.499995687485,4|0,1:2|1:2,0:0:0:0:
252,196,78240,2,0,P|255:157|264:95,1,80.7499978437424,8|0,2:2|1:2,0:0:0:0:
457,21,78526,6,0,P|403:3|341:80,1,136,4|2,1:2|1:2,0:0:0:0:
476,189,79097,2,0,P|493:234|488:273,1,68,2|2,1:2|2:2,0:0:0:0:
390,244,79383,2,0,P|356:249|297:258,1,68,2|2,1:2|2:2,0:0:0:0:
368,351,79669,5,2,1:2:0:0:
368,351,79812,1,2,2:2:0:0:
225,205,79955,2,0,B|216:241|216:241|217:297,1,68,2|2,1:2|2:2,0:0:0:0:
322,254,80240,2,0,P|328:178|337:86,1,136,2|2,1:2|1:2,0:0:0:0:
129,282,80812,6,0,B|98:261|45:258|45:258|20:284|-12:292,2,136,2|2|2,1:3|1:2|1:2,0:0:0:0:
58,156,81526,1,2,2:2:0:0:
126,41,81669,2,0,P|146:88|137:133,1,68,0|2,1:2|2:0,0:0:0:0:
290,244,81955,6,0,P|298:204|307:168,1,68,2|2,1:2|2:2,0:0:0:0:
195,221,82240,1,0,1:2:0:0:
328,347,82383,2,0,P|407:335|486:326,1,136,2|0,0:0|0:0,0:0:0:0:
379,197,82812,1,4,2:3:0:0:
379,197,82955,1,4,2:3:0:0:
480,84,83097,6,0,P|475:119|471:157,1,68,2|2,1:2|2:2,0:0:0:0:
366,95,83383,2,0,P|328:97|288:83,1,68,2|2,1:2|2:0,0:0:0:0:
121,164,83669,1,2,1:2:0:0:
220,211,83812,2,0,P|210:145|196:49,1,136,2|4,2:2|2:3,0:0:0:0:
121,164,84240,6,0,P|81:174|30:168,1,68,0|2,1:0|2:0,0:0:0:0:
126,304,84526,1,4,2:3:0:0:
154,294,84597,1,4,2:3:0:0:
184,297,84669,1,4,2:3:0:0:
212,310,84740,1,0,0:0:0:0:
229,336,84812,1,4,2:3:0:0:
409,219,84955,1,8,2:3:0:0:
333,384,85097,2,0,P|336:343|340:293,1,68,2|8,1:2|2:3,0:0:0:0:
463,140,85383,6,0,B|384:119|384:119|365:146|328:151,1,136,6|2,1:2|1:2,0:0:0:0:
143,287,85955,1,2,1:2:0:0:
232,340,86097,2,0,P|239:298|248:251,1,68,2|8,2:3|0:0,0:0:0:0:
140,378,86383,1,2,1:2:0:0:
344,255,86526,5,6,1:2:0:0:
61,41,87383,2,0,P|65:85|69:144,1,76.4999976654053,10|0,0:0|1:0,0:0:0:0:
165,72,87669,5,6,1:2:0:0:
16,210,87812,1,2,2:2:0:0:
249,185,87955,2,0,B|161:166|161:166|138:201|100:205,1,152.999995330811,10|2,2:2|1:2,0:0:0:0:
258,92,88383,1,2,2:2:0:0:
190,3,88526,2,0,P|165:45|170:91,1,76.4999976654053,10|2,2:2|2:2,0:0:0:0:
330,162,88812,6,0,P|370:155|422:147,1,76.4999976654053,2|2,1:2|2:2,0:0:0:0:
354,62,89097,1,10,2:2:0:0:
495,230,89240,2,0,P|502:160|513:73,1,152.999995330811,2|0,2:2|0:0,0:0:0:0:
403,247,89669,2,0,P|386:284|386:322,1,76.4999976654053,10|0,2:0|0:0,0:0:0:0:
495,230,89955,5,2,1:2:0:0:
351,138,90097,1,2,2:2:0:0:
462,52,90240,2,0,P|452:96|444:139,1,76.4999976654053,10|2,2:2|2:2,0:0:0:0:
293,221,90526,1,2,1:2:0:0:
246,41,90669,1,2,2:2:0:0:
351,138,90812,2,0,P|306:130|257:122,1,76.4999976654053,10|2,2:2|2:2,0:0:0:0:
72,203,91097,6,0,P|63:158|83:119,1,76.4999976654053,2|2,1:2|2:2,0:0:0:0:
167,171,91383,1,10,2:2:0:0:
0,326,91526,2,0,B|43:294|101:297|101:297|122:329|154:329,1,152.999995330811,2|0,2:2|0:0,0:0:0:0:
225,382,91955,2,0,P|231:346|241:292,1,76.4999976654053,10|0,2:2|0:0,0:0:0:0:
346,163,92240,5,6,1:2:0:0:
436,328,92383,1,2,0:0:0:0:
323,260,92526,2,0,L|427:246,1,76.4999976654053,10|2,2:2|2:2,0:0:0:0:
512,113,92812,2,0,P|470:70|375:83,1,152.999995330811,2|10,1:2|2:2,0:0:0:0:
237,176,93240,1,2,2:2:0:0:
323,260,93383,6,0,P|329:219|338:173,1,76.4999976654053,2|2,1:2|2:2,0:0:0:0:
223,273,93669,1,10,2:2:0:0:
126,149,93812,1,2,2:2:0:0:
50,262,93955,2,0,P|90:253|152:244,1,76.4999976654053,2|2,1:2|2:2,0:0:0:0:
221,44,94240,2,0,P|245:87|236:131,1,76.4999976654053,10|2,2:2|2:2,0:0:0:0:
126,47,94526,5,2,1:2:0:0:
218,311,94812,2,0,P|225:268|236:218,1,76.4999976654053,10|2,2:2|2:2,0:0:0:0:
135,360,95097,1,2,1:2:0:0:
310,282,95240,1,2,2:2:0:0:
155,170,95383,2,0,P|126:213|135:264,1,76.4999976654053,10|2,2:2|2:2,0:0:0:0:
267,372,95669,6,0,L|353:360,1,76.4999976654053,6|0,1:2|0:0,0:0:0:0:
231,235,95955,1,0,1:2:0:0:
423,128,96097,2,0,P|413:203|404:279,1,152.999995330811,10|0,2:2|1:2,0:0:0:0:
315,142,96526,2,0,P|269:141|233:123,1,76.4999976654053,8|0,2:2|1:2,0:0:0:0:
376,23,96812,5,14,0:0:0:0:
325,255,96955,1,10,0:0:0:0:
59,100,97669,6,0,P|99:95|156:88,1,76.4999976654053,10|2,0:0|1:2,0:0:0:0:
275,224,97955,6,0,B|281:187|281:187|274:137,1,76.4999976654053,14|0,2:0|1:0,0:0:0:0:
181,261,98240,1,2,1:2:0:0:
228,62,98383,2,0,B|319:48|319:48|339:78|373:85,1,152.999995330811,10|0,2:0|1:0,0:0:0:0:
496,186,98812,2,0,P|502:147|480:96,1,76.4999976654053,8|0,2:0|1:0,0:0:0:0:
389,241,99097,5,10,2:0:0:0:
449,16,99240,1,10,2:0:0:0:
275,187,99955,6,0,P|232:182|175:175,1,76.4999976654053,10|0,0:0|1:2,0:0:0:0:
69,259,100240,6,0,P|49:304|59:343,1,76.4999976654053,14|0,0:0|1:0,0:0:0:0:
173,276,100526,1,2,1:2:0:0:
0,128,100669,2,0,B|42:103|98:102|98:102|122:136|162:134,1,152.999995330811,10|0,2:2|1:0,0:0:0:0:
235,97,101097,2,0,P|244:53|254:10,1,76.4999976654053,8|0,2:3|1:2,0:0:0:0:
311,166,101383,6,0,P|368:166|415:238,2,136,6|2|10,1:2|1:2|2:2,0:0:0:0:
416,360,102240,2,0,P|450:351|513:340,1,68,2|2,1:2|2:2,0:0:0:0:
345,287,102526,6,0,B|272:270|272:270|250:302|210:305,1,136,6|2,1:2|1:2,0:0:0:0:
138,206,102955,2,0,P|146:134|156:45,1,136,2|0,2:2|0:0,0:0:0:0:
32,177,103383,2,0,P|15:212|17:254,1,68,10|0,2:2|1:2,0:0:0:0:
198,144,103669,5,2,2:2:0:0:
447,369,104812,6,0,L|455:313,1,34,4|0,1:2|1:0,0:0:0:0:
332,253,104955,2,0,L|212:274,1,102,8|0,2:0|0:0,0:0:0:0:
216,287,105240,1,8,0:0:0:0:
24,355,105383,5,4,2:3:0:0:
78,305,105478,2,0,L|70:250,1,45.3333333333333,4|4,2:3|2:3,0:0:0:0:
3,138,105669,5,4,2:3:0:0:
0,65,105764,1,4,2:3:0:0:
58,19,105859,1,4,2:3:0:0:
133,31,105955,6,0,B|237:17|237:17|253:53|295:61,1,170,6|2,1:2|1:3,0:0:0:0:
395,149,106383,2,0,P|402:113|417:52,1,85,2|10,2:2|2:2,0:0:0:0:
233,223,106669,2,0,P|226:187|211:126,1,85,2|2,2:2|1:3,0:0:0:0:
336,240,106955,1,2,1:2:0:0:
209,335,107097,5,2,1:2:0:0:
120,316,107240,1,2,2:2:0:0:
32,295,107383,1,2,1:3:0:0:
184,221,107526,1,0,0:0:0:0:
53,11,107669,2,0,P|2:60|12:129,1,127.5,10|0,2:2|0:0,0:0:0:0:
88,176,107955,2,0,P|97:131|113:71,1,85,2|0,1:3|1:2,0:0:0:0:
278,211,108240,6,0,B|365:198|363:260|450:250,1,170,6|2,1:2|1:3,0:0:0:0:
355,129,108669,2,0,P|360:91|372:39,1,85,2|8,2:2|2:2,0:0:0:0:
214,140,108955,2,0,P|185:182|192:238,1,85,2|2,2:2|1:3,0:0:0:0:
278,211,109240,1,2,1:2:0:0:
145,71,109383,5,2,1:2:0:0:
99,277,109526,1,8,0:0:0:0:
135,42,109669,1,2,1:3:0:0:
305,228,109812,2,0,P|298:269|292:328,1,85,2|8,2:0|0:0,0:0:0:0:
175,192,110097,1,2,0:0:0:0:
306,87,110240,2,0,P|349:95|410:108,1,85,2|2,1:3|1:2,0:0:0:0:
212,269,110526,6,0,B|168:230|110:230|110:230|80:252|52:253,1,170,6|2,1:2|1:3,0:0:0:0:
183,375,110955,2,0,P|222:370|285:365,1,85,2|8,2:2|2:2,0:0:0:0:
427,270,111240,2,0,P|415:319|401:377,1,85,2|2,2:2|1:3,0:0:0:0:
326,274,111526,1,2,1:2:0:0:
498,181,111669,6,0,B|403:149|403:149|376:186|319:187,1,170,2|2,1:2|1:3,0:0:0:0:
199,52,112097,1,2,2:2:0:0:
314,10,112240,2,0,P|302:56|290:119,1,85,10|0,2:2|0:0,0:0:0:0:
159,217,112526,2,0,P|114:219|74:193,1,85,2|8,1:3|2:2,0:0:0:0:
141,120,112812,5,6,1:2:0:0:
252,260,112955,2,0,P|294:255|350:251,1,85,2|2,2:2|1:3,0:0:0:0:
512,330,113240,5,2,2:2:0:0:
440,185,113383,2,0,B|447:227|447:227|440:268,1,85,10|0,2:2|0:0,0:0:0:0:
329,168,113669,5,2,1:3:0:0:
419,64,113812,2,0,P|466:70|528:79,1,85,2|0,1:2|1:2,0:0:0:0:
440,185,114097,5,10,0:0:0:0:
316,84,114240,2,0,P|321:41|328:0,1,85,2|0,1:3|0:0,0:0:0:0:
170,125,114526,6,0,P|126:170|133:239,1,127.5,10|0,2:2|0:0,0:0:0:0:
214,302,114812,2,0,P|224:257|236:212,1,85,10|8,2:2|2:2,0:0:0:0:
320,169,115026,1,0,0:0:0:0:
327,176,115097,6,0,B|403:163|410:217|496:209,1,170,6|2,1:2|1:3,0:0:0:0:
345,285,115526,2,0,P|320:325|322:378,1,85,2|8,2:2|2:2,0:0:0:0:
427,347,115812,2,0,P|465:352|527:364,1,85,2|2,2:2|1:3,0:0:0:0:
476,249,116097,1,2,1:2:0:0:
317,361,116240,5,2,1:2:0:0:
239,223,116383,1,2,2:2:0:0:
139,337,116526,2,0,P|180:327|239:318,1,85,2|0,1:3|0:0,0:0:0:0:
338,185,116812,2,0,P|360:112|308:62,1,127.5,10|0,2:2|0:0,0:0:0:0:
250,14,117097,2,0,P|243:60|234:118,1,85,2|8,1:3|2:2,0:0:0:0:
79,204,117383,5,6,1:2:0:0:
61,113,117526,1,2,2:2:0:0:
45,26,117669,1,2,1:3:0:0:
181,205,117812,2,0,P|225:194|283:182,1,85,2|8,2:2|2:2,0:0:0:0:
408,296,118097,2,0,P|415:242|430:120,1,170,2|2,2:2|1:2,0:0:0:0:
291,305,118526,5,2,1:2:0:0:
512,214,118669,1,10,2:2:0:0:
321,89,118812,1,2,1:3:0:0:
402,344,118955,2,0,P|410:289|420:239,1,85,2|8,2:2|2:2,0:0:0:0:
198,369,119240,2,0,P|192:326|184:285,1,85,2|2,0:0|1:3,0:0:0:0:
291,305,119526,1,2,1:2:0:0:
124,172,119669,6,0,B|210:201|210:201|254:178|228:127,1,170,6|2,1:2|1:3,0:0:0:0:
88,268,120097,2,0,P|54:275|1:288,1,85,2|8,2:2|2:2,0:0:0:0:
187,384,120383,2,0,P|203:336|193:295,1,85,2|2,2:2|1:3,0:0:0:0:
91,371,120669,1,2,1:2:0:0:
181,211,120812,5,2,1:2:0:0:
310,356,120955,2,0,L|321:301,2,42.5,2|0|2,2:2|0:0|1:3,0:0:0:0:
196,303,121240,1,2,2:2:0:0:
337,186,121383,2,0,P|406:183|449:233,1,127.5,10|0,2:2|0:0,0:0:0:0:
476,320,121669,2,0,P|437:312|387:304,1,85,2|0,1:3|1:2,0:0:0:0:
243,164,121955,5,6,1:2:0:0:
350,102,122097,2,0,P|342:149|335:202,1,85,2|2,2:2|1:3,0:0:0:0:
206,303,122383,5,2,2:2:0:0:
89,217,122526,2,0,B|84:174|84:174|95:122,1,85,10|0,2:2|0:0,0:0:0:0:
214,190,122812,5,2,1:3:0:0:
103,329,122955,2,0,P|61:320|8:311,1,85,2|0,1:2|1:2,0:0:0:0:
89,217,123240,5,10,2:2:0:0:
230,371,123383,2,0,P|272:362|325:353,1,85,2|0,1:3|0:0,0:0:0:0:
512,199,123669,2,0,P|505:255|494:338,1,127.5,10|0,2:2|0:0,0:0:0:0:
404,375,123955,2,0,P|395:326|419:279,1,85,10|10,2:2|2:2,0:0:0:0:
327,227,124169,1,0,0:0:0:0:
317,221,124240,6,0,B|236:252|236:252|192:229|207:182,1,170,6|2,1:2|1:2,0:0:0:0:
348,47,124669,2,0,P|387:53|447:64,1,85,2|8,2:2|2:2,0:0:0:0:
364,142,124955,1,0,0:0:0:0:
251,0,125097,2,0,P|224:34|224:79,1,85,2|0,1:2|1:2,0:0:0:0:
401,0,125383,5,10,2:2:0:0:
206,182,125526,1,10,2:2:0:0:
459,376,126526,6,0,P|469:306|485:210,2,152.999995330811,6|0|0,1:2|1:0|1:0,0:0:0:0:
322,228,127383,2,0,P|285:230|242:215,1,76.4999976654053,0|0,1:0|0:0,0:0:0:0:
58,302,127669,6,0,B|99:273|161:281|161:281|184:314|221:314,2,152.999995330811,4|0|0,1:2|1:0|1:0,0:0:0:0:
155,93,128526,2,0,P|179:129|175:172,1,76.4999976654053,0|0,1:0|0:0,0:0:0:0:
34,210,128812,6,0,P|42:150|58:43,2,152.999995330811,4|0|0,1:2|1:2|1:2,0:0:0:0:
168,349,129669,2,0,P|203:351|246:329,1,76.4999976654053,0|0,1:2|0:0,0:0:0:0:
363,192,129955,5,4,1:2:0:0:
188,256,130097,2,0,B|282:237|282:237|295:267|328:280,1,152.999995330811
409,351,130526,2,0,P|417:311|428:266,1,76.4999976654053,0|0,1:2|0:0,0:0:0:0:
323,120,130812,1,0,1:2:0:0:
278,101,130883,1,8,0:0:0:0:
227,105,130955,1,8,0:0:0:0:
187,132,131026,1,8,0:0:0:0:
173,180,131097,6,0,P|181:220|190:271,1,76.4999976654053,6|0,1:2|0:0,0:0:0:0:
279,204,131383,1,2,1:2:0:0:
78,292,131526,2,0,L|87:250,2,38.2499988327027,2|2|2,1:2|0:0|1:2,0:0:0:0:
230,367,131812,2,0,B|267:338|331:339|331:339|351:371|384:375,1,152.999995330811,2|0,0:0|1:2,0:0:0:0:
233,262,132240,5,6,1:2:0:0:
397,194,132383,2,0,L|404:141,2,38.2499988327027,2|2|2,0:0|0:0|1:2,0:0:0:0:
299,144,132669,1,2,0:0:0:0:
440,291,132812,2,0,P|402:245|302:253,1,152.999995330811,2|2,0:0|1:2,0:0:0:0:
174,160,133240,1,2,0:0:0:0:
163,158,133312,1,2,0:0:0:0:
151,156,133383,5,4,1:2:0:0:
34,71,133526,2,0,P|42:143|52:239,1,152.999995330811,2|2,0:0|0:0,0:0:0:0:
214,73,133955,1,10,0:0:0:0:
220,48,134026,1,8,0:0:0:0:
216,22,134097,1,8,0:0:0:0:
296,192,134240,1,2,1:2:0:0:
109,61,134383,6,0,P|67:66|16:73,1,76.4999976654053,8|4,0:0|0:0,0:0:0:0:
178,229,134669,1,10,0:0:0:0:
314,63,134812,1,0,1:2:0:0:
379,275,134955,1,10,0:0:0:0:
320,31,135097,1,14,0:0:0:0:
286,209,135240,6,0,L|282:162,2,38.2499988327027,2|2|2,2:2|2:2|2:2,0:0:0:0:
402,118,135526,1,2,0:0:0:0:
428,348,135669,6,0,P|390:320|313:367,1,114.749996498108,6|0,1:2|0:0,0:0:0:0:
317,357,135955,1,10,2:2:0:0:
178,229,136097,2,0,P|186:187|190:149,1,76.4999976654053,2|0,2:2|1:0,0:0:0:0:
97,296,136383,1,2,2:0:0:0:
286,209,136526,2,0,P|325:193|380:217,1,76.4999976654053,8|2,2:0|2:0,0:0:0:0:
197,74,136812,6,0,P|163:80|121:85,1,76.4999976654053,2|0,1:2|0:0,0:0:0:0:
286,209,137097,1,10,0:0:0:0:
421,120,137240,2,0,P|433:85|426:45,1,76.4999976654053,2|0,0:0|1:0,0:0:0:0:
507,198,137526,1,2,2:0:0:0:
507,198,137597,1,2,2:0:0:0:
507,198,137669,1,10,2:0:0:0:
358,75,137812,1,2,2:0:0:0:
291,242,137955,6,0,P|297:278|303:321,1,76.4999976654053,2|0,1:2|0:0,0:0:0:0:
184,149,138240,2,0,P|189:111|196:73,1,76.4999976654053,10|0,2:2|0:0,0:0:0:0:
63,253,138526,2,0,P|113:220|168:236,1,114.749996498108,2|0,1:2|0:0,0:0:0:0:
179,248,138812,1,10,2:2:0:0:
117,63,138955,1,0,1:0:0:0:
308,101,139097,6,0,P|348:92|383:89,1,76.4999976654053,6|0,1:2|0:0,0:0:0:0:
165,0,139383,1,10,2:2:0:0:
260,189,139526,1,0,1:2:0:0:
378,0,139669,1,10,2:2:0:0:
208,104,139812,1,2,1:2:0:0:
208,104,139883,1,2,2:2:0:0:
208,104,139954,1,10,2:2:0:0:
431,177,140097,2,0,L|468:171,1,38.2499988327027,2|2,1:2|2:2,0:0:0:0:
284,284,140240,6,0,P|237:275|187:268,1,76.4999976654053,6|0,1:2|0:0,0:0:0:0:
108,106,140526,1,10,2:2:0:0:
109,95,140597,1,2,0:0:0:0:
112,84,140668,1,2,0:0:0:0:
0,162,140812,2,0,P|8:204|15:256,1,76.4999976654053,2|2,1:2|2:2,0:0:0:0:
76,289,141026,1,2,2:2:0:0:
76,289,141097,1,10,2:2:0:0:
260,204,141240,6,0,B|324:196|360:191|360:191|405:227,1,152.999995330811,2|2,2:2|2:2,0:0:0:0:
244,65,141669,2,0,L|206:70,1,38.2499988327027,10|2,2:2|2:2,0:0:0:0:
361,4,141812,1,2,2:2:0:0:
372,3,141883,1,2,2:2:0:0:
383,0,141955,2,0,P|421:6|458:11,1,76.4999976654053,2|2,1:2|2:2,0:0:0:0:
503,74,142169,1,2,2:2:0:0:
503,74,142240,1,10,2:2:0:0:
332,195,142383,6,0,P|303:256|364:329,1,152.999995330811,2|2,2:2|2:2,0:0:0:0:
286,132,142812,1,10,2:2:0:0:
412,253,142955,1,2,2:2:0:0:
248,323,143097,2,0,P|204:315|153:307,1,76.4999976654053,2|2,1:2|2:2,0:0:0:0:
126,245,143312,1,2,2:2:0:0:
126,245,143383,2,0,P|89:234|53:245,1,76.4999976654053,10|2,2:2|1:2,0:0:0:0:
283,111,143669,6,0,P|277:61|267:16,1,76.4999976654053,14|0,0:0|1:0,0:0:0:0:
205,214,143955,1,10,0:0:0:0:
155,95,144097,1,0,1:0:0:0:
333,230,144240,1,10,0:0:0:0:
406,45,144383,1,4,2:3:0:0:
417,46,144454,1,4,2:3:0:0:
428,49,144526,2,0,P|466:43|503:38,1,76.4999976654053,4|4,2:3|2:3,0:0:0:0:
333,230,144812,6,0,P|269:221|174:210,1,152.999995330811,6|10,1:2|0:0,0:0:0:0:
420,142,145383,2,0,B|422:165|413:189|413:189|426:239|426:239|413:273|418:295,1,152.999995330811,2|10,1:2|2:2,0:0:0:0:
323,334,145812,1,2,2:2:0:0:
312,335,145883,1,0,0:0:0:0:
301,338,145955,6,0,B|253:331|253:331|203:344|203:344|147:336,1,152.999995330811,2|8,1:2|2:2,0:0:0:0:
33,203,146383,1,2,2:2:0:0:
44,204,146454,1,0,0:0:0:0:
55,205,146526,2,0,P|114:195|168:187,1,114.749996498108,2|0,1:2|0:0,0:0:0:0:
218,125,146812,2,0,L|207:61,3,38.2499988327027,10|2|2|2,2:2|0:0|0:0|0:0,0:0:0:0:
308,199,147097,5,0,1:0:0:0:
353,62,147240,1,2,2:0:0:0:
354,51,147311,1,2,2:0:0:0:
355,40,147383,2,0,L|344:-25,3,38.2499988327027,10|2|2|2,2:0|0:0|0:0|0:0,0:0:0:0:
449,169,147669,2,0,L|438:232,1,38.2499988327027,2|2,1:2|0:0,0:0:0:0:
158,297,147955,2,0,P|251:281|304:317,1,152.999995330811,10|0,0:0|1:0,0:0:0:0:
238,182,148383,5,2,0:0:0:0:
237,171,148454,1,2,0:0:0:0:
236,160,148526,2,0,L|247:95,3,38.2499988327027,10|2|2|2,0:0|0:0|0:0|0:0,0:0:0:0:
158,297,148812,2,0,L|168:360,1,38.2499988327027,2|2,1:2|0:0,0:0:0:0:
96,147,148955,2,0,L|58:144,1,38.2499988327027,2|2,0:0|0:0,0:0:0:0:
297,309,149097,2,0,L|334:306,1,38.2499988327027,10|2,0:0|0:0,0:0:0:0:
412,147,149240,1,10,0:0:0:0:
402,141,149312,1,10,0:0:0:0:
392,136,149383,6,0,P|401:86|407:41,1,89.2499972763062,12|2,0:0|1:2,0:0:0:0:
324,5,149597,1,2,0:0:0:0:
324,5,149669,2,0,L|279:11,1,44.6249986381531,10|2,0:0|0:0,0:0:0:0:
422,153,149812,2,0,L|466:159,1,44.6249986381531,2|2,1:2|0:0,0:0:0:0:
254,189,149955,1,10,0:0:0:0:
236,160,150026,1,2,1:2:0:0:
208,143,150097,1,2,1:2:0:0:
175,140,150169,1,2,1:2:0:0:
145,153,150240,2,0,L|134:216,1,44.6249986381531,10|2,2:2|2:2,0:0:0:0:
272,54,150383,2,0,L|279:10,1,44.6249986381531,2|2,1:2|2:2,0:0:0:0:
353,242,150526,6,0,P|346:283|338:331,1,89.2499972763062,14|2,0:0|1:2,0:0:0:0:
425,377,150740,1,2,2:2:0:0:
425,377,150812,2,0,L|470:371,1,44.6249986381531,10|2,2:2|2:2,0:0:0:0:
263,276,150955,2,0,L|218:270,1,44.6249986381531,2|2,1:2|2:2,0:0:0:0:
465,159,151097,1,10,2:2:0:0:
475,127,151168,1,2,1:2:0:0:
469,94,151239,1,2,1:2:0:0:
447,69,151311,1,2,1:2:0:0:
416,58,151383,2,0,L|371:64,1,44.6249986381531,10|2,2:2|2:2,0:0:0:0:
444,252,151526,2,0,L|488:258,1,44.6249986381531,2|2,2:2|2:2,0:0:0:0:
278,181,151669,6,0,P|234:188|189:194,1,89.2499972763062,14|2,2:2|1:2,0:0:0:0:
144,279,151883,1,2,0:0:0:0:
144,279,151955,2,0,L|154:342,1,44.6249986381531,10|2,0:0|0:0,0:0:0:0:
55,171,152097,2,0,L|61:126,1,44.6249986381531,2|2,1:2|0:0,0:0:0:0:
240,275,152240,1,10,0:0:0:0:
266,254,152311,1,2,1:2:0:0:
298,246,152382,1,2,1:2:0:0:
331,253,152454,1,2,1:2:0:0:
358,272,152526,2,0,L|347:335,1,44.6249986381531,10|2,2:2|2:2,0:0:0:0:
278,181,152669,2,0,L|271:136,1,44.6249986381531,2|2,1:2|2:2,0:0:0:0:
473,54,152812,5,14,2:2:0:0:
473,54,152883,1,2,2:2:0:0:
473,54,152955,2,0,L|484:-11,1,44.6249986381531,2|2,1:2|2:2,0:0:0:0:
393,145,153097,2,0,L|398:176,3,22.3124993190766,10|2|2|2,2:2|0:0|2:2|0:0,0:0:0:0:
35,113,153383,5,10,0:0:0:0:
72,136,153454,1,2,1:2:0:0:
116,140,153525,1,2,1:2:0:0:
157,124,153597,1,2,1:2:0:0:
186,91,153669,1,2,1:2:0:0:
217,59,153740,1,2,1:2:0:0:
260,46,153811,1,2,1:2:0:0:
303,54,153883,1,2,1:2:0:0:
338,80,153954,5,6,1:2:0:0:
128,288,155097,5,2,0:0:0:0:
264,128,156240,5,2,0:0:0:0:
416,352,157383,5,2,0:0:0:0:
247,266,158240,6,0,L|257:202,1,63.7500024318696,10|8,0:0|0:0,0:0:0:0:
186,91,158526,5,4,1:2:0:0:
157,86,158812,1,2,1:2:0:0:
128,81,159097,1,0,1:2:0:0:
99,76,159383,1,0,1:0:0:0:
288,197,159669,5,6,1:2:0:0:
320,192,159955,1,2,1:2:0:0:
351,186,160240,1,0,1:2:0:0:
383,181,160526,1,2,1:2:0:0:
145,232,160812,5,6,1:2:0:0:
256,192,161955,12,0,162955,0:0:0:0:
480,128,163097,6,0,B|427:146|375:159|375:159|342:135|354:88,1,187.000005706787,6|10,1:2|0:0,0:0:0:0:
267,258,163526,2,0,P|275:304|281:350,1,93.5000028533936,2|0,0:0|1:0,0:0:0:0:
96,119,163812,2,0,P|152:85|206:107,1,93.5000028533936,2|8,2:0|2:0,0:0:0:0:
11,101,164097,1,2,2:0:0:0:
165,174,164240,5,2,1:2:0:0:
247,22,164383,1,2,2:2:0:0:
83,207,164526,2,0,P|90:245|98:301,1,93.5000028533936,10|0,2:2|0:0,0:0:0:0:
261,125,164812,2,0,P|329:113|384:152,1,140.25000428009,2|0,1:2|0:0,0:0:0:0:
411,236,165097,2,0,P|364:228|318:221,1,93.5000028533936,10|0,2:2|0:0,0:0:0:0:
83,292,165383,6,0,P|69:352|88:396,1,93.5000028533936,2|0,1:2|0:0,0:0:0:0:
23,131,165669,1,10,2:2:0:0:
164,345,165812,2,0,P|211:337|256:330,1,93.5000028533936,2|0,2:2|1:2,0:0:0:0:
110,124,166097,2,0,P|46:117|12:141,1,93.5000028533936,2|8,2:2|2:2,0:0:0:0:
237,40,166383,1,2,1:2:0:0:
73,192,166526,5,10,0:2:0:0:
72,3,166669,1,10,0:2:0:0:
243,214,166812,1,2,1:2:0:0:
107,282,166955,2,0,L|12:266,1,93.5000028533936,14|0,0:2|1:0,0:0:0:0:
243,175,167240,1,10,2:0:0:0:
247,190,167311,1,8,2:0:0:0:
246,206,167383,1,8,2:0:0:0:
110,124,167526,1,10,0:0:0:0:
326,56,167669,6,0,B|365:13|427:8|427:8|451:38|494:42,1,187.000005706787,6|10,1:2|0:0,0:0:0:0:
237,166,168097,2,0,P|186:156|142:150,1,93.5000028533936,2|0,0:0|1:0,0:0:0:0:
325,265,168383,1,2,2:0:0:0:
407,99,168526,1,10,2:0:0:0:
237,256,168669,1,2,2:0:0:0:
186,33,168812,5,2,1:2:0:0:
366,182,168955,1,2,2:2:0:0:
130,240,169097,1,10,2:2:0:0:
248,153,169240,1,2,0:0:0:0:
345,360,169383,2,0,P|297:353|200:337,1,140.25000428009,2|0,1:2|0:0,0:0:0:0:
104,367,169669,2,0,P|44:376|8:363,1,93.5000028533936,10|0,2:2|1:2,0:0:0:0:
297,215,169955,5,2,1:2:0:0:
171,122,170097,2,0,P|124:115|78:107,1,93.5000028533936,2|8,0:3|0:2,0:0:0:0:
315,60,170383,5,2,0:0:0:0:
153,277,170526,2,0,P|106:285|60:291,1,93.5000028533936,2|0,1:3|0:0,0:0:0:0:
261,132,170812,5,10,0:2:0:0:
369,268,170955,2,0,P|360:314|353:362,1,93.5000028533936,2|0,0:3|1:3,0:0:0:0:
433,107,171240,5,2,2:2:0:0:
271,237,171383,1,10,2:2:0:0:
333,26,171526,1,0,1:2:0:0:
461,283,171669,2,0,P|411:274|340:263,1,93.5000028533936,10|0,2:2|1:2,0:0:0:0:
271,237,171883,1,0,0:0:0:0:
271,237,171955,2,0,P|270:168|320:140,1,93.5000028533936,10|0,2:2|1:2,0:0:0:0:
112,313,172240,6,0,B|198:289|206:371|293:348,1,187.000005706787,6|10,1:2|0:0,0:0:0:0:
137,180,172669,2,0,P|90:187|44:194,1,93.5000028533936,2|0,0:0|1:0,0:0:0:0:
291,139,172955,2,0,P|301:85|280:50,1,93.5000028533936,2|8,2:0|2:0,0:0:0:0:
363,242,173240,1,2,2:0:0:0:
216,103,173383,5,2,1:2:0:0:
362,19,173526,1,2,2:2:0:0:
201,286,173669,2,0,P|209:332|216:380,1,93.5000028533936,10|0,2:2|0:0,0:0:0:0:
482,271,173955,2,0,P|410:226|347:256,1,140.25000428009,2|0,1:2|0:0,0:0:0:0:
305,317,174240,2,0,P|351:325|399:332,1,93.5000028533936,10|0,2:2|0:0,0:0:0:0:
216,103,174526,6,0,P|169:111|123:117,1,93.5000028533936,2|0,1:2|0:0,0:0:0:0:
362,241,174812,1,10,2:2:0:0:
209,374,174955,2,0,P|192:330|200:285,1,93.5000028533936,2|0,2:2|1:2,0:0:0:0:
42,136,175240,2,0,P|50:181|33:224,1,93.5000028533936,2|8,2:2|2:2,0:0:0:0:
157,30,175526,1,2,1:2:0:0:
276,234,175669,5,10,0:2:0:0:
131,118,175812,1,10,0:2:0:0:
248,33,175955,1,2,1:2:0:0:
138,265,176097,2,0,L|43:249,1,93.5000028533936,14|0,0:2|1:0,0:0:0:0:
280,224,176383,1,10,2:0:0:0:
281,208,176455,1,8,2:0:0:0:
277,193,176526,1,8,2:0:0:0:
233,369,176669,1,10,0:0:0:0:
491,333,176812,6,0,B|443:309|390:285|390:285|366:311|323:319,1,187.000005706787,6|10,1:2|0:0,0:0:0:0:
232,123,177240,2,0,P|240:78|247:28,1,93.5000028533936,2|0,0:0|1:0,0:0:0:0:
19,116,177526,2,0,P|90:100|120:118,1,93.5000028533936,2|8,2:0|2:0,0:0:0:0:
338,44,177812,1,2,2:0:0:0:
151,228,177955,5,2,1:2:0:0:
246,30,178097,1,2,2:2:0:0:
319,238,178240,1,10,2:2:0:0:
232,123,178383,1,2,0:0:0:0:
451,187,178526,2,0,L|427:337,1,140.25000428009,2|0,1:2|0:0,0:0:0:0:
346,379,178812,2,0,P|286:366|250:383,1,93.5000028533936,10|0,2:2|1:2,0:0:0:0:
473,261,179097,5,2,1:2:0:0:
324,108,179240,2,0,P|281:114|231:122,1,93.5000028533936,2|8,0:3|0:2,0:0:0:0:
455,37,179526,5,2,0:0:0:0:
293,210,179669,2,0,L|310:320,1,93.5000028533936,2|0,1:3|0:0,0:0:0:0:
193,37,179955,5,10,0:2:0:0:
396,185,180097,2,0,L|381:277,1,93.5000028533936,2|0,0:3|1:3,0:0:0:0:
155,340,180383,5,2,2:2:0:0:
231,122,180526,1,10,2:2:0:0:
321,373,180669,1,0,1:2:0:0:
123,199,180812,2,0,L|138:104,1,93.5000028533936,10|0,2:2|1:2,0:0:0:0:
61,64,181026,1,0,0:0:0:0:
61,64,181098,2,0,L|14:71,3,46.7500014266968,10|0|0|0,2:2|0:0|1:0|1:0,0:0:0:0:
282,51,181383,5,6,1:2:0:0:
209,252,181526,1,0,1:3:0:0:
136,20,181669,1,10,2:2:0:0:
281,222,181812,1,2,1:2:0:0:
34,246,181955,1,8,2:2:0:0:
150,162,182097,1,0,1:3:0:0:
311,294,182240,2,0,P|377:260|444:286,1,140.25000428009,10|0,2:2|0:0,0:0:0:0:
512,343,182526,5,14,2:2:0:0:
360,178,182669,1,0,1:3:0:0:
239,323,182812,1,10,2:2:0:0:
441,196,182955,1,2,1:2:0:0:
230,86,183097,1,8,2:2:0:0:
281,222,183240,1,0,1:3:0:0:
481,33,183383,1,10,2:2:0:0:
320,96,183526,1,0,1:3:0:0:
419,357,183669,6,0,P|465:348|511:342,1,93.5000028533936,14|0,2:2|1:3,0:0:0:0:
243,143,183955,1,10,2:2:0:0:
231,351,184097,1,2,1:2:0:0:
231,351,184169,1,0,0:0:0:0:
231,351,184240,1,8,2:2:0:0:
360,178,184383,1,0,1:3:0:0:
134,54,184526,2,0,P|124:123|111:192,1,140.25000428009,10|0,2:2|0:0,0:0:0:0:
151,282,184812,5,14,2:2:0:0:
57,94,184955,1,2,1:2:0:0:
202,26,185097,1,10,2:2:0:0:
10,309,185240,1,2,1:2:0:0:
198,152,185383,5,10,2:2:0:0:
235,129,185454,1,0,0:2:0:0:
279,125,185525,1,4,0:3:0:0:
320,141,185597,1,4,0:3:0:0:
349,174,185669,1,10,2:2:0:0:
380,206,185740,1,0,0:0:0:0:
422,219,185811,1,4,0:3:0:0:
466,211,185883,1,0,0:0:0:0:
501,185,185955,6,0,L|493:137,3,46.7500014266968,14|0|0|0,0:0|1:0|1:0|1:0,0:0:0:0:
261,252,186240,2,0,L|253:298,3,46.7500014266968,10|0|2|0,0:0|1:0|1:2|1:2,0:0:0:0:
57,94,186526,1,8,2:2:0:0:
83,56,186597,1,0,1:0:0:0:
124,35,186668,1,0,1:0:0:0:
171,36,186740,1,0,1:0:0:0:
211,59,186812,2,0,L|218:106,1,46.7500014266968,10|0,2:2|1:0,0:0:0:0:
333,269,186955,2,0,L|325:316,1,46.7500014266968,0|0,1:0|1:0,0:0:0:0:
145,123,187097,5,10,2:0:0:0:
401,63,187240,1,10,2:0:0:0:
168,206,188240,6,0,L|88:193,1,76.4999976654053,14|10,0:0|0:0,0:0:0:0:
308,83,188669,1,8,0:0:0:0:
346,257,188955,1,0,1:0:0:0:
346,257,189097,2,0,L|335:320,3,38.2499988327027,8|8|8|8,2:0|2:0|2:0|2:0,0:0:0:0:
421,152,189383,5,4,1:2:0:0:
265,291,189526,1,0,1:2:0:0:
377,360,189669,1,8,0:0:0:0:
308,83,189812,2,0,L|320:3,1,76.4999976654053,4|0,1:2|0:0,0:0:0:0:
187,131,190097,1,0,1:2:0:0:
187,131,190169,1,0,1:2:0:0:
187,131,190240,2,0,L|193:169,3,38.2499988327027,8|8|8|8,2:2|2:2|2:2|2:2,0:0:0:0:
74,291,190526,6,0,P|108:256|200:274,1,127.5,6|0,1:2|0:0,0:0:0:0:
201,276,190812,1,10,0:0:0:0:
321,166,190955,2,0,L|305:71,1,85,2|0,0:0|1:0,0:0:0:0:
417,238,191240,1,2,0:0:0:0:
234,139,191383,1,8,0:0:0:0:
434,80,191526,1,2,0:0:0:0:
307,286,191669,6,0,L|320:369,1,85,2|0,1:2|0:0,0:0:0:0:
403,152,191955,1,10,0:0:0:0:
216,134,192097,2,0,P|175:142|132:147,1,85,2|0,0:0|1:0,0:0:0:0:
325,43,192383,1,2,0:0:0:0:
325,43,192455,1,2,0:0:0:0:
325,43,192526,1,10,0:0:0:0:
306,187,192669,1,2,0:0:0:0:
158,39,192812,6,0,P|115:33|74:25,1,85,2|0,1:2|0:0,0:0:0:0:
222,200,193097,2,0,P|264:194|305:186,1,85,10|0,2:2|0:0,0:0:0:0:
142,291,193383,1,2,1:2:0:0:
207,124,193526,1,0,0:0:0:0:
312,335,193669,1,10,2:2:0:0:
222,200,193812,1,0,1:0:0:0:
395,57,193955,6,0,P|435:64|489:72,1,85,6|0,1:2|0:0,0:0:0:0:
307,190,194240,1,10,2:2:0:0:
287,54,194383,1,0,1:0:0:0:
435,241,194526,1,10,2:2:0:0:
199,275,194669,1,2,1:2:0:0:
199,275,194740,1,2,0:0:0:0:
199,275,194812,1,10,0:0:0:0:
350,120,194955,1,0,1:0:0:0:
479,360,195097,6,0,P|416:348|336:337,1,127.5,6|0,1:2|0:0,0:0:0:0:
331,353,195383,1,10,0:0:0:0:
444,232,195526,2,0,P|464:182|446:141,1,85,2|0,0:0|1:0,0:0:0:0:
452,5,195812,1,2,0:0:0:0:
299,169,195955,2,0,L|382:182,1,85,8|2,0:0|0:0,0:0:0:0:
191,58,196240,6,0,L|107:71,1,85,2|0,1:2|0:0,0:0:0:0:
310,10,196526,1,10,0:0:0:0:
180,217,196669,2,0,P|165:277|187:324,1,85,2|0,0:0|1:0,0:0:0:0:
299,169,196955,1,2,0:0:0:0:
299,169,197026,1,2,0:0:0:0:
299,169,197097,1,10,0:0:0:0:
113,253,197240,1,2,0:0:0:0:
279,373,197383,6,0,L|362:359,1,85,2|0,1:2|0:0,0:0:0:0:
113,253,197669,2,0,L|29:239,1,85,10|0,2:2|0:0,0:0:0:0:
299,169,197955,1,2,1:2:0:0:
233,266,198097,1,0,0:0:0:0:
139,101,198240,1,10,2:2:0:0:
314,251,198383,1,0,1:0:0:0:
465,83,198526,6,0,L|449:-11,1,85,6|0,1:2|0:0,0:0:0:0:
311,156,198812,1,10,2:2:0:0:
451,252,198955,1,0,1:0:0:0:
385,52,199097,1,10,2:2:0:0:
315,291,199240,1,2,1:2:0:0:
315,291,199312,1,2,0:0:0:0:
315,291,199383,1,10,0:0:0:0:
419,152,199526,1,0,1:0:0:0:
260,46,199669,6,0,P|189:57|110:69,1,127.5,6|0,1:2|0:0,0:0:0:0:
109,60,199955,1,10,0:0:0:0:
301,210,200097,2,0,P|319:264|308:304,1,85,2|0,0:0|1:0,0:0:0:0:
147,150,200383,1,2,0:0:0:0:
366,242,200526,1,8,0:0:0:0:
139,312,200669,1,2,0:0:0:0:
287,129,200812,6,0,P|327:136|381:144,1,85,2|0,1:2|0:0,0:0:0:0:
227,286,201097,1,10,0:0:0:0:
121,155,201240,2,0,L|26:170,1,85,2|0,0:0|1:0,0:0:0:0:
211,190,201526,1,2,0:0:0:0:
211,190,201597,1,2,0:0:0:0:
211,190,201669,1,10,0:0:0:0:
65,80,201812,1,2,0:0:0:0:
52,253,201955,6,0,P|60:295|67:347,1,85,2|0,1:2|0:0,0:0:0:0:
216,154,202240,2,0,P|221:111|229:70,1,85,10|0,2:2|0:0,0:0:0:0:
285,284,202526,1,2,1:2:0:0:
149,101,202669,1,0,0:0:0:0:
375,74,202812,1,10,2:2:0:0:
307,189,202955,1,0,1:0:0:0:
118,22,203097,6,0,L|34:35,1,85,6|0,1:2|0:0,0:0:0:0:
231,224,203383,1,10,2:2:0:0:
293,2,203526,1,0,1:0:0:0:
137,197,203669,1,10,2:2:0:0:
388,167,203812,1,2,1:2:0:0:
388,167,203883,1,2,0:0:0:0:
388,167,203955,1,10,0:0:0:0:
207,129,204097,1,0,1:0:0:0:
367,310,204240,6,0,P|409:302|450:296,1,85,6|0,1:2|0:0,0:0:0:0:
298,150,204526,1,10,0:0:0:0:
193,289,204669,2,0,P|151:281|110:275,1,85,2|0,0:0|1:0,0:0:0:0:
286,249,204955,1,2,0:0:0:0:
139,66,205097,1,8,0:0:0:0:
196,218,205240,1,2,0:0:0:0:
310,51,205383,6,0,P|346:57|404:66,1,85,2|0,1:2|0:0,0:0:0:0:
226,153,205669,1,10,0:0:0:0:
352,294,205812,2,0,P|368:255|356:215,1,85,2|0,0:0|1:0,0:0:0:0:
166,332,206097,1,2,0:0:0:0:
166,332,206169,1,2,0:0:0:0:
166,332,206240,1,10,0:0:0:0:
271,370,206383,1,2,0:0:0:0:
131,188,206526,6,0,P|140:137|146:93,1,85,2|0,1:2|0:0,0:0:0:0:
35,284,206812,2,0,P|40:326|49:367,1,85,10|0,2:2|0:0,0:0:0:0:
214,202,207097,1,2,1:2:0:0:
44,126,207240,1,0,0:0:0:0:
154,327,207383,1,10,2:2:0:0:
274,132,207526,1,0,1:0:0:0:
382,333,207669,6,0,P|423:324|465:319,1,85,6|0,1:2|0:0,0:0:0:0:
214,202,207955,1,10,2:2:0:0:
304,349,208097,1,0,1:0:0:0:
366,125,208240,1,10,2:2:0:0:
259,275,208383,1,2,1:2:0:0:
259,275,208455,1,2,1:2:0:0:
259,275,208526,1,10,0:0:0:0:
474,190,208669,1,0,1:0:0:0:
314,49,208812,6,0,P|274:55|230:62,1,85,6|0,1:2|1:0,0:0:0:0:
142,14,209026,1,0,1:0:0:0:
142,14,209097,1,10,2:2:0:0:
290,173,209240,1,0,1:0:0:0:
290,173,209312,1,0,1:0:0:0:
290,173,209383,1,10,2:2:0:0:
409,41,209526,2,0,L|401:-6,1,42.5,2|2,1:2|1:2,0:0:0:0:
473,214,209669,2,0,P|464:256|457:308,1,85,10|0,0:0|1:0,0:0:0:0:
