osu file format v14

[General]
AudioFilename: audio.mp3
AudioLeadIn: 0
PreviewTime: 55597
Countdown: 0
SampleSet: Soft
StackLeniency: 0.3
Mode: 0
LetterboxInBreaks: 0
WidescreenStoryboard: 1

[Editor]
Bookmarks: 37383,46526,126526,131097,153955,158526,190526
DistanceSpacing: 1
BeatDivisor: 2
GridSize: 8
TimelineZoom: 1.9

[Metadata]
Title:Manemane Psychotropic [Album Ver.]
TitleUnicode:マネマネサイコトロピック [Album Ver.]
Artist:Kairiki bear feat. GUMI
ArtistUnicode:かいりきベア feat. GUMI
Creator:Nevo
Version:Irohas' Insane
Source:
Tags:wanpachi cycopton Serizawa Haruki irohas xchorse frostwich synderes agatsu kudosu so0p japanese rock vocaloid Jack J_a_c_k
BeatmapID:2438736
BeatmapSetID:1156937

[Difficulty]
HPDrainRate:6
CircleSize:4.3
OverallDifficulty:7
ApproachRate:8.8
SliderMultiplier:1.5
SliderTickRate:1

[Events]
//Background and Video events
0,0,"bg_waifu2x_art_noise3_scale_tta_1.jpg",0,0
//Break Periods
2,37654,45881
2,126526,130468
2,154155,157897
//Storyboard Layer 0 (Background)
//Storyboard Layer 1 (Fail)
//Storyboard Layer 2 (Pass)
//Storyboard Layer 3 (Foreground)
//Storyboard Layer 4 (Overlay)
//Storyboard Sound Samples

[TimingPoints]
290,285.714285714286,4,2,1,50,1,0
7147,292.682926829268,4,2,1,50,1,0
8332,333.333333333333,4,2,1,35,1,0
9665,-100,4,2,1,60,0,0
9955,285.714285714286,4,2,1,70,1,0
9955,-100,4,2,1,70,0,0
17383,-93.4579439252336,4,2,1,70,0,0
17955,-100,4,2,1,70,0,0
19097,-111.111111111111,4,2,1,65,0,0
27955,-181.818181818181,4,2,1,65,0,0
28240,-111.111111111111,4,2,1,65,0,0
36240,-105.263157894737,4,2,1,65,0,0
36669,-71.4285714285714,4,2,1,65,0,0
37383,-71.4285714285714,4,2,1,70,0,0
37455,-76.9230769230769,4,2,1,5,0,0
37526,-100,4,2,1,70,0,0
46526,-133.333333333333,4,2,1,60,0,0
54526,-100,4,2,1,60,0,0
54955,-111.111111111111,4,2,1,60,0,0
55383,-60.6060606060606,4,2,1,60,0,0
55669,-100,4,2,2,80,0,1
55812,-100,4,2,1,80,0,1
55955,-100,4,2,1,80,0,0
57883,-100,4,2,1,80,0,0
57955,-100,4,2,1,80,0,0
59097,-83.3333333333333,4,2,1,80,0,0
60240,-90.9090909090909,4,2,1,80,0,0
60669,-100,4,2,1,80,0,0
62526,-166.666666666667,4,2,1,80,0,0
62955,-125,4,2,1,80,0,0
63383,-100,4,2,1,80,0,0
63812,-83.3333333333333,4,2,1,80,0,0
64240,-71.4285714285714,4,2,1,80,0,0
64383,-83.3333333333333,4,2,1,80,0,0
64526,-71.4285714285714,4,2,1,80,0,0
64669,-83.3333333333333,4,2,1,80,0,0
64812,-95.2380952380952,4,2,1,80,0,1
65097,-100,4,2,1,80,0,0
68240,-83.3333333333333,4,2,1,80,0,0
69383,-100,4,2,1,80,0,0
71097,-83.3333333333333,4,2,1,80,0,0
71526,-100,4,2,1,80,0,0
71668,-166.666666666667,4,2,1,80,0,0
72097,-125,4,2,1,80,0,0
72526,-100,4,2,1,80,0,0
73383,-100,4,2,1,80,0,0
73526,-71.4285714285714,4,2,1,80,0,0
73597,-71.4285714285714,4,2,1,5,0,0
73669,-71.4285714285714,4,2,1,80,0,0
73812,-71.4285714285714,4,2,1,80,0,0
73955,-100,4,2,1,80,0,0
75097,-100,4,2,1,50,0,0
76240,-125,4,2,1,60,0,0
78526,-133.333333333333,4,2,1,60,0,0
86526,-166.666666666667,4,2,1,60,0,0
87669,-111.111111111111,4,2,1,65,0,0
94597,-117.647058823529,4,2,1,5,0,0
94812,-111.111111111111,4,2,1,65,0,0
95669,-109.89010989011,4,2,1,65,0,0
97669,-125,4,2,1,65,0,0
101383,-125,4,2,1,60,0,0
103669,-125,4,2,1,40,0,0
104812,-100,4,2,1,50,0,0
105383,-125,4,2,1,50,0,0
105955,-111.111111111111,4,2,2,70,0,1
106097,-111.111111111111,4,2,1,70,0,1
106240,-111.111111111111,4,2,1,70,0,0
110526,-111.111111111111,4,2,1,70,0,0
110955,-111.111111111111,4,2,1,70,0,0
114526,-90.9090909090908,4,2,1,70,0,0
115097,-111.111111111111,4,2,1,70,0,1
115383,-111.111111111111,4,2,1,70,0,0
119669,-111.111111111111,4,2,1,70,0,0
120098,-111.111111111111,4,2,1,70,0,0
123669,-100,4,2,1,70,0,0
124240,-111.111111111111,4,2,1,70,0,0
125383,-111.111111111111,4,2,1,50,0,0
126526,-100,4,2,1,55,0,0
131097,-117.647058823529,4,2,1,55,0,0
135669,-100,4,2,1,65,0,0
143669,-76.9230769230769,4,2,1,65,0,0
144240,-100,4,2,1,65,0,0
144455,-100,4,2,1,65,0,0
144812,-125,4,2,1,65,0,0
145955,-99.9999999999999,4,2,1,65,0,0
149383,-90.9090909090909,4,2,1,70,0,1
149669,-90.9090909090909,4,2,1,70,0,0
153383,-66.6666666666667,4,2,1,70,0,0
153669,-125,4,2,1,70,0,0
153955,-100,4,2,1,45,0,0
160812,-100,4,2,1,40,0,0
162097,-100,4,2,1,40,0,0
162955,-66.6666666666667,4,2,1,40,0,0
163026,-40.8163265306122,4,2,1,5,0,0
163097,-100,4,2,2,80,0,1
163240,-100,4,2,1,80,0,1
163383,-100,4,2,1,80,0,0
166526,-83.3333333333333,4,2,1,80,0,0
167669,-100,4,2,1,80,0,0
169097,-100,4,2,1,80,0,0
169526,-100,4,2,1,80,0,0
169955,-142.857142857143,4,2,1,80,0,0
170383,-117.647058823529,4,2,1,80,0,0
170812,-100,4,2,1,80,0,0
171383,-83.3333333333333,4,2,1,80,0,0
171669,-71.4285714285714,4,2,1,80,0,0
171812,-71.4285714285714,4,2,1,80,0,0
171955,-71.4285714285714,4,2,1,80,0,0
172097,-71.4285714285714,4,2,1,80,0,0
172240,-100,4,2,1,80,0,1
172526,-100,4,2,1,80,0,0
175669,-83.3333333333333,4,2,1,80,0,0
176812,-100,4,2,1,80,0,0
179097,-166.666666666667,4,2,1,80,0,0
179526,-125,4,2,1,80,0,0
179955,-100,4,2,1,80,0,0
181097,-83.3333333333333,4,2,1,80,0,0
181383,-90.9090909090909,4,2,1,80,0,1
182526,-76.9230769230769,4,2,1,80,0,1
182812,-105.263157894737,4,2,1,80,0,1
183097,-76.9230769230769,4,2,1,80,0,1
183383,-105.263157894737,4,2,1,80,0,1
183669,-90.9090909090909,4,2,1,80,0,1
185955,-83.3333333333333,4,2,1,80,0,1
187097,-83.3333333333333,4,2,1,50,0,1
187240,-100,4,2,1,50,0,0
188240,-100,4,2,1,60,0,0
188383,-125,4,2,1,60,0,0
190240,-100,4,2,1,60,0,0
190526,-76.9230769230769,4,2,1,70,0,0
190597,-76.9230769230769,4,2,1,5,0,0

[Colours]
Combo1 : 255,91,91
Combo2 : 0,128,64
Combo3 : 0,128,255
Combo4 : 251,187,38

[HitObjects]
497,372,9955,6,0,P|465:333|368:324,1,150,6|10,1:2|0:0,0:0:0:0:
258,214,10383,2,0,P|267:255|271:296,1,75,2|0,0:0|1:0,0:0:0:0:
193,359,10669,2,0,B|117:367|125:314|34:335,1,150,2|2,0:0|0:0,0:0:0:0:
155,244,11097,5,2,1:2:0:0:
78,203,11240,2,0,L|-15:221,1,75,0|10,0:0|0:0,0:0:0:0:
155,145,11526,2,0,P|168:89|151:23,1,112.5,2|0,0:0|0:0,0:0:0:0:
127,21,11812,2,0,L|76:32,2,37.5,2|2|10,0:0|0:0|0:0,0:0:0:0:
269,109,12097,1,2,0:0:0:0:
331,50,12240,6,0,P|368:43|418:32,1,75,2|0,1:2|0:0,0:0:0:0:
340,263,12526,2,0,P|382:268|421:276,1,75,10|0,2:2|0:0,0:0:0:0:
252,191,12812,2,0,B|198:181|198:181|155:222|96:202,1,150,2|10,1:2|2:2,0:0:0:0:
7,147,13240,1,0,1:0:0:0:
26,236,13383,6,0,P|37:185|61:74,2,150,6|10|10,1:2|2:2|2:2,0:0:0:0:
127,316,14097,2,0,L|116:266,2,37.5,2|2|10,1:2|0:0|0:0,0:0:0:0:
62,376,14383,1,0,1:0:0:0:
223,318,14526,6,0,P|307:316|359:368,1,150,6|10,1:2|2:2,0:0:0:0:
444,313,14955,2,0,P|449:270|467:225,1,75,2|0,2:2|1:0,0:0:0:0:
341,60,15240,2,0,L|363:210,1,150,2|2,2:0|0:0,0:0:0:0:
223,318,15669,5,2,1:2:0:0:
307,372,15812,2,0,P|315:328|323:281,1,75,0|10,0:0|0:0,0:0:0:0:
198,200,16097,2,0,L|71:223,1,112.5,2|0,0:0|0:0,0:0:0:0:
63,205,16383,2,0,L|73:159,2,37.5,2|2|10,0:0|0:0|0:0,0:0:0:0:
91,329,16669,1,2,0:0:0:0:
13,342,16812,6,0,B|16:338|16:338|89:325,1,75,2|0,1:2|0:0,0:0:0:0:
269,184,17097,2,0,B|266:188|266:188|190:201,1,75,10|0,2:2|0:0,0:0:0:0:
276,320,17383,2,0,B|346:299|357:364|434:346,1,160.499995101929,2|10,1:2|0:0,0:0:0:0:
269,184,17812,1,0,1:0:0:0:
384,116,17955,2,0,P|375:155|371:190,1,75,6|0,1:2|0:0,0:0:0:0:
428,263,18240,6,0,P|481:254|523:247,1,75,10|0,2:2|1:2,0:0:0:0:
173,115,18526,2,0,L|247:102,1,75,10|2,2:2|1:2,0:0:0:0:
312,39,18740,1,2,0:0:0:0:
311,39,18812,2,0,P|273:21|230:28,1,75,10|0,0:0|1:0,0:0:0:0:
79,160,19097,6,0,P|70:111|53:12,2,134.999995880127,6|10|2,1:2|0:0|1:2,0:0:0:0:
149,210,19812,1,2,0:0:0:0:
97,278,19955,2,0,P|56:296|26:292,1,67.4999979400635,10|2,0:0|0:0,0:0:0:0:
241,185,20240,6,0,L|312:195,1,67.4999979400635,2|2,1:2|2:2,0:0:0:0:
370,264,20526,2,0,L|442:255,1,67.4999979400635,10|2,2:2|2:2,0:0:0:0:
502,186,20812,6,0,L|509:137,1,33.7499989700318,0|0,1:2|0:0,0:0:0:0:
436,255,21097,6,0,L|442:288,1,34.0000006484985,10|0,2:2|0:0,0:0:0:0:
386,350,21240,1,0,0:0:0:0:
386,350,21383,6,0,L|310:341,1,67.4999979400635,2|2,1:2|0:0,0:0:0:0:
245,281,21669,2,0,P|237:248|248:206,1,67.4999979400635,10|2,0:0|0:0,0:0:0:0:
174,342,21955,2,0,P|92:350|46:380,1,134.999995880127,2|10,1:2|2:2,0:0:0:0:
243,215,22526,6,0,L|236:176,2,33.7499989700318,2|0|2,1:2|0:0|0:0,0:0:0:0:
308,271,22812,1,10,0:0:0:0:
380,230,22955,2,0,P|398:191|383:95,1,134.999995880127,2|0,0:0|0:0,0:0:0:0:
289,0,23383,2,0,L|302:72,1,67.4999979400635,10|0,2:2|0:0,0:0:0:0:
229,134,23669,6,0,P|195:141|159:125,1,67.4999979400635,6|0,1:2|0:0,0:0:0:0:
67,59,23955,2,0,L|139:46,1,67.4999979400635,10|2,2:2|2:2,0:0:0:0:
0,121,24240,1,2,1:2:0:0:
51,200,24383,1,2,2:2:0:0:
51,200,24455,1,2,2:2:0:0:
51,200,24526,2,0,L|36:278,1,67.4999979400635,10|2,2:2|0:0,0:0:0:0:
110,340,24812,6,0,P|153:314|215:328,1,101.249996910095,2|0,1:2|0:0,0:0:0:0:
214,331,25097,2,0,L|284:323,1,67.4999979400635,10|0,2:2|0:0,0:0:0:0:
357,271,25383,1,2,1:2:0:0:
422,351,25526,2,0,P|432:293|451:207,1,134.999995880127,2|2,2:2|2:2,0:0:0:0:
510,142,25955,6,0,P|448:180|374:153,1,134.999995880127,6|10,1:2|2:2,0:0:0:0:
329,103,26383,1,2,2:2:0:0:
255,147,26526,2,0,L|171:136,1,67.4999979400635,2|0,1:2|0:0,0:0:0:0:
59,67,26812,2,0,L|134:57,1,67.4999979400635,10|2,0:0|0:0,0:0:0:0:
221,0,27097,6,0,L|213:50,1,33.7499989700318,6|0,1:2|0:0,0:0:0:0:
111,153,27383,6,0,L|119:202,1,33.7499989700318,6|0,1:2|0:0,0:0:0:0:
210,279,27669,6,0,L|203:326,1,33.7499989700318,6|0,1:2|0:0,0:0:0:0:
274,372,27812,1,0,1:3:0:0:
274,372,27955,6,0,L|301:367,3,20.6250006294251,2|2|2|2,2:2|2:2|2:2|2:2,0:0:0:0:
291,348,28240,6,0,P|350:339|443:327,1,134.999995880127,6|10,1:2|0:0,0:0:0:0:
496,277,28669,1,2,0:0:0:0:
447,206,28812,2,0,P|442:170|451:130,1,67.4999979400635,2|2,1:2|2:2,0:0:0:0:
375,35,29097,2,0,L|462:20,1,67.4999979400635,10|0,2:2|0:0,0:0:0:0:
346,126,29383,5,2,1:2:0:0:
277,175,29526,2,0,P|242:165|201:165,1,67.4999979400635,2|10,2:2|2:2,0:0:0:0:
135,120,29812,2,0,L|-8:152,1,134.999995880127,2|0,2:2|0:0,0:0:0:0:
105,224,30240,2,0,P|98:262|91:303,1,67.4999979400635,10|0,2:2|0:0,0:0:0:0:
170,368,30526,6,0,P|216:360|252:355,1,67.4999979400635,2|2,1:2|2:2,0:0:0:0:
281,265,30812,2,0,P|235:273|202:280,1,67.4999979400635,10|2,2:2|2:2,0:0:0:0:
359,373,31097,2,0,P|369:316|383:228,1,134.999995880127,2|10,1:2|2:2,0:0:0:0:
311,176,31526,1,2,2:2:0:0:
374,112,31669,6,0,L|443:100,1,67.4999979400635,2|2,1:2|2:2,0:0:0:0:
311,176,31955,1,10,2:2:0:0:
245,133,32097,2,0,B|231:104|231:104|260:-7,1,134.999995880127,2|0,2:2|0:0,0:0:0:0:
140,125,32526,2,0,L|153:197,1,67.4999979400635,10|0,2:2|0:0,0:0:0:0:
118,281,32812,6,0,P|39:321|-9:308,1,134.999995880127,6|10,1:2|2:2,0:0:0:0:
226,362,33383,2,0,P|263:351|301:348,1,67.4999979400635,2|2,1:2|0:0,0:0:0:0:
369,384,33597,1,2,0:0:0:0:
369,384,33669,2,0,P|377:345|398:241,1,134.999995880127,8|2,0:0|1:2,0:0:0:0:
305,139,34097,6,0,L|315:212,1,67.4999979400635,2|10,0:0|0:0,0:0:0:0:
407,147,34383,1,2,0:0:0:0:
219,196,34526,2,0,B|170:188|170:188|125:227|80:211,1,134.999995880127,2|10,1:2|2:2,0:0:0:0:
92,214,34955,1,2,2:2:0:0:
6,139,35097,6,0,P|50:129|88:121,1,67.4999979400635,6|0,1:2|0:0,0:0:0:0:
219,196,35383,1,10,2:2:0:0:
284,133,35526,2,0,P|275:89|256:-15,2,134.999995880127,2|2|2,2:2|2:0|0:0,0:0:0:0:
357,202,36240,5,6,1:2:0:0:
342,287,36383,1,2,1:2:0:0:
329,373,36526,1,10,2:2:0:0:
201,321,36669,6,0,B|97:297|112:390|-14:357,1,209.999993591309,6|0,1:2|1:2,0:0:0:0:
270,137,37097,2,0,L|251:246,1,104.999996795654,8|8,2:2|2:2,0:0:0:0:
329,373,37383,6,0,L|388:365,1,52.4999983978272,6|0,1:2|0:0,0:0:0:0:
358,323,46526,6,0,P|413:325|450:387,2,112.500004291535,6|0|10,1:2|0:0|2:0,0:0:0:0:
286,271,47240,2,0,P|269:213|285:151,1,112.500004291535,2|2,0:0|1:2,0:0:0:0:
209,113,47669,6,0,L|151:126,1,56.2500021457673,2|0,1:2|0:0,0:0:0:0:
81,184,47955,1,2,1:3:0:0:
29,115,48097,2,0,P|37:72|52:-11,1,112.500004291535,2|0,0:0|0:0,0:0:0:0:
81,184,48526,2,0,L|72:243,1,56.2500021457673,2|0,1:3|0:0,0:0:0:0:
31,314,48812,6,0,P|76:291|143:301,1,112.500004291535,6|2,1:2|1:3,0:0:0:0:
205,342,49240,2,0,L|277:330,1,56.2500021457673,2|8,0:0|0:0,0:0:0:0:
334,384,49526,2,0,P|342:341|356:264,1,112.500004291535,0|0,0:0|1:2,0:0:0:0:
276,170,49955,2,0,L|286:227,1,56.2500021457673,2|8,1:2|0:0,0:0:0:0:
368,126,50240,1,2,1:3:0:0:
305,53,50383,6,0,P|272:46|172:129,1,168.750006437302,2|2,0:0|1:3,0:0:0:0:
114,190,50955,1,8,0:0:0:0:
69,121,51097,6,0,L|82:58,3,56.2500021457673,6|2|2|2,1:2|0:0|1:3|0:0,0:0:0:0:
0,189,51669,2,0,L|13:252,3,56.2500021457673,10|2|2|2,0:0|0:0|1:3|1:2,0:0:0:0:
197,348,52240,5,2,1:2:0:0:
103,383,52383,2,0,P|110:340|122:262,1,112.500004291535,10|2,0:0|0:0,0:0:0:0:
65,208,52812,5,0,0:0:0:0:
341,302,53097,1,2,1:3:0:0:
411,259,53240,1,8,0:0:0:0:
489,280,53383,1,6,1:2:0:0:
80,221,54526,6,0,L|71:179,2,37.5,4|0|8,1:2|1:2|2:2,0:0:0:0:
143,284,54812,1,8,0:0:0:0:
97,354,54955,2,0,P|60:370|16:364,1,67.4999979400635,2|2,1:2|0:0,0:0:0:0:
236,264,55240,5,2,0:0:0:0:
238,269,55312,1,2,0:0:0:0:
240,275,55383,2,0,B|297:284|297:284|302:289|302:289|363:302|363:302|394:234,1,185.625001770258,2|0,0:0|0:0,0:0:0:0:
415,246,55669,6,0,P|407:197|386:84,1,150,6|10,1:2|0:0,0:0:0:0:
493,20,56097,2,0,P|484:61|481:101,1,75,2|0,0:0|1:0,0:0:0:0:
308,202,56383,2,0,B|231:219|241:163|146:189,1,150,2|2,2:0|2:0,0:0:0:0:
51,128,56812,6,0,P|87:106|131:109,1,75,2|2,1:2|2:2,0:0:0:0:
221,0,57097,2,0,P|216:35|208:91,1,75,10|0,2:2|0:0,0:0:0:0:
283,173,57383,6,0,P|329:174|367:151,1,75,2|0,1:2|0:0,0:0:0:0:
495,34,57669,2,0,P|460:20|423:22,1,75,10|0,2:2|0:0,0:0:0:0:
374,93,57955,6,0,P|384:160|400:260,1,150,2|10,1:2|2:2,0:0:0:0:
488,277,58383,2,0,P|497:241|491:204,1,75,2|0,2:2|1:2,0:0:0:0:
413,365,58669,2,0,P|453:382|494:373,1,75,2|8,2:2|2:2,0:0:0:0:
380,272,58955,1,2,1:2:0:0:
310,325,59097,6,0,L|206:346,1,89.9999972534181,10|10,0:2|0:2,0:0:0:0:
31,186,59383,2,0,L|135:165,1,89.9999972534181,2|14,1:2|0:2,0:0:0:0:
172,280,59812,6,0,L|183:226,2,44.999998626709,10|8|8,2:0|2:0|2:0,0:0:0:0:
94,326,60097,1,10,0:0:0:0:
213,356,60240,6,0,B|300:341|289:401|384:383,1,165.000005035401,6|10,1:2|0:0,0:0:0:0:
476,323,60669,2,0,P|441:297|408:296,1,75,2|0,0:0|1:0,0:0:0:0:
348,214,60955,2,0,P|360:151|379:48,1,150,2|2,2:0|2:0,0:0:0:0:
266,143,61383,6,0,P|230:150|189:155,1,75,2|2,1:2|2:2,0:0:0:0:
438,247,61669,2,0,P|474:240|515:235,1,75,10|0,2:2|0:0,0:0:0:0:
310,354,61955,6,0,P|314:316|327:266,1,75,2|0,1:2|0:0,0:0:0:0:
191,154,62240,2,0,P|198:190|204:227,1,75,10|0,2:2|1:2,0:0:0:0:
84,326,62526,5,2,1:2:0:0:
84,326,62669,2,0,L|29:319,1,44.999998626709,2|8,0:3|0:2,0:0:0:0:
204,227,62955,5,2,0:0:0:0:
204,227,63097,2,0,L|127:219,1,60,2|0,1:3|0:0,0:0:0:0:
299,326,63383,5,10,0:2:0:0:
299,326,63526,2,0,L|207:318,1,75,2|0,0:3|1:3,0:0:0:0:
380,242,63812,5,2,2:2:0:0:
380,242,63955,2,0,L|477:255,1,89.9999972534181,10|0,2:2|1:2,0:0:0:0:
505,152,64240,6,0,B|460:127|460:127|397:153,1,104.999996795654,10|0,2:2|1:2,0:0:0:0:
393,348,64526,2,0,B|442:372|442:372|493:349,1,104.999996795654,10|0,2:2|1:2,0:0:0:0:
277,249,64812,6,0,B|198:234|211:292|112:275,1,157.499995193482,6|10,1:2|0:0,0:0:0:0:
16,179,65240,2,0,P|58:179|100:162,1,75,2|0,0:0|1:0,0:0:0:0:
192,86,65526,2,0,P|185:132|168:241,1,150,2|2,2:0|2:0,0:0:0:0:
253,331,65955,6,0,P|305:324|342:319,1,75,2|2,1:2|2:2,0:0:0:0:
498,224,66240,2,0,P|435:234|385:202,1,112.5,10|0,2:2|0:0,0:0:0:0:
340,150,66526,2,0,P|339:108|359:63,1,75,2|0,1:2|0:0,0:0:0:0:
253,213,66812,2,0,P|203:232|134:232,1,112.5,10|0,2:2|0:0,0:0:0:0:
71,174,67097,6,0,P|99:152|158:156,1,75,2|2,1:2|0:0,0:0:0:0:
298,53,67383,1,10,2:2:0:0:
215,0,67526,2,0,L|203:86,1,75,2|0,2:2|1:2,0:0:0:0:
376,160,67812,2,0,L|388:74,1,75,2|8,2:2|2:2,0:0:0:0:
253,213,68097,1,2,1:2:0:0:
356,283,68240,6,0,P|404:290|442:252,1,89.9999972534181,10|10,0:2|0:2,0:0:0:0:
251,384,68526,2,0,P|214:356|168:363,1,89.9999972534181,2|14,1:2|0:2,0:0:0:0:
173,361,68955,2,0,L|186:306,2,44.999998626709,10|8|8,2:0|2:0|2:0,0:0:0:0:
56,194,69240,1,10,0:0:0:0:
0,281,69383,6,0,P|60:270|157:251,1,150,6|10,1:2|0:0,0:0:0:0:
274,142,69812,2,0,P|264:183|260:230,1,75,2|0,0:0|1:0,0:0:0:0:
341,291,70097,2,0,P|387:303|459:224,1,150,2|2,2:0|2:0,0:0:0:0:
259,365,70526,2,0,P|211:334|146:344,1,112.5,2|0,1:2|0:0,0:0:0:0:
68,310,70812,2,0,L|84:401,1,75,10|0,2:2|0:0,0:0:0:0:
169,249,71097,6,0,B|151:231|128:234|128:234|164:90,1,179.999994506836,2|10,1:2|2:2,0:0:0:0:
160,103,71526,1,0,1:2:0:0:
104,21,71669,5,2,1:2:0:0:
104,21,71812,2,0,L|164:11,1,44.999998626709,2|8,0:3|0:2,0:0:0:0:
247,130,72097,5,2,0:0:0:0:
247,130,72240,2,0,L|317:119,1,60,2|0,1:3|0:0,0:0:0:0:
396,26,72526,5,10,0:2:0:0:
396,26,72669,2,0,L|472:15,1,75,2|0,0:3|1:3,0:0:0:0:
418,140,72955,5,2,2:2:0:0:
418,140,73097,2,0,L|401:233,1,75,10|0,2:2|1:2,0:0:0:0:
510,370,73383,2,0,P|481:327|407:322,1,112.5,10|0,2:2|0:0,0:0:0:0:
347,278,73669,2,0,L|281:292,3,52.4999983978272,10|0|0|0,2:2|0:0|1:0|1:0,0:0:0:0:
403,218,73955,5,6,1:2:0:0:
234,353,74240,2,0,L|148:342,1,75,10|2,2:2|1:2,0:0:0:0:
40,262,74526,2,0,L|128:251,1,75,8|0,2:2|1:3,0:0:0:0:
267,176,74812,2,0,L|183:163,1,75,10|0,2:2|1:3,0:0:0:0:
129,99,75097,5,10,0:0:0:0:
159,25,75240,1,10,0:0:0:0:
420,327,76240,5,14,0:0:0:0:
361,265,76383,2,0,P|370:222|386:141,2,120,10|8|0,0:0|0:0|1:0,0:0:0:0:
300,320,77097,2,0,L|307:358,3,30,8|8|8|8,2:0|2:0|2:0|2:0,0:0:0:0:
306,350,77383,6,0,L|240:341,1,60,4|0,1:2|1:2,0:0:0:0:
176,285,77669,2,0,L|112:293,1,60,8|4,0:0|1:2,0:0:0:0:
117,293,78097,1,0,1:2:0:0:
37,345,78240,2,0,P|29:314|39:277,1,60,8|0,2:2|1:2,0:0:0:0:
80,210,78526,6,0,P|72:168|57:79,2,112.500004291535,4|2|2,1:2|1:2|1:2,0:0:0:0:
158,258,79240,1,2,2:2:0:0:
158,258,79383,2,0,L|224:248,1,56.2500021457673,2|2,1:2|2:2,0:0:0:0:
276,177,79669,2,0,P|269:145|262:113,1,56.2500021457673,2|2,1:2|2:2,0:0:0:0:
361,217,79955,2,0,P|354:244|348:276,1,56.2500021457673,2|2,1:2|2:2,0:0:0:0:
403,346,80240,2,0,P|446:356|496:297,1,112.500004291535,2|2,1:2|1:2,0:0:0:0:
298,384,80812,6,0,P|251:358|189:364,1,112.500004291535,2|2,1:3|1:2,0:0:0:0:
193,362,81383,1,2,1:2:0:0:
134,296,81526,2,0,L|146:231,2,56.2500021457673,2|0|2,2:2|1:2|2:0,0:0:0:0:
69,362,81955,1,2,1:2:0:0:
69,362,82097,2,0,L|3:349,1,56.2500021457673,2|0,2:2|1:2,0:0:0:0:
264,279,82383,6,0,B|386:303|386:303|361:278|369:248,1,168.750006437302,2|4,0:0|2:3,0:0:0:0:
438,201,82955,1,4,2:3:0:0:
438,201,83097,2,0,P|471:203|505:217,1,56.2500021457673,2|2,1:2|2:2,0:0:0:0:
384,134,83383,2,0,L|360:12,1,112.500004291535,2|2,1:2|1:2,0:0:0:0:
284,134,83812,2,0,P|250:145|185:106,1,112.500004291535,2|4,2:2|2:3,0:0:0:0:
119,59,84240,6,0,L|57:72,1,56.2500021457673,0|2,1:0|2:0,0:0:0:0:
22,159,84526,2,0,L|88:145,1,56.2500021457673,4|4,2:3|2:3,0:0:0:0:
135,204,84740,1,0,0:0:0:0:
136,209,84812,6,0,L|123:272,1,56.2500021457673,4|8,2:3|2:3,0:0:0:0:
200,324,85097,2,0,L|212:265,1,56.2500021457673,2|8,1:2|2:3,0:0:0:0:
106,373,85383,5,6,1:2:0:0:
302,257,85669,1,2,1:2:0:0:
400,329,85955,6,0,L|389:395,1,56.2500021457673,2|2,1:2|2:3,0:0:0:0:
484,289,86240,2,0,P|476:257|478:223,1,56.2500021457673,8|2,0:0|1:2,0:0:0:0:
428,151,86526,6,0,L|448:50,2,89.9999972534181,6|0|0,1:2|0:0|0:0,0:0:0:0:
351,206,87383,1,10,0:0:0:0:
351,206,87669,6,0,P|320:191|268:197,1,67.4999979400635,6|2,1:2|2:2,0:0:0:0:
212,146,87955,2,0,L|139:161,1,67.4999979400635,10|0,2:2|0:0,0:0:0:0:
65,214,88240,1,2,1:2:0:0:
58,212,88383,1,2,2:2:0:0:
52,209,88526,1,10,2:2:0:0:
47,207,88669,1,2,2:2:0:0:
18,195,88812,6,0,P|51:174|96:179,1,67.4999979400635,2|2,1:2|2:2,0:0:0:0:
102,300,89097,2,0,P|66:317|24:305,1,67.4999979400635,10|2,2:2|2:2,0:0:0:0:
164,230,89383,1,0,1:2:0:0:
164,230,89669,1,10,2:0:0:0:
164,230,89955,6,0,P|201:235|235:241,1,67.4999979400635,2|2,1:2|2:2,0:0:0:0:
285,302,90240,2,0,P|322:305|357:287,1,67.4999979400635,10|2,2:2|2:2,0:0:0:0:
427,323,90526,5,2,1:2:0:0:
436,321,90669,1,2,2:2:0:0:
461,332,90812,5,10,2:2:0:0:
470,330,90955,1,2,2:2:0:0:
499,344,91097,6,0,L|513:259,1,67.4999979400635,2|2,1:2|2:2,0:0:0:0:
409,160,91383,2,0,L|395:245,1,67.4999979400635,10|2,2:2|2:2,0:0:0:0:
318,280,91669,2,0,L|281:273,2,33.7499989700318
372,350,91955,2,0,P|406:355|439:331,1,67.4999979400635,10|0,2:2|0:0,0:0:0:0:
318,280,92240,6,0,P|276:289|231:298,1,67.4999979400635,6|2,1:2|0:0,0:0:0:0:
146,175,92526,2,0,P|182:173|212:189,1,67.4999979400635,10|2,2:2|2:2,0:0:0:0:
159,267,92812,2,0,P|116:276|18:298,1,134.999995880127,2|10,1:2|2:2,0:0:0:0:
301,119,93383,6,0,P|295:159|287:194,1,67.4999979400635,2|2,1:2|2:2,0:0:0:0:
418,258,93669,2,0,P|411:226|408:187,1,67.4999979400635,10|2,2:2|2:2,0:0:0:0:
325,293,93955,2,0,L|315:339,2,33.7499989700318,2|0|2,1:2|0:0|2:2,0:0:0:0:
388,381,94240,2,0,L|459:370,1,67.4999979400635,10|2,2:2|2:2,0:0:0:0:
228,306,94526,6,0,L|179:316,1,33.7499989700318,2|0,1:2|0:0,0:0:0:0:
196,314,94812,6,0,B|193:309|193:309|207:226,1,67.4999979400635,10|2,2:2|2:2,0:0:0:0:
123,193,95097,6,0,L|39:209,1,67.4999979400635,2|2,1:2|2:2,0:0:0:0:
131,17,95383,2,0,L|64:4,1,67.4999979400635,10|2,2:2|2:2,0:0:0:0:
249,112,95669,6,0,B|346:131|337:47|455:84,2,204.750006873322,6|10|8,1:2|2:2|2:2,0:0:0:0:
172,78,96669,1,0,1:2:0:0:
122,143,96812,5,14,0:0:0:0:
122,143,96955,1,10,0:0:0:0:
296,369,97669,6,0,P|300:331|312:298,1,60,10|0,0:0|0:0,0:0:0:0:
226,192,97955,2,0,L|237:261,1,60,14|0,2:0|1:0,0:0:0:0:
307,310,98240,1,2,1:2:0:0:
212,379,98383,2,0,P|188:343|49:323,1,180,10|8,2:0|2:0,0:0:0:0:
61,316,99097,5,10,2:0:0:0:
39,239,99240,1,10,2:0:0:0:
39,239,99955,6,0,L|51:174,1,60,10|0,0:0|0:0,0:0:0:0:
114,110,100240,2,0,P|104:75|103:42,1,60,14|0,0:0|1:0,0:0:0:0:
49,179,100526,1,2,1:2:0:0:
128,222,100669,2,0,P|212:223|277:137,1,180,10|8,2:2|2:3,0:0:0:0:
331,62,101240,1,0,0:0:0:0:
331,62,101383,6,0,P|296:70|252:79,1,60.0000022888184,6|2,1:2|2:2,0:0:0:0:
402,133,101669,2,0,P|430:143|460:142,1,60,2|2,1:2|2:2,0:0:0:0:
339,191,101955,2,0,P|330:248|317:320,1,120,10|2,2:2|1:2,0:0:0:0:
319,309,102383,1,2,2:2:0:0:
254,377,102526,6,0,P|205:342|144:350,1,120,6|2,1:2|1:2,0:0:0:0:
62,305,102955,2,0,P|76:263|148:250,1,120,2|0,2:2|0:0,0:0:0:0:
200,187,103383,2,0,L|186:119,1,60,10|0,2:2|1:2,0:0:0:0:
230,59,103669,5,2,2:2:0:0:
230,59,104812,6,0,L|241:6,2,37.5,4|0|8,1:2|1:0|2:0,0:0:0:0:
322,197,105240,5,8,0:0:0:0:
396,248,105383,2,0,L|450:256,2,40,4|4|4,2:3|2:3|2:3,0:0:0:0:
323,294,105669,2,0,L|278:287,2,40,4|4|4,2:3|2:3|2:3,0:0:0:0:
388,363,105955,6,0,P|444:332|519:344,1,134.999995880127,6|2,1:2|1:3,0:0:0:0:
192,243,106526,2,0,P|136:274|61:262,1,134.999995880127,10|2,2:2|1:3,0:0:0:0:
0,194,106955,2,0,P|37:186|79:178,1,67.4999979400635,2|2,1:2|1:2,0:0:0:0:
125,122,107240,1,2,2:2:0:0:
53,77,107383,5,2,1:3:0:0:
234,199,107669,2,0,P|271:191|313:183,1,67.4999979400635,10|0,2:2|0:0,0:0:0:0:
364,120,107955,2,0,P|401:128|447:138,1,67.4999979400635,2|0,1:3|1:2,0:0:0:0:
512,189,108240,6,0,P|447:177|395:217,1,134.999995880127,6|2,1:2|1:3,0:0:0:0:
207,342,108812,2,0,P|258:382|323:370,1,134.999995880127,8|2,2:2|1:3,0:0:0:0:
389,300,109240,6,0,P|356:288|318:286,1,67.4999979400635,2|2,1:2|1:2,0:0:0:0:
264,232,109526,1,8,0:0:0:0:
264,232,109669,5,2,1:3:0:0:
87,335,109955,1,8,0:0:0:0:
23,275,110097,6,0,L|38:196,2,67.4999979400635,2|2|2,0:0|1:3|1:2,0:0:0:0:
87,335,110526,5,6,1:2:0:0:
264,232,110812,1,2,1:3:0:0:
112,67,111097,6,0,P|125:137|139:208,1,134.999995880127,8|2,2:2|1:3,0:0:0:0:
30,282,111526,2,0,P|30:256|40:214,1,67.4999979400635,2|2,1:2|1:2,0:0:0:0:
130,298,111812,2,0,B|194:310|195:257|278:278,1,134.999995880127,0|2,0:0|2:2,0:0:0:0:
334,224,112240,5,10,2:2:0:0:
512,340,112526,2,0,P|475:346|441:352,1,67.4999979400635,2|8,1:3|2:2,0:0:0:0:
385,290,112812,5,6,1:2:0:0:
406,177,113097,1,2,1:3:0:0:
432,58,113383,1,10,2:2:0:0:
469,249,113669,5,2,1:3:0:0:
469,249,113812,1,2,1:2:0:0:
385,290,113955,2,0,P|348:283|306:276,1,67.4999979400635,0|10,1:2|0:0,0:0:0:0:
256,228,114240,5,2,1:3:0:0:
33,381,114526,2,0,P|66:359|121:359,1,82.5000025177003,10|0,2:2|0:0,0:0:0:0:
147,263,114812,5,10,2:2:0:0:
150,257,114955,1,8,2:2:0:0:
152,252,115097,6,0,P|145:210|128:110,2,134.999995880127,6|2|8,1:2|1:3|2:2,0:0:0:0:
258,350,115955,2,0,P|296:341|332:339,1,67.4999979400635,2|2,1:3|1:2,0:0:0:0:
440,185,116240,1,2,1:2:0:0:
505,250,116383,2,0,P|448:274|375:241,1,134.999995880127,2|0,2:2|0:0,0:0:0:0:
323,175,116812,2,0,P|328:141|338:109,1,67.4999979400635,10|0,2:2|0:0,0:0:0:0:
228,7,117097,2,0,L|240:80,1,67.4999979400635,2|8,1:3|2:2,0:0:0:0:
166,145,117383,6,0,P|102:115|35:131,1,134.999995880127,6|2,1:2|1:3,0:0:0:0:
272,266,117955,2,0,P|306:261|420:244,1,134.999995880127,8|0,2:2|1:3,0:0:0:0:
485,298,118383,2,0,P|492:266|500:226,1,67.4999979400635,2|2,1:2|1:2,0:0:0:0:
440,169,118669,1,10,2:2:0:0:
440,169,118812,5,2,1:3:0:0:
231,315,119097,1,8,2:2:0:0:
155,268,119240,2,0,L|82:279,2,67.4999979400635,2|2|2,0:0|1:3|1:2,0:0:0:0:
212,205,119669,6,0,B|201:145|201:145|202:137|202:137|188:61,2,134.999995880127,6|2|8,1:2|1:3|2:2,0:0:0:0:
303,294,120526,2,0,L|371:284,1,67.4999979400635,2|2,1:3|1:2,0:0:0:0:
444,329,120812,1,2,1:2:0:0:
489,259,120955,2,0,P|497:210|512:121,1,134.999995880127,2|2,2:2|2:2,0:0:0:0:
419,18,121383,2,0,P|428:50|432:87,1,67.4999979400635,10|0,2:2|0:0,0:0:0:0:
367,152,121669,2,0,L|287:143,1,67.4999979400635,2|0,1:3|1:2,0:0:0:0:
214,83,121955,5,6,1:2:0:0:
103,108,122240,1,2,1:3:0:0:
0,133,122526,1,10,2:2:0:0:
170,12,122812,5,2,1:3:0:0:
170,12,122955,1,2,1:2:0:0:
218,86,123097,2,0,L|206:164,1,67.4999979400635,0|10,1:2|2:2,0:0:0:0:
133,192,123383,5,2,1:3:0:0:
281,290,123669,2,0,P|322:283|363:277,1,75,10|0,2:2|0:0,0:0:0:0:
435,352,123955,5,10,2:2:0:0:
432,346,124098,1,10,2:2:0:0:
430,341,124240,6,0,P|437:299|454:199,2,134.999995880127,6|2|0,1:2|1:2|0:0,0:0:0:0:
305,384,125097,2,0,P|263:377|228:372,1,67.4999979400635,2|0,1:2|1:2,0:0:0:0:
173,320,125383,5,10,2:2:0:0:
199,239,125526,1,10,2:2:0:0:
432,358,131097,6,0,P|439:321|447:282,1,63.7500012159348,6|0,1:2|0:0,0:0:0:0:
512,243,131383,1,2,1:2:0:0:
437,192,131526,2,0,L|394:199,2,31.8750006079674,2|2|2,1:2|0:0|1:2,0:0:0:0:
354,277,131812,2,0,P|311:272|218:262,1,127.50000243187,2|0,0:0|1:2,0:0:0:0:
157,214,132240,1,6,1:2:0:0:
108,284,132383,2,0,L|116:323,2,31.8750006079674,2|2|2,0:0|0:0|1:2,0:0:0:0:
157,214,132669,1,2,0:0:0:0:
28,163,132812,6,0,P|64:162|91:151,1,63.7500012159348,2|0,0:0|0:0,0:0:0:0:
159,40,133097,2,0,P|129:28|97:29,1,63.7500012159348,2|2,1:2|0:0,0:0:0:0:
220,132,133383,5,4,1:2:0:0:
304,119,133526,2,0,L|374:110,1,63.7500012159348,2|0,0:0|1:2,0:0:0:0:
441,159,133812,1,2,0:0:0:0:
501,95,133955,2,0,L|492:52,2,31.8750006079674,10|8|8,0:0|0:0|0:0,0:0:0:0:
441,159,134240,1,2,1:2:0:0:
508,220,134383,1,8,0:0:0:0:
425,293,134526,1,4,0:0:0:0:
492,373,134669,2,0,P|495:344|504:307,1,63.7500012159348,10|0,0:0|1:2,0:0:0:0:
331,265,134955,5,10,0:0:0:0:
331,265,135097,2,0,B|270:277|270:277|264:285|264:285|176:305|176:305|203:274|193:237,1,223.125004255772,14|0,0:0|0:0,0:0:0:0:
195,249,135669,5,6,1:2:0:0:
62,52,135955,1,10,2:2:0:0:
36,140,136097,2,0,P|57:145|110:127,1,75,2|0,2:2|1:0,0:0:0:0:
217,28,136383,6,0,P|208:83|191:177,1,150,2|2,2:0|2:0,0:0:0:0:
276,258,136812,1,2,1:2:0:0:
276,258,136955,2,0,L|350:246,1,75,0|10,0:0|0:0,0:0:0:0:
463,174,137240,2,0,P|397:130|331:144,1,150,2|2,0:0|2:0,0:0:0:0:
255,62,137597,1,2,2:0:0:0:
255,62,137669,2,0,L|333:50,1,75,10|2,2:0|2:0,0:0:0:0:
218,161,137955,6,0,P|180:167|143:149,1,75,2|0,1:2|0:0,0:0:0:0:
49,66,138240,2,0,L|123:52,1,75,10|0,2:2|0:0,0:0:0:0:
51,238,138526,2,0,B|38:207|38:207|52:152,1,75,2|0,1:2|0:0,0:0:0:0:
139,276,138812,1,10,2:2:0:0:
29,332,138955,1,0,1:0:0:0:
156,364,139097,6,0,L|281:344,1,112.5,6|0,1:2|0:0,0:0:0:0:
317,276,139383,2,0,P|293:260|244:261,1,75,10|0,2:2|1:2,0:0:0:0:
372,359,139669,2,0,B|422:343|422:343|471:384|528:359,1,150,10|10,2:2|2:2,0:0:0:0:
427,236,140097,2,0,L|438:189,2,37.5,2|2|6,1:2|2:2|1:2,0:0:0:0:
239,214,140526,5,10,2:2:0:0:
232,221,140597,2,0,L|151:211,1,75,2|0,0:0|0:0,0:0:0:0:
93,158,140812,2,0,P|127:132|165:132,1,75,2|2,1:2|2:2,0:0:0:0:
225,76,141026,1,2,2:2:0:0:
227,73,141097,2,0,P|221:40|212:-7,1,75,10|2,2:2|2:2,0:0:0:0:
331,117,141383,5,0,1:2:0:0:
331,117,141526,2,0,P|363:122|413:130,1,75,2|10,2:2|2:2,0:0:0:0:
485,81,141812,2,0,L|477:40,2,37.5,2|2|2,2:2|2:2|1:2,0:0:0:0:
433,219,142097,2,0,L|441:260,2,37.5,2|2|10,2:2|2:2|2:2,0:0:0:0:
512,168,142383,5,2,2:2:0:0:
334,304,142669,1,2,2:2:0:0:
405,367,142812,2,0,P|440:377|482:367,1,75,10|2,2:2|2:2,0:0:0:0:
334,304,143097,2,0,P|307:308|251:319,1,75,2|2,1:2|2:2,0:0:0:0:
195,268,143312,1,2,2:2:0:0:
195,268,143383,2,0,P|202:230|209:185,1,75,10|2,2:2|1:2,0:0:0:0:
122,138,143669,6,0,P|90:163|92:224,1,97.4999955368044,14|0,0:0|1:0,0:0:0:0:
220,79,143955,2,0,L|200:-19,1,97.4999955368044,10|0,0:0|1:0,0:0:0:0:
328,129,144240,6,0,L|412:116,1,75,10|4,0:0|2:3,0:0:0:0:
486,109,144455,1,4,2:3:0:0:
486,109,144526,2,0,L|471:188,1,75,4|4,2:3|2:3,0:0:0:0:
373,252,144812,6,0,P|328:244|249:231,1,120,6|10,1:2|0:0,0:0:0:0:
254,231,145383,2,0,P|259:260|266:298,1,60,2|0,1:2|0:0,0:0:0:0:
179,384,145669,2,0,P|172:362|177:320,1,60,10|2,2:2|2:2,0:0:0:0:
280,375,145883,1,0,0:0:0:0:
285,378,145955,6,0,B|357:388|353:334|433:354,1,150,2|8,1:2|2:2,0:0:0:0:
493,281,146383,1,2,2:2:0:0:
493,281,146526,2,0,P|462:251|388:254,1,112.5,2|0,1:2|0:0,0:0:0:0:
329,203,146812,2,0,L|320:159,3,37.5,10|2|2|2,2:2|0:0|0:0|0:0,0:0:0:0:
247,290,147240,5,2,2:0:0:0:
247,290,147312,1,2,2:0:0:0:
247,290,147383,2,0,L|206:283,3,37.5,10|0|2|2,2:0|0:0|0:0|0:0,0:0:0:0:
156,222,147669,6,0,L|151:198,2,18.75,2|0|2,1:2|0:0|0:0,0:0:0:0:
99,328,147955,6,0,L|107:365,4,25,10|0|0|2|0,0:0|0:0|0:0|0:0|0:0,0:0:0:0:
29,302,148240,6,0,P|70:303|102:285,1,75,0|2,1:0|0:0,0:0:0:0:
207,151,148526,2,0,P|167:134|135:138,1,75,10|2,0:0|0:0,0:0:0:0:
73,89,148740,1,0,0:0:0:0:
73,89,148812,2,0,L|78:55,6,18.75,2|0|2|0|2|0|2,1:2|0:0|0:0|0:0|0:0|0:0|0:0,0:0:0:0:
7,141,149097,5,10,0:0:0:0:
156,222,149240,1,10,0:0:0:0:
156,222,149312,1,10,0:0:0:0:
168,230,149383,6,0,P|213:224|259:217,1,82.5000025177003,12|2,0:0|1:2,0:0:0:0:
421,134,149669,2,0,P|379:143|336:121,1,82.5000025177003,10|2,0:0|1:2,0:0:0:0:
260,60,149955,6,0,L|268:18,2,41.2500012588501,10|2|2,0:0|1:2|1:2,0:0:0:0:
160,189,150240,2,0,L|167:229,2,41.2500012588501,10|2|2,2:2|2:2|1:2,0:0:0:0:
95,94,150526,6,0,P|54:88|11:81,1,82.5000025177003,14|2,0:0|1:2,0:0:0:0:
94,315,150812,2,0,P|49:321|1:331,1,82.5000025177003,10|2,2:2|1:2,0:0:0:0:
250,191,151097,6,0,L|305:198,2,41.2500012588501,10|2|2,2:2|1:2|1:2,0:0:0:0:
372,265,151383,2,0,L|427:258,2,41.2500012588501,10|2|2,2:2|2:2|2:2,0:0:0:0:
284,384,151669,6,0,P|269:347|286:293,1,82.5000025177003,14|2,2:2|1:2,0:0:0:0:
504,198,151955,2,0,P|519:236|506:289,1,82.5000025177003,10|2,0:0|1:2,0:0:0:0:
375,110,152240,6,0,L|391:18,1,82.5000025177003,10|2,0:0|1:2,0:0:0:0:
223,204,152526,2,0,L|207:112,1,82.5000025177003,10|2,2:2|1:2,0:0:0:0:
360,337,152812,2,0,L|376:245,1,82.5000025177003,14|2,2:2|1:2,0:0:0:0:
259,303,153097,6,0,L|231:309,2,20.6250006294251,10|0|2,2:2|0:0|2:2,0:0:0:0:
147,365,153383,6,0,L|100:357,6,28.1250010728836,10|0|2|0|2|0|2,0:0|0:0|1:2|0:0|1:2|0:0|1:2,0:0:0:0:
58,312,153669,2,0,P|30:317|-6:326,1,60,2|2,1:2|1:2,0:0:0:0:
133,249,153955,5,6,1:2:0:0:
18,345,158526,5,4,1:2:0:0:
18,345,158812,1,0,0:0:0:0:
18,345,159097,1,0,0:0:0:0:
18,345,159383,1,0,0:0:0:0:
190,246,159669,5,6,1:2:0:0:
190,246,159955,1,0,0:0:0:0:
190,246,160240,1,0,0:0:0:0:
62,152,160526,6,0,L|71:196,3,37.5,2|2|2|2,1:2|0:0|0:0|0:0,0:0:0:0:
92,267,160812,5,6,1:2:0:0:
90,264,162597,5,0,0:0:0:0:
101,272,162669,2,0,P|142:265|180:259,1,75
264,196,162955,6,0,L|330:209,1,56.2500021457673
393,266,163097,6,0,P|406:195|419:110,1,150,6|10,1:2|0:0,0:0:0:0:
308,22,163526,2,0,P|315:64|323:106,1,75,2|0,0:0|1:0,0:0:0:0:
264,196,163812,2,0,P|198:160|116:182,1,150,2|2,2:0|2:0,0:0:0:0:
2,122,164240,6,0,P|35:116|77:107,1,75,2|2,1:2|2:2,0:0:0:0:
108,269,164526,2,0,P|71:275|33:284,1,75,10|0,2:2|0:0,0:0:0:0:
189,185,164812,2,0,P|225:190|276:198,1,75,2|0,1:2|0:0,0:0:0:0:
460,71,165097,2,0,P|424:66|373:58,1,75,10|0,2:2|0:0,0:0:0:0:
337,142,165383,5,2,1:2:0:0:
462,334,165669,1,10,2:2:0:0:
512,263,165812,2,0,P|474:257|437:251,1,75,2|0,2:2|1:2,0:0:0:0:
294,360,166097,2,0,P|331:365|368:371,1,75,2|8,2:2|2:2,0:0:0:0:
166,258,166383,1,2,1:2:0:0:
247,157,166526,6,0,L|261:245,1,89.9999972534181,10|10,0:2|0:2,0:0:0:0:
84,374,166812,2,0,L|70:286,1,89.9999972534181,2|14,1:2|0:2,0:0:0:0:
268,331,167240,6,0,L|326:318,2,44.999998626709,10|8|8,2:0|2:0|2:0,0:0:0:0:
376,384,167526,1,10,0:0:0:0:
464,339,167669,6,0,P|491:277|458:192,1,150,6|10,1:2|0:0,0:0:0:0:
390,112,168097,2,0,P|397:81|409:28,1,75,2|0,0:0|1:0,0:0:0:0:
491,124,168383,1,2,2:0:0:0:
361,209,168526,6,0,P|326:191|283:192,1,75,10|2,2:0|2:0,0:0:0:0:
192,85,168812,2,0,P|225:68|265:69,1,75,2|2,1:2|2:2,0:0:0:0:
161,189,169097,2,0,B|111:173|111:173|62:214|5:193,2,150,10|2|10,2:2|1:2|2:2,0:0:0:0:
230,254,169812,1,0,1:2:0:0:
165,372,169955,5,2,1:2:0:0:
168,367,170097,2,0,P|164:336|155:313,1,52.4999983978272,2|8,0:3|0:2,0:0:0:0:
253,186,170383,5,2,0:0:0:0:
253,186,170526,2,0,L|242:252,1,63.7500012159348,2|0,1:3|0:0,0:0:0:0:
304,326,170812,5,10,0:2:0:0:
308,329,170955,2,0,P|343:334|382:307,1,75,2|0,0:3|1:3,0:0:0:0:
466,230,171240,5,2,2:2:0:0:
461,233,171383,2,0,L|368:220,1,89.9999972534181,10|0,2:2|1:2,0:0:0:0:
291,49,171669,6,0,B|320:94|320:94|300:153,1,104.999996795654,10|0,2:2|1:2,0:0:0:0:
120,261,171955,2,0,B|94:214|94:214|121:155,1,104.999996795654,10|0,2:2|1:2,0:0:0:0:
230,174,172240,6,0,P|304:185|378:197,1,150,6|10,1:2|0:0,0:0:0:0:
468,124,172669,2,0,B|438:109|438:109|386:112,1,75,2|0,0:0|1:0,0:0:0:0:
268,274,172955,6,0,P|203:308|124:285,1,150,2|2,2:0|2:0,0:0:0:0:
30,216,173383,2,0,L|118:199,1,75,2|2,1:2|2:2,0:0:0:0:
208,102,173669,6,0,P|202:140|198:178,1,75,10|0,2:2|0:0,0:0:0:0:
268,274,173955,2,0,P|315:248|385:259,1,112.5,2|0,1:2|0:0,0:0:0:0:
438,304,174240,2,0,L|528:292,1,75,10|0,2:2|0:0,0:0:0:0:
416,165,174526,5,2,1:2:0:0:
416,165,174812,2,0,P|423:131|433:90,1,75,10|2,2:2|2:2,0:0:0:0:
501,204,175097,1,0,1:2:0:0:
372,252,175240,2,0,P|309:218|231:230,1,150,2|2,2:2|1:2,0:0:0:0:
136,132,175669,6,0,L|239:115,1,89.9999972534181,10|10,0:2|0:2,0:0:0:0:
98,310,175955,2,0,L|192:296,1,89.9999972534181,2|14,1:2|0:2,0:0:0:0:
38,238,176383,6,0,L|48:189,2,44.999998626709,10|8|8,2:0|2:0|2:0,0:0:0:0:
98,310,176669,1,10,0:0:0:0:
36,384,176812,6,0,P|89:343|173:347,1,150,6|10,1:2|0:0,0:0:0:0:
248,269,177240,2,0,P|248:232|235:187,1,75,2|0,0:0|1:0,0:0:0:0:
340,330,177526,2,0,B|413:339|408:285|499:306,1,150,2|2,2:0|2:0,0:0:0:0:
328,233,177955,5,2,1:2:0:0:
248,269,178098,2,0,L|174:262,1,75,2|10,2:2|2:2,0:0:0:0:
58,90,178383,1,2,0:0:0:0:
2,169,178526,2,0,P|61:185|135:138,1,150,2|10,1:2|2:2,0:0:0:0:
290,53,178955,1,0,1:2:0:0:
190,16,179097,5,2,1:2:0:0:
190,16,179240,2,0,L|198:68,1,44.999998626709,2|8,0:3|0:2,0:0:0:0:
276,134,179526,5,2,0:0:0:0:
276,134,179669,2,0,L|265:195,1,60,2|0,1:3|0:0,0:0:0:0:
199,263,179955,5,10,0:2:0:0:
199,263,180097,2,0,L|214:342,1,75,2|0,0:3|1:3,0:0:0:0:
300,384,180383,5,2,2:2:0:0:
300,384,180526,2,0,B|336:371|336:371|388:379,1,75,10|0,2:2|1:2,0:0:0:0:
508,314,180812,6,0,P|472:294|435:298,1,75,10|0,2:2|1:2,0:0:0:0:
374,223,181097,6,0,P|381:175|392:134,1,89.9999972534181,10|0,2:2|1:0,0:0:0:0:
280,5,181383,6,0,L|296:101,1,82.5000025177003,6|0,1:2|1:3,0:0:0:0:
225,168,181669,2,0,P|187:177|145:158,1,82.5000025177003,10|2,2:2|1:2,0:0:0:0:
21,94,181955,6,0,L|114:78,1,82.5000025177003,8|0,2:2|1:3,0:0:0:0:
259,265,182240,2,0,L|166:281,1,82.5000025177003,10|0,2:2|1:3,0:0:0:0:
345,176,182526,6,0,P|392:182|448:198,1,97.4999955368044,14|0,2:2|1:0,0:0:0:0:
512,108,182812,2,0,P|488:103|444:118,1,71.2499980974198,14|0,2:2|1:0,0:0:0:0:
177,278,183097,6,0,P|130:284|74:300,1,97.4999955368044,8|0,2:2|1:3,0:0:0:0:
10,210,183383,2,0,P|34:205|78:220,1,71.2499980974198,10|0,2:2|1:3,0:0:0:0:
270,376,183669,6,0,P|280:307|297:198,2,165.000005035401,14|10|8,2:2|2:2|2:2,0:0:0:0:
108,242,184383,1,0,1:3:0:0:
65,336,184526,2,0,P|101:329|163:318,1,82.5000025177003,10|0,2:2|1:3,0:0:0:0:
291,205,184812,6,0,P|251:184|206:196,1,82.5000025177003,14|0,2:2|1:0,0:0:0:0:
340,357,185097,2,0,P|380:362|415:342,1,82.5000025177003,14|0,2:2|1:0,0:0:0:0:
462,235,185383,6,0,P|413:248|370:255,1,82.5000025177003,10|4,2:2|0:3,0:0:0:0:
230,369,185669,2,0,P|191:358|150:351,1,82.5000025177003,10|4,2:2|0:3,0:0:0:0:
21,268,185955,6,0,L|67:259,3,44.999998626709,14|0|0|0,0:0|1:0|1:0|0:0,0:0:0:0:
140,199,186240,2,0,L|186:208,3,44.999998626709,10|0|2|0,0:0|1:0|1:2|0:0,0:0:0:0:
256,275,186526,2,0,L|302:266,3,44.999998626709,8|0|0|0,2:2|1:0|1:0|0:0,0:0:0:0:
373,209,186812,2,0,L|419:218,3,44.999998626709,10|0|0|0,2:2|1:0|1:0|0:0,0:0:0:0:
483,271,187097,5,10,2:0:0:0:
483,271,187240,1,10,2:0:0:0:
253,116,188240,5,14,0:0:0:0:
189,173,188383,2,0,P|130:175|87:217,2,120,10|8|0,0:0|0:0|1:0,0:0:0:0:
253,116,189097,2,0,L|262:74,3,30,8|8|8|8,2:0|2:0|2:0|2:0,0:0:0:0:
260,87,189383,6,0,P|294:82|326:77,1,60,4|0,1:2|1:2,0:0:0:0:
377,17,189669,1,8,0:0:0:0:
439,74,189812,2,0,P|433:110|417:201,1,120,4|0,1:2|1:2,0:0:0:0:
468,248,190169,1,0,1:2:0:0:
472,251,190240,2,0,L|521:243,3,37.5,8|8|8|8,2:2|2:2|2:2|2:2,0:0:0:0:
409,300,190526,6,0,L|345:292,1,48.7499977684022,6|0,1:2|0:0,0:0:0:0:
