osu file format v14

[General]
AudioFilename: Gumi - Kanzen Chouaku Lolita Complax.mp3
AudioLeadIn: 1500
PreviewTime: 66143
Countdown: 0
SampleSet: Normal
StackLeniency: 0.4
Mode: 0
LetterboxInBreaks: 1
WidescreenStoryboard: 0

[Editor]
DistanceSpacing: 1.1
BeatDivisor: 4
GridSize: 4
TimelineZoom: 1

[Metadata]
Title:Kanzen Chouaku Lolita Complex
TitleUnicode:完全懲悪ロリィタコンプレックス
Artist:Kairiki bear feat. GUMI
ArtistUnicode:かいりきベア feat. GUMI
Creator:Star Stream
Version:SCV's Extra
Source:
Tags:Rock Japanese FARM Records FARM-0292 VOCAROCK collection 4 feat. 初音ミク アイスクリーム 何か、妖怪? Nani ka, youkai? The Voc@loid M@ster 21 EXIT TUNES QWCE-00440 IMITATION GALLERY イミテーシヨンギャラリー J-Rock JRock HelloSCV mixagji winber1 kaburagi kotetsu megpoid gumi メグッポイド グミ
BeatmapID:259355
BeatmapSetID:65476

[Difficulty]
HPDrainRate:5
CircleSize:4
OverallDifficulty:6
ApproachRate:9
SliderMultiplier:1.7
SliderTickRate:1

[Events]
//Background and Video events
0,0,"BG.jpg",0,0
//Break Periods
2,176961,185979
//Storyboard Layer 0 (Background)
//Storyboard Layer 1 (Fail)
//Storyboard Layer 2 (Pass)
//Storyboard Layer 3 (Foreground)
//Storyboard Layer 4 (Overlay)
//Storyboard Sound Samples

[TimingPoints]
469,218.181818181818,4,1,1,70,1,0
21305,-125,4,1,1,70,0,0
24907,218.181818181818,4,1,1,50,1,0
24907,-100,4,1,1,50,0,0
38870,-100,4,1,1,50,0,1
38925,-100,4,1,1,50,0,0
45852,-125,4,1,1,50,0,0
57961,-100,4,1,1,50,0,0
59706,-100,4,1,1,50,0,1
59761,-100,4,1,1,50,0,0
66688,-83.3333333333333,4,1,1,80,0,1
80434,-100,4,1,1,80,0,0
80652,-100,4,1,1,80,0,1
80706,-100,4,1,1,80,0,0
94616,-125,4,1,1,50,0,0
98216,-100,4,1,1,50,0,0
112070,-100,4,1,1,50,0,1
112125,-100,4,1,1,50,0,0
119052,-83.3333333333333,4,1,1,80,0,1
132961,-83.3333333333333,4,1,1,80,0,0
133016,-83.3333333333333,4,1,1,80,0,1
146979,-100,4,1,1,60,0,0
157452,-100,4,1,1,60,0,1
157506,-100,4,1,1,60,0,0
175016,-100,4,1,1,20,0,0
176543,-100,4,1,1,60,0,0
190616,-200,4,1,1,60,0,0
190943,-83.3333333333333,4,1,1,80,0,1
204525,-83.3333333333333,4,1,1,80,0,0
204579,-83.3333333333333,4,1,1,80,0,1
216252,-100,4,1,1,60,0,0
222034,-100,4,1,1,60,0,1
222088,-100,4,1,1,60,0,0
235997,-125,4,1,1,60,0,0
238506,-100,4,1,1,60,0,0
239706,-100,4,2,1,5,0,0

[Colours]
Combo1 : 116,139,156
Combo2 : 140,218,54
Combo3 : 205,20,24
Combo4 : 203,176,69
Combo5 : 50,94,197
Combo6 : 255,255,255
Combo7 : 85,80,146

[HitObjects]
256,192,687,12,0,6250,0:0:0:0:
416,104,6578,5,8,0:0:0:0:
416,104,6632,1,0,0:0:0:0:
416,104,6687,2,0,L|396:188,1,85,0|8,0:0|0:0,0:0:0:0:
364,264,6904,1,8,0:0:0:0:
316,192,7014,2,8,L|340:104,2,85
248,140,7341,6,0,P|180:84|100:116,1,170,4|0,0:0|0:0,0:0:0:0:
28,136,7668,2,0,P|96:192|176:160,1,170,8|0,0:0|0:0,0:0:0:0:
248,140,7996,1,0,0:0:0:0:
332,124,8105,1,8,0:0:0:0:
384,56,8214,6,0,B|440:128|440:228|440:228,1,170
428,300,8541,2,0,B|408:340|360:352|360:352,1,85,8|0,0:0|0:0,0:0:0:0:
284,324,8759,2,0,B|304:284|352:272|352:272,2,85,0|0|8,0:0|0:0|0:0,0:0:0:0:
200,304,9087,6,0,B|140:248|136:144|136:144,1,170,4|0,0:0|0:0,0:0:0:0:
248,244,9414,2,0,B|212:212|212:160|212:160,1,85,8|0,0:0|0:0,0:0:0:0:
284,124,9632,2,0,B|328:108|328:108|352:68,1,85
456,148,9851,2,0,B|412:164|412:164|388:204,1,85,8|0,0:0|0:0,0:0:0:0:
348,268,10068,5,0,0:0:0:0:
284,324,10178,2,0,L|320:360,2,42.5,0|0|8,0:0|0:0|0:0,0:0:0:0:
200,304,10396,2,0,L|152:328,2,42.5
188,220,10614,2,0,L|100:264,1,85,0|8,0:0|0:0,0:0:0:0:
104,172,10832,6,0,B|140:88|224:80|224:80,1,170,4|0,0:0|0:0,0:0:0:0:
184,12,11159,2,0,B|271:-14|331:44|331:44,1,170,8|0,0:0|0:0,0:0:0:0:
372,132,11487,1,0,0:0:0:0:
368,216,11596,1,8,0:0:0:0:
288,192,11705,6,0,P|200:212|180:284,1,170
264,272,12032,2,0,L|322:333,1,85,8|0,0:0|0:0,0:0:0:0:
458,357,12250,2,0,L|400:296,1,85,0|0,0:0|0:0,0:0:0:0:
368,216,12468,1,8,0:0:0:0:
324,140,12578,6,0,P|240:88|168:136,1,170,4|0,0:0|0:0,0:0:0:0:
232,251,12905,2,0,L|248:168,1,85,8|0,0:0|0:0,0:0:0:0:
160,32,13123,2,0,B|124:60|124:60|108:104,1,85
132,224,13341,2,0,B|120:264|120:264|82:290,1,85,8|0,0:0|0:0,0:0:0:0:
52,208,13559,6,0,L|68:164,2,42.5,8|0|0,0:0|0:0|0:0,0:0:0:0:
192,292,13777,2,0,L|177:331,2,42.5,8|0|0,0:0|0:0|0:0,0:0:0:0:
232,216,13996,5,8,0:0:0:0:
240,200,14105,1,8,0:0:0:0:
248,184,14214,1,8,0:0:0:0:
256,168,14323,6,0,B|312:104|408:100|408:100,1,170,4|0,0:0|0:0,0:0:0:0:
484,132,14650,2,0,B|436:204|464:304|464:304,1,170,8|0,0:0|0:0,0:0:0:0:
484,380,14978,1,0,0:0:0:0:
400,368,15087,1,8,0:0:0:0:
316,356,15196,6,0,L|232:352,1,85
116,296,15414,2,0,B|156:276|156:276|180:232,1,85,0|8,0:0|0:0,0:0:0:0:
144,116,15632,1,0,0:0:0:0:
260,68,15742,2,0,B|304:56|304:56|332:24,2,85,0|0|8,0:0|0:0|0:0,0:0:0:0:
288,140,16068,6,0,B|380:120|416:36|416:36,1,170,4|0,0:0|0:0,0:0:0:0:
388,184,16396,2,0,B|430:160|454:121|454:121,1,85,8|0,0:0|0:0,0:0:0:0:
488,204,16614,2,0,B|461:241|461:241|419:264,1,85
240,308,16832,2,0,B|266:270|266:270|300:252,1,85,8|0,0:0|0:0,0:0:0:0:
372,208,17050,5,0,0:0:0:0:
296,172,17159,2,0,L|256:192,2,42.5,0|0|8,0:0|0:0|0:0,0:0:0:0:
324,328,17377,2,0,L|362:308,2,42.5
240,308,17596,1,0,0:0:0:0:
160,280,17705,1,8,0:0:0:0:
180,196,17814,6,0,P|220:116|180:48,1,170,4|0,0:0|0:0,0:0:0:0:
140,124,18141,2,0,B|204:144|264:96|264:36,1,170,8|0,0:0|0:0,0:0:0:0:
348,36,18468,1,0,0:0:0:0:
420,80,18578,1,8,0:0:0:0:
432,164,18687,6,0,L|416:248,1,85
472,364,18905,2,0,L|360:364,1,85,0|8,0:0|0:0,0:0:0:0:
260,360,19123,1,0,0:0:0:0:
240,232,19232,2,0,L|324:232,2,85,0|0|8,0:0|0:0|0:0,0:0:0:0:
184,296,19559,6,0,P|160:224|212:144,1,170,4|0,0:0|0:0,0:0:0:0:
264,84,19887,2,0,P|288:156|236:236,1,170,8|0,0:0|0:0,0:0:0:0:
252,316,20214,2,0,B|296:304|328:264|328:264,1,85,0|8,0:0|0:0,0:0:0:0:
404,300,20432,6,0,B|432:216|404:124|404:124,1,170,4|0,0:0|0:0,0:0:0:0:
328,32,20759,2,0,L|260:88,1,85,8|0,0:0|0:0,0:0:0:0:
74,98,20978,2,0,L|140:44,1,85
168,168,21196,1,8,0:0:0:0:
180,236,21305,6,0,B|220:288|300:312|372:304|372:304,1,204,4|8,0:0|0:0,0:0:0:0:
316,176,21850,2,0,B|384:168|440:124|440:124,1,136,0|8,0:0|0:0,0:0:0:0:
320,60,22287,2,0,B|252:68|196:112|196:112,1,136,0|8,0:0|0:0,0:0:0:0:
100,208,22723,6,0,L|104:280,1,68,8|0,0:0|0:0,0:0:0:0:
172,268,22941,2,0,L|168:200,1,68,8|4,0:0|0:0,0:0:0:0:
256,16,23377,5,0,0:0:0:0:
412,208,23596,2,0,L|408:275,1,68,8|0,0:0|0:0,0:0:0:0:
340,268,23814,2,0,L|343:200,1,68,8|0,0:0|0:0,0:0:0:0:
348,132,24032,5,4,0:0:0:0:
164,132,24359,1,4,0:0:0:0:
164,132,24907,6,0,P|248:152|268:236,1,170,4|8,0:0|0:0,0:0:0:0:
228,296,25234,1,0,0:0:0:0:
184,224,25343,2,0,P|132:300|172:368,1,170,0|8,0:0|0:0,0:0:0:0:
248,376,25670,1,0,0:0:0:0:
316,324,25779,2,0,L|376:252,1,85
448,292,25997,2,0,P|444:208|376:168,1,170,8|0,0:0|0:0,0:0:0:0:
208,140,26434,6,0,L|184:224,1,85,8|0,0:0|0:0,0:0:0:0:
120,276,26652,2,0,B|152:360|248:376|248:376,1,170,0|8,0:0|0:0,0:0:0:0:
184,220,27088,2,0,B|260:260|360:244|360:244,1,170,0|8,0:0|0:0,0:0:0:0:
404,312,27416,2,0,P|440:232|388:168,1,170
344,104,27743,2,0,P|308:184|360:248,1,170,8|0,0:0|0:0,0:0:0:0:
420,88,28179,6,0,B|408:44|364:28|364:28,1,85,8|0,0:0|0:0,0:0:0:0:
280,28,28397,2,0,B|264:68|264:68|224:96,1,85
144,104,28616,2,0,B|136:148|136:148|148:192,1,85,8|0,0:0|0:0,0:0:0:0:
192,256,28834,2,0,P|280:264|324:332,1,170,0|8,0:0|0:0,0:0:0:0:
240,324,29161,2,0,P|300:256|380:260,1,170
456,276,29488,1,8,0:0:0:0:
460,108,29706,6,0,L|376:128,1,85
388,44,29925,2,0,L|292:44,1,85,8|0,0:0|0:0,0:0:0:0:
220,44,30143,5,0,0:0:0:0:
324,180,30361,1,8,0:0:0:0:
188,284,30579,1,0,0:0:0:0:
80,152,30797,2,0,L|172:156,1,85,8|0,0:0|0:0,0:0:0:0:
248,168,31016,5,0,0:0:0:0:
416,196,31234,1,8,0:0:0:0:
388,364,31452,1,0,0:0:0:0:
220,340,31670,1,8,0:0:0:0:
320,200,31888,6,0,B|340:156|312:116|312:116,2,85,4|0|0,0:0|0:0|0:0,0:0:0:0:
192,184,32325,2,0,B|172:228|196:268|196:268,2,85
292,320,32761,1,0,0:0:0:0:
372,296,32870,1,0,0:0:0:0:
408,220,32979,2,0,P|416:128|380:60,1,170,8|0,0:0|0:0,0:0:0:0:
212,68,33416,5,8,0:0:0:0:
212,68,33525,1,0,0:0:0:0:
212,68,33634,2,0,B|176:144|84:180|84:180,1,170,0|8,0:0|0:0,0:0:0:0:
244,240,34070,2,0,B|168:288|72:276|72:276,1,170,0|8,0:0|0:0,0:0:0:0:
16,224,34397,1,0,0:0:0:0:
88,176,34506,2,0,B|104:132|92:92|92:92,1,85
20,44,34725,2,0,P|96:12|172:52,1,170,8|0,0:0|0:0,0:0:0:0:
312,140,35161,6,0,L|400:152,1,85,8|0,0:0|0:0,0:0:0:0:
464,204,35379,2,0,B|448:248|448:248|456:292,1,85
476,368,35597,1,8,0:0:0:0:
312,320,35816,6,0,L|224:304,1,85
164,196,36034,2,0,L|247:211,1,85,8|0,0:0|0:0,0:0:0:0:
376,200,36252,2,0,P|312:132|328:64,1,170,0|8,0:0|0:0,0:0:0:0:
452,100,36580,1,0,0:0:0:0:
496,216,36688,6,0,L|468:300,1,85
356,360,36907,2,0,L|382:279,1,85,8|0,0:0|0:0,0:0:0:0:
304,248,37125,6,0,B|236:192|256:92|256:92,1,170,0|8,0:0|0:0,0:0:0:0:
208,248,37561,2,0,B|276:192|256:92|256:92,1,170,0|8,0:0|0:0,0:0:0:0:
256,8,37888,1,4,0:2:0:0:
256,8,38216,5,8,0:0:0:0:
256,40,38434,1,8,0:0:0:0:
256,72,38652,1,8,0:0:0:0:
256,104,38870,6,0,B|264:148|264:148|292:176,1,85,4|0,0:0|0:0,0:0:0:0:
384,184,39088,2,0,B|376:140|376:140|348:112,1,85,8|0,0:0|0:0,0:0:0:0:
352,20,39306,1,0,0:0:0:0:
436,60,39416,2,0,B|472:92|472:92|488:224,1,170
428,288,39743,6,0,L|340:308,1,85
229,238,39961,2,0,L|312:220,1,85,8|0,0:0|0:0,0:0:0:0:
378,109,40179,2,0,L|296:128,1,85
204,144,40397,2,0,L|156:156,2,42.5,8|0|0,0:0|0:0|0:0,0:0:0:0:
144,72,40616,6,0,B|104:88|104:88|80:132,1,85
92,216,40834,2,0,B|100:264|100:264|88:304,1,85,8|0,0:0|0:0,0:0:0:0:
156,364,41052,2,0,B|184:284|184:284|168:200,1,170,0|8,0:0|0:0,0:0:0:0:
244,148,41379,2,0,B|328:132|328:132|408:160,1,170
392,252,41706,2,0,L|312:224,1,85,8|0,0:0|0:0,0:0:0:0:
264,304,41925,2,0,L|344:332,1,85
436,324,42143,2,0,L|420:364,2,42.5,8|0|0,0:0|0:0|0:0,0:0:0:0:
468,236,42361,6,0,L|504:148,1,85
408,160,42579,2,0,L|440:81,1,85,8|0,0:0|0:0,0:0:0:0:
348,76,42797,2,0,B|328:124|328:124|292:140,1,85
208,164,43016,1,8,0:0:0:0:
124,124,43125,6,0,P|116:212|208:244,1,170
264,288,43452,2,0,P|272:200|180:168,1,170,8|0,0:0|0:0,0:0:0:0:
212,68,43779,1,0,0:0:0:0:
296,108,43888,2,0,B|336:128|352:180|352:180,1,85,8|0,0:0|0:0,0:0:0:0:
384,260,44106,6,0,B|420:292|420:292|424:336,1,85
496,268,44325,2,0,B|460:236|460:236|456:192,1,85,8|0,0:0|0:0,0:0:0:0:
368,176,44543,2,0,B|296:220|296:220|208:224,1,170,0|8,0:0|0:0,0:0:0:0:
116,224,44870,1,0,0:0:0:0:
32,128,44979,53,8,0:0:0:0:
156,152,45088,1,8,0:0:0:0:
288,132,45197,1,8,0:0:0:0:
212,32,45306,1,8,0:0:0:0:
336,60,45416,6,0,L|388:72,6,42.5
400,140,45852,6,0,P|408:240|328:316,1,204,4|0,0:0|0:0,0:0:0:0:
324,212,46288,2,0,B|316:140|256:96|256:96,1,136,8|0,0:0|0:0,0:0:0:0:
116,140,46725,6,0,P|108:240|188:316,1,204,4|0,0:0|0:0,0:0:0:0:
192,212,47162,2,0,B|200:140|260:96|260:96,1,136,8|0,0:0|0:0,0:0:0:0:
400,48,47597,6,0,L|428:124,1,68,8|0,0:0|0:0,0:0:0:0:
307,235,47815,2,0,L|284:172,1,68,0|0,0:0|0:0,0:0:0:0:
344,112,48034,2,0,L|367:175,1,68,8|0,0:0|0:0,0:0:0:0:
244,300,48252,2,0,L|220:236,1,68,0|0,0:0|0:0,0:0:0:0:
196,164,48471,6,0,P|152:88|40:116,2,204,4|0|0,0:0|0:0|0:0,0:0:0:0:
56,216,49343,6,0,L|104:272,1,68,12|0,0:0|0:0,0:0:0:0:
204,356,49561,2,0,L|276:342,1,68,0|0,0:0|0:0,0:0:0:0:
400,304,49779,2,0,L|424:234,1,68,10|0,0:0|0:0,0:0:0:0:
444,104,49997,2,0,L|396:48,1,68,0|0,0:0|0:0,0:0:0:0:
296,56,50216,6,0,P|264:132|136:200,1,204
104,112,50652,2,0,P|64:176|72:240,1,136,8|0,0:0|0:0,0:0:0:0:
248,336,51088,6,0,P|312:264|436:252,1,204,4|0,0:0|0:0,0:0:0:0:
484,276,51525,1,8,0:0:0:0:
404,148,51743,2,0,L|336:172,1,68
240,196,51961,2,0,B|132:184|76:84|76:84,1,204,4|0,0:0|0:0,0:0:0:0:
172,44,52397,2,0,B|244:68|308:40|308:40,1,136,8|0,0:0|0:0,0:0:0:0:
476,152,52834,6,0,B|472:188|472:188|452:216,1,68,12|0,0:0|0:0,0:0:0:0:
252,228,53052,2,0,B|256:192|256:192|274:166,1,68
372,156,53270,2,0,B|368:192|368:192|349:217,1,68,8|0,0:0|0:0,0:0:0:0:
152,228,53488,2,0,B|156:192|156:192|174:166,1,68
228,80,53706,6,0,B|320:76|320:76|436:20,1,204,4|0,0:0|0:0,0:0:0:0:
496,100,54143,2,0,L|364:160,1,136,8|0,0:0|0:0,0:0:0:0:
296,344,54579,6,0,B|260:340|260:340|236:320,1,68,8|0,0:0|0:0,0:0:0:0:
124,240,54797,2,0,B|109:206|109:206|114:176,1,68
172,52,55016,2,0,B|193:22|193:22|222:12,1,68,8|8,0:0|0:0,0:0:0:0:
360,20,55234,2,0,B|396:24|396:24|420:44,1,68
440,116,55452,6,0,P|396:176|480:248,2,204,4|0|0,0:0|0:0|0:0,0:0:0:0:
328,216,56325,6,0,B|316:180|332:140|332:140,1,68,12|0,0:0|0:0,0:0:0:0:
232,116,56543,2,0,B|244:152|228:192|228:192,1,68
416,232,56761,2,0,B|404:196|420:156|420:156,1,68,8|0,0:0|0:0,0:0:0:0:
148,104,56979,2,0,B|160:140|144:180|144:180,1,68
68,236,57197,6,0,B|108:332|232:352|232:352,1,204,4|0,0:0|0:0,0:0:0:0:
212,248,57634,2,0,P|280:265|368:272,1,136,8|0,0:0|0:0,0:0:0:0:
424,172,57961,6,0,B|376:96|276:76|196:104,1,255,4|8,0:0|0:0,0:0:0:0:
116,204,58397,1,0,0:0:0:0:
240,180,58506,2,0,B|288:168|332:196|332:196,2,85,0|0|8,0:0|0:0|0:0,0:0:0:0:
296,296,58834,6,0,B|352:320|416:308|456:260,1,170,4|0,0:0|0:0,0:0:0:0:
328,232,59161,2,0,B|380:256|412:204|412:204,1,85,8|0,0:0|0:0,0:0:0:0:
344,144,59379,6,0,L|308:64,2,85,0|0|8,0:0|0:0|0:0,0:0:0:0:
252,164,59706,2,0,B|208:88|120:60|120:60,1,170,4|0,0:0|0:0,0:0:0:0:
36,100,60034,2,0,B|64:136|60:192|60:192,1,85,8|0,0:0|0:0,0:0:0:0:
120,252,60252,2,0,P|76:276|36:268,2,85,0|0|8,0:0|0:0|0:0,0:0:0:0:
212,264,60579,2,0,B|304:284|352:360|352:360,1,170
444,360,60906,1,0,0:0:0:0:
500,284,61016,1,0,0:0:0:0:
464,196,61125,6,0,P|380:160|368:84,1,170,0|8,0:0|0:0,0:0:0:0:
444,120,61452,2,0,P|364:192|296:172,1,170,4|0,0:0|0:0,0:0:0:0:
220,160,61779,2,0,B|176:152|176:152|136:164,1,85,8|0,0:0|0:0,0:0:0:0:
184,248,61997,2,0,B|148:264|148:264|104:256,1,85
40,184,62216,1,8,0:0:0:0:
80,100,62325,2,0,B|180:72|180:72|248:88|248:88,1,170
328,128,62652,1,8,0:0:0:0:
288,212,62761,1,0,0:0:0:0:
360,268,62870,6,0,P|440:308|516:272,1,170,0|8,0:0|0:0,0:0:0:0:
440,216,63197,2,0,L|416:384,1,170,4|0,0:0|0:0,0:0:0:0:
328,352,63525,1,8,0:0:0:0:
256,292,63633,1,0,0:0:0:0:
152,268,63743,6,0,P|72:308|-4:272,1,170,0|8,0:0|0:0,0:0:0:0:
72,216,64071,2,0,L|96:384,1,170,4|0,0:0|0:0,0:0:0:0:
184,352,64397,1,8,0:0:0:0:
256,292,64506,1,0,0:0:0:0:
288,204,64616,2,0,B|292:156|280:116|280:116,1,85
220,48,64833,1,8,0:0:0:0:
316,48,64943,6,0,B|388:108|476:104|476:104,1,170,4|0,0:0|0:0,0:0:0:0:
376,176,65270,2,0,B|412:200|460:192|460:192,1,85,8|0,0:0|0:0,0:0:0:0:
372,288,65488,69,8,0:0:0:0:
264,360,65597,1,8,0:0:0:0:
192,256,65706,1,8,0:0:0:0:
296,180,65816,1,8,0:0:0:0:
296,180,66143,85,0,0:0:0:0:
296,180,66361,2,0,L|264:96,2,85,0|0|8,0:0|0:0|0:0,0:0:0:0:
192,144,66688,6,0,B|172:96|172:96|20:32,1,203.999993774414,4|0,0:0|0:0,0:0:0:0:
4,148,67016,2,0,L|108:192,1,101.999996887207,8|0,0:0|0:0,0:0:0:0:
200,232,67234,1,0,0:0:0:0:
304,272,67343,2,0,B|352:292|352:292|392:328,1,101.999996887207,0|8,0:0|0:0,0:0:0:0:
404,216,67561,6,0,P|360:124|412:48,1,203.999993774414
304,28,67888,2,0,B|272:72|272:128|272:128,1,101.999996887207,8|0,0:0|0:0,0:0:0:0:
240,232,68106,1,0,0:0:0:0:
148,300,68216,2,0,P|128:252|92:212,1,101.999996887207,0|8,0:0|0:0,0:0:0:0:
144,124,68434,6,0,P|224:56|316:96,1,203.999993774414,4|0,0:0|0:0,0:0:0:0:
408,136,68761,2,0,P|328:204|236:164,1,203.999993774414,8|0,0:0|0:0,0:0:0:0:
144,124,69088,1,0,0:0:0:0:
32,140,69197,1,0,0:0:0:0:
24,252,69306,6,0,B|40:308|132:348|208:336,1,203.999993774414
308,324,69634,2,0,B|360:312|360:312|384:264,1,101.999996887207,8|0,0:0|0:0,0:0:0:0:
296,196,69852,2,0,B|317:152|317:152|369:140,1,101.999996887207
480,124,70070,1,8,0:0:0:0:
416,32,70179,6,0,L|204:76,1,203.999993774414,4|0,0:0|0:0,0:0:0:0:
120,132,70506,1,8,0:0:0:0:
201,212,70616,2,0,B|152:212|152:212|108:240,1,101.999996887207
62,344,70834,2,0,B|112:344|112:344|156:316,1,101.999996887207,0|8,0:0|0:0,0:0:0:0:
264,304,71052,6,0,B|376:304|376:304|460:248,1,203.999993774414,0|0,0:0|0:0,0:0:0:0:
348,212,71379,2,0,L|436:152,1,101.999996887207,8|0,0:0|0:0,0:0:0:0:
324,120,71597,2,0,B|368:92|368:92|376:36,2,101.999996887207,0|0|8,0:0|0:0|0:0,0:0:0:0:
240,44,71925,6,0,B|152:112|152:112|132:212,1,203.999993774414,4|0,0:0|0:0,0:0:0:0:
132,36,72252,2,0,B|88:70|88:70|78:120,1,101.999996887207,8|0,0:0|0:0,0:0:0:0:
56,224,72470,2,0,B|80:276|80:276|72:332,2,101.999996887207,0|0|8,0:0|0:0|0:0,0:0:0:0:
148,288,72797,6,0,B|232:228|344:232|344:232,1,203.999993774414
364,120,73125,2,0,B|280:180|168:176|168:176,1,203.999993774414,8|0,0:0|0:0,0:0:0:0:
72,120,73452,1,8,0:0:0:0:
72,140,73561,1,8,0:0:0:0:
72,160,73670,6,0,P|36:256|116:312,1,203.999993774414,4|0,0:0|0:0,0:0:0:0:
180,228,73997,2,0,P|240:248|244:372,1,203.999993774414,8|0,0:0|0:0,0:0:0:0:
356,348,74325,2,0,B|408:328|464:336|464:336,1,101.999996887207,0|8,0:0|0:0,0:0:0:0:
380,252,74543,6,0,B|432:232|456:124|412:72,1,203.999993774414
348,164,74870,2,0,B|360:104|316:72|316:72,1,101.999996887207,8|0,0:0|0:0,0:0:0:0:
248,160,75088,2,0,B|236:220|280:252|280:252,2,101.999996887207,0|0|8,0:0|0:0|0:0,0:0:0:0:
172,76,75416,6,0,B|136:134|136:220|168:270,1,203.999993774414,4|0,0:0|0:0,0:0:0:0:
80,336,75743,2,0,P|116:372|172:376,1,101.999996887207,8|0,0:0|0:0,0:0:0:0:
276,356,75961,2,0,B|304:308|364:300|364:300,2,101.999996887207,0|0|8,0:0|0:0|0:0,0:0:0:0:
284,244,76288,6,0,B|300:192|352:168|404:144|420:88,1,203.999993774414
420,208,76616,2,0,B|468:176|488:116|488:116,1,101.999996887207,8|0,0:0|0:0,0:0:0:0:
288,120,76834,2,0,B|241:152|216:206|216:206,1,101.999996887207
192,304,77052,1,8,0:0:0:0:
84,336,77161,6,0,P|128:244|72:168,1,203.999993774414,4|0,0:0|0:0,0:0:0:0:
12,260,77488,2,0,L|220:232,1,203.999993774414,8|0,0:0|0:0,0:0:0:0:
256,336,77816,5,0,0:0:0:0:
344,264,77925,1,8,0:0:0:0:
428,336,78034,2,0,P|384:244|440:168,1,203.999993774414
500,260,78361,2,0,L|292:232,1,203.999993774414,8|0,0:0|0:0,0:0:0:0:
256,128,78688,6,0,B|312:132|356:116|356:116,1,101.999996887207,0|8,0:0|0:0,0:0:0:0:
384,24,78906,2,0,B|284:52|176:32|176:32,1,203.999993774414,4|0,0:0|0:0,0:0:0:0:
256,128,79234,2,0,B|200:132|156:116|156:116,1,101.999996887207,8|0,0:0|0:0,0:0:0:0:
80,212,79452,2,0,B|64:168|72:100|72:100,2,101.999996887207,0|0|8,0:0|0:0|0:0,0:0:0:0:
128,304,79779,1,8,0:0:0:0:
256,192,79888,12,0,80434,0:0:0:0:
148,96,80652,6,0,B|204:156|300:176|300:176,1,170,4|0,0:0|0:0,0:0:0:0:
328,88,80979,2,0,B|412:132|424:228|424:228,1,170,8|0,0:0|0:0,0:0:0:0:
400,312,81306,1,0,0:0:0:0:
332,376,81416,1,8,0:0:0:0:
300,288,81525,2,0,P|244:224|160:248,1,170
212,324,81852,6,0,L|128:348,1,85,8|0,0:0|0:0,0:0:0:0:
60,176,82070,2,0,L|141:152,1,85,0|0,0:0|0:0,0:0:0:0:
232,128,82288,1,8,0:0:0:0:
300,192,82397,6,0,B|396:172|428:76|428:76,1,170,4|0,0:0|0:0,0:0:0:0:
332,92,82725,2,0,B|368:60|376:16|376:16,1,85,8|0,0:0|0:0,0:0:0:0:
284,32,82943,6,0,B|244:40|244:40|208:76,1,85
244,196,83161,2,0,B|212:227|212:227|172:235,1,85,8|0,0:0|0:0,0:0:0:0:
80,244,83379,5,0,0:0:0:0:
128,164,83488,2,0,L|176:152,2,42.5,0|0|8,0:0|0:0|0:0,0:0:0:0:
240,304,83706,2,0,L|196:312,2,42.5
332,280,83925,2,0,L|420:256,1,85,0|8,0:0|0:0,0:0:0:0:
360,180,84143,6,0,P|452:156|460:92,1,170,4|0,0:0|0:0,0:0:0:0:
368,96,84470,2,0,P|276:120|268:184,1,170,8|0,0:0|0:0,0:0:0:0:
284,276,84797,1,0,0:0:0:0:
236,356,84906,2,0,B|196:336|176:296|176:296,1,85,8|0,0:0|0:0,0:0:0:0:
136,212,85125,6,0,B|116:168|88:144|88:144,1,85,0|0,0:0|0:0,0:0:0:0:
68,52,85343,1,8,0:0:0:0:
160,76,85452,1,0,0:0:0:0:
252,76,85561,2,0,B|296:68|328:32|328:32,2,85,0|0|8,0:0|0:0|0:0,0:0:0:0:
244,168,85888,6,0,B|336:152|404:84|404:84,1,170,4|0,0:0|0:0,0:0:0:0:
400,188,86216,2,0,B|440:176|468:128|468:128,1,85,8|0,0:0|0:0,0:0:0:0:
492,224,86434,2,0,B|452:236|424:284|424:284,1,85
400,368,86652,1,8,0:0:0:0:
344,292,86761,6,0,L|296:308,2,42.5
168,228,87088,2,0,L|208:214,2,42.5,8|0|0,0:0|0:0|0:0,0:0:0:0:
188,136,87306,5,8,0:0:0:0:
172,144,87416,1,8,0:0:0:0:
156,152,87524,1,8,0:0:0:0:
140,160,87634,6,0,P|88:236|80:316,1,170,4|0,0:0|0:0,0:0:0:0:
164,352,87961,2,0,B|236:308|336:328|336:328,1,170,8|0,0:0|0:0,0:0:0:0:
420,348,88288,1,0,0:0:0:0:
504,304,88397,1,8,0:0:0:0:
424,256,88506,6,0,B|400:172|424:80|424:80,1,170
328,84,88834,2,0,B|300:116|252:124|252:124,1,85,8|0,0:0|0:0,0:0:0:0:
140,72,89052,2,0,B|168:40|216:32|216:32,2,85,0|0|8,0:0|0:0|0:0,0:0:0:0:
60,28,89379,6,0,P|68:120|136:160,1,170,4|0,0:0|0:0,0:0:0:0:
212,200,89706,1,8,0:0:0:0:
256,284,89816,1,0,0:0:0:0:
348,264,89925,6,0,B|384:232|384:232|396:196,1,85
363,77,90143,2,0,B|327:109|327:109|316:144,1,85,0|8,0:0|0:0,0:0:0:0:
395,197,90361,6,0,L|408:152,2,42.5
256,76,90579,2,0,L|244:116,2,42.5,8|0|0,0:0|0:0|0:0,0:0:0:0:
164,60,90797,2,0,L|140:148,1,85
120,232,91016,1,8,0:0:0:0:
180,304,91125,6,0,P|264:280|324:332,1,170,4|0,0:0|0:0,0:0:0:0:
236,360,91452,2,0,B|236:304|276:248|340:228,1,170,8|0,0:0|0:0,0:0:0:0:
424,232,91779,1,0,0:0:0:0:
480,156,91888,1,8,0:0:0:0:
444,68,91997,2,0,B|400:56|368:28|368:28,1,85
284,72,92216,6,0,L|208:128,1,85,0|8,0:0|0:0,0:0:0:0:
116,200,92434,1,0,0:0:0:0:
236,224,92543,2,0,L|308:168,2,85,0|0|8,0:0|0:0|0:0,0:0:0:0:
304,292,92870,6,0,B|392:220|392:220|456:216,1,170,4|0,0:0|0:0,0:0:0:0:
420,304,93197,2,0,L|352:360,1,85,8|0,0:0|0:0,0:0:0:0:
260,364,93416,6,0,B|216:356|216:356|192:320,1,85
156,236,93635,1,8,0:0:0:0:
68,260,93743,6,0,P|104:160|164:144,1,170,4|0,0:0|0:0,0:0:0:0:
256,64,94070,2,0,L|336:116,1,85,8|0,0:0|0:0,0:0:0:0:
368,256,94288,2,0,L|282:299,1,85
144,256,94506,1,8,0:0:0:0:
172,156,94616,6,0,P|268:184|356:140,1,204,4|0,0:0|0:0,0:0:0:0:
476,204,95161,2,0,L|408:240,1,68,8|0,0:0|0:0,0:0:0:0:
416,336,95379,2,0,L|476:304,1,68,8|0,0:0|0:0,0:0:0:0:
256,64,95815,5,8,0:0:0:0:
112,104,96034,2,0,L|48:144,1,68,8|0,0:0|0:0,0:0:0:0:
32,240,96252,1,8,0:0:0:0:
96,324,96362,85,12,0:0:0:0:
256,64,96688,1,12,0:0:0:0:
416,324,97016,1,12,0:0:0:0:
256,312,97343,5,8,0:0:0:0:
256,212,97452,2,0,L|256:132,2,68
172,156,97779,6,0,B|172:196|172:196|152:240,1,68,0|8,0:0|0:0,0:0:0:0:
340,228,97997,2,0,B|340:188|340:188|360:144,1,68,0|8,0:0|0:0,0:0:0:0:
416,104,98216,5,12,0:0:0:0:
420,272,98434,2,0,B|420:312|420:312|400:356,2,68,8|0|0,0:0|0:0|0:0,0:0:0:0:
232,348,98870,1,8,0:0:0:0:
160,304,98979,2,0,B|88:252|88:252|64:168,1,170
52,88,99307,1,8,0:0:0:0:
168,212,99525,2,0,L|144:124,2,85,0|0|8,0:0|0:0|0:0,0:0:0:0:
320,288,99961,5,0,0:0:0:0:
292,120,100179,2,0,B|304:76|304:76|344:56,1,85,8|0,0:0|0:0,0:0:0:0:
420,32,100397,1,0,0:0:0:0:
488,84,100506,2,0,B|372:132|372:132|356:188,1,170
228,284,100943,6,0,L|256:200,2,85,0|8|0,0:0|0:0|0:0,0:0:0:0:
160,232,101270,6,0,L|132:316,1,85
320,252,101488,2,0,L|348:168,1,85,8|0,0:0|0:0,0:0:0:0:
428,152,101706,6,0,P|368:84|288:108,1,170,4|8,0:0|0:0,0:0:0:0:
216,128,102034,1,0,0:0:0:0:
168,200,102143,1,0,0:0:0:0:
100,148,102252,2,0,P|92:244|156:292,1,170
312,268,102688,6,0,L|396:236,2,85,0|8|0,0:0|0:0|0:0,0:0:0:0:
320,184,103016,6,0,L|404:152,1,85
380,328,103234,2,0,L|300:358,1,85,8|0,0:0|0:0,0:0:0:0:
236,304,103452,6,0,L|204:225,1,85
464,208,103670,2,0,L|495:286,1,85,8|0,0:0|0:0,0:0:0:0:
476,368,103888,21,0,0:0:0:0:
256,248,104106,1,0,0:0:0:0:
36,368,104325,1,8,0:0:0:0:
100,276,105197,6,0,P|184:240|196:160,1,170,4|8,0:0|0:0,0:0:0:0:
184,84,105525,1,0,0:0:0:0:
268,84,105634,2,0,L|280:176,1,85,0|0,0:0|0:0,0:0:0:0:
288,252,105852,1,8,0:0:0:0:
284,336,105961,6,0,P|360:304|364:204,1,170
356,140,106288,1,8,0:0:0:0:
404,72,106397,1,0,0:0:0:0:
332,28,106506,6,0,L|256:92,1,85
428,188,106725,2,0,L|493:133,1,85,8|0,0:0|0:0,0:0:0:0:
504,216,106943,6,0,B|440:276|440:276|408:356,1,170,0|8,0:0|0:0,0:0:0:0:
328,376,107270,1,0,0:0:0:0:
352,296,107379,2,0,L|388:212,2,85,0|0|8,0:0|0:0|0:0,0:0:0:0:
292,236,107706,2,0,B|252:320|252:320|176:344,1,170
92,344,108034,1,8,0:0:0:0:
28,288,108143,1,0,0:0:0:0:
112,268,108252,6,0,L|200:240,1,85,0|0,0:0|0:0,0:0:0:0:
268,130,108470,2,0,L|188:156,1,85,8|0,0:0|0:0,0:0:0:0:
176,72,108688,6,0,L|344:24,1,170,4|8,0:0|0:0,0:0:0:0:
416,76,109015,1,0,0:0:0:0:
416,164,109125,2,0,B|404:208|404:208|420:248,2,85,0|0|8,0:0|0:0|0:0,0:0:0:0:
340,128,109452,2,0,B|317:211|317:211|347:288,1,170
384,364,109779,1,8,0:0:0:0:
300,368,109888,1,0,0:0:0:0:
236,316,109997,6,0,B|200:288|152:288|152:288,1,85
100,172,110216,2,0,B|136:200|184:200|184:200,1,85,8|0,0:0|0:0,0:0:0:0:
260,248,110434,6,0,P|276:156|208:108,1,170,0|8,0:0|0:0,0:0:0:0:
132,96,110760,1,0,0:0:0:0:
52,44,110870,21,8,0:0:0:0:
176,20,110979,1,8,0:0:0:0:
296,60,111088,1,8,0:0:0:0:
388,52,111197,6,0,P|428:136|328:260,1,255,4|8,0:0|0:0,0:0:0:0:
300,172,111634,2,0,P|408:176|472:304,1,255,4|8,0:0|0:0,0:0:0:0:
380,296,112070,6,0,B|292:276|216:328|216:328,1,170,4|0,0:0|0:0,0:0:0:0:
128,360,112397,1,8,0:0:0:0:
52,308,112506,1,0,0:0:0:0:
64,216,112616,2,0,B|96:180|96:136|96:136,2,85,0|0|8,0:0|0:0|0:0,0:0:0:0:
156,224,112943,6,0,B|188:136|168:60|168:60,1,170,0|0,0:0|0:0,0:0:0:0:
260,76,113270,2,0,B|272:116|256:168|256:168,1,85,8|0,0:0|0:0,0:0:0:0:
244,252,113488,2,0,P|328:236|380:308,1,170,0|8,0:0|0:0,0:0:0:0:
468,268,113816,6,0,B|452:184|396:104|396:104,1,170
316,156,114143,2,0,B|288:116|240:112|240:112,1,85,8|0,0:0|0:0,0:0:0:0:
268,20,114361,2,0,B|220:16|188:32|188:32,1,85
108,88,114579,5,8,0:0:0:0:
16,92,114688,2,0,P|52:156|148:176,1,170
84,260,115016,2,0,B|132:276|176:256|176:256,1,85,8|0,0:0|0:0,0:0:0:0:
256,232,115234,2,0,B|284:144|356:88|356:88,1,170,0|8,0:0|0:0,0:0:0:0:
368,184,115561,6,0,P|407:243|499:243,1,170,4|0,0:0|0:0,0:0:0:0:
456,160,115888,2,0,L|380:336,1,170,8|0,0:0|0:0,0:0:0:0:
320,380,116216,1,0,0:0:0:0:
256,312,116325,1,8,0:0:0:0:
144,184,116434,6,0,P|104:243|12:243,1,170,4|0,0:0|0:0,0:0:0:0:
56,160,116761,2,0,L|132:336,1,170,8|0,0:0|0:0,0:0:0:0:
192,380,117089,1,0,0:0:0:0:
256,312,117198,1,8,0:0:0:0:
308,236,117306,6,0,B|328:144|432:120|432:120,1,170,4|0,0:0|0:0,0:0:0:0:
352,60,117634,2,0,B|308:80|284:116|284:116,1,85,8|0,0:0|0:0,0:0:0:0:
93,174,117852,2,0,B|133:202|176:205|176:205,1,85,8|0,0:0|0:0,0:0:0:0:
322,341,118070,2,0,B|326:293|307:254|307:254,1,85,8|0,0:0|0:0,0:0:0:0:
244,148,118288,6,0,L|164:112,1,85,0|8,0:0|0:0,0:0:0:0:
92,56,118506,1,8,0:0:0:0:
180,28,118616,1,0,0:0:0:0:
272,40,118725,2,8,L|347:79,2,85
244,148,119052,6,0,B|336:196|336:196|436:196,1,203.999993774414,4|0,0:0|0:0,0:0:0:0:
484,296,119379,2,0,L|380:296,1,101.999996887207,8|0,0:0|0:0,0:0:0:0:
272,304,119597,1,0,0:0:0:0:
164,340,119706,2,0,P|152:288|172:244,1,101.999996887207,0|8,0:0|0:0,0:0:0:0:
280,216,119925,2,0,P|208:132|112:144,1,203.999993774414
68,236,120252,6,0,P|28:200|16:152,1,101.999996887207,8|0,0:0|0:0,0:0:0:0:
104,40,120470,2,0,B|160:52|212:40|212:40,1,101.999996887207
316,48,120688,1,8,0:0:0:0:
428,40,120797,6,0,P|404:140|316:168,1,203.999993774414,4|0,0:0|0:0,0:0:0:0:
208,196,121125,2,0,B|188:248|204:300|204:300,1,101.999996887207,8|0,0:0|0:0,0:0:0:0:
248,384,121343,1,0,0:0:0:0:
348,336,121452,6,0,P|372:236|460:200,1,203.999993774414
484,92,121779,2,0,L|400:16,1,101.999996887207
376,124,121997,6,0,L|284:180,1,101.999996887207,8|0,0:0|0:0,0:0:0:0:
184,136,122216,2,0,L|271:82,2,101.999996887207,0|0|8,0:0|0:0|0:0,0:0:0:0:
220,32,122543,6,0,B|108:100|108:100|72:168,1,203.999993774414,4|0,0:0|0:0,0:0:0:0:
44,272,122870,1,0,0:0:0:0:
128,348,122979,1,0,0:0:0:0:
152,236,123088,6,0,L|180:136,2,101.999996887207,0|0|8,0:0|0:0|0:0,0:0:0:0:
256,196,123416,2,0,L|256:308,1,101.999996887207
360,236,123634,2,0,L|332:136,2,101.999996887207,0|8|0,0:0|0:0|0:0,0:0:0:0:
428,144,123961,6,0,L|400:40,2,101.999996887207,0|0|8,0:0|0:0|0:0,0:0:0:0:
476,244,124288,2,0,P|424:340|328:348,1,203.999993774414,4|0,0:0|0:0,0:0:0:0:
224,368,124616,2,0,B|188:328|180:276|180:276,1,101.999996887207,8|0,0:0|0:0,0:0:0:0:
244,184,124834,2,0,B|280:224|288:276|288:276,2,101.999996887207,0|0|8,0:0|0:0|0:0,0:0:0:0:
352,220,125161,6,0,P|364:108|296:56,1,203.999993774414,4|0,0:0|0:0,0:0:0:0:
208,92,125488,2,0,L|108:160,1,101.999996887207,8|0,0:0|0:0,0:0:0:0:
24,100,125706,2,0,L|108:42,2,101.999996887207,8|8|8,0:0|0:0|0:0,0:0:0:0:
52,212,126034,6,0,P|120:260|236:232,1,203.999993774414,4|0,0:0|0:0,0:0:0:0:
252,124,126361,2,0,B|308:128|332:184|332:184,1,101.999996887207,8|0,0:0|0:0,0:0:0:0:
364,288,126579,1,0,0:0:0:0:
472,312,126688,6,0,P|388:376|284:364,1,203.999993774414
184,356,127016,1,0,0:0:0:0:
100,280,127125,1,0,0:0:0:0:
188,208,127234,2,0,B|228:176|236:120|236:120,1,101.999996887207,8|0,0:0|0:0,0:0:0:0:
124,124,127451,2,0,B|84:156|76:212|76:212,2,101.999996887207,0|0|8,0:0|0:0|0:0,0:0:0:0:
192,32,127779,6,0,P|308:36|340:136,1,203.999993774414,4|0,0:0|0:0,0:0:0:0:
452,128,128106,2,0,P|444:180|400:220,1,101.999996887207,8|0,0:0|0:0,0:0:0:0:
356,312,128325,2,0,B|296:332|284:384|284:384,1,101.999996887207
172,380,128543,1,8,0:0:0:0:
60,368,128652,6,0,P|116:276|212:280,1,203.999993774414
308,240,128979,2,0,L|404:164,1,101.999996887207,8|0,0:0|0:0,0:0:0:0:
284,136,129197,2,0,L|204:199,2,101.999996887207,0|0|8,0:0|0:0|0:0,0:0:0:0:
180,92,129525,6,0,B|272:24|272:24|368:24,1,203.999993774414
448,96,129852,2,0,L|346:96,1,101.999996887207,8|0,0:0|0:0,0:0:0:0:
352,176,130070,6,0,L|332:288,2,101.999996887207,0|0|8,0:0|0:0|0:0,0:0:0:0:
256,232,130397,2,0,L|256:128,1,101.999996887207
160,176,130616,2,0,L|180:288,2,101.999996887207,0|8|0,0:0|0:0|0:0,0:0:0:0:
52,172,130943,6,0,B|44:120|44:120|12:80,2,101.999996887207,0|0|8,0:0|0:0|0:0,0:0:0:0:
60,284,131270,2,0,B|148:336|148:336|256:336,1,203.999993774414,4|0,0:0|0:0,0:0:0:0:
320,248,131597,2,0,L|218:248,1,101.999996887207,8|0,0:0|0:0,0:0:0:0:
112,216,131815,5,0,0:0:0:0:
208,156,131925,2,0,B|264:156|264:156|300:128,1,101.999996887207,0|8,0:0|0:0,0:0:0:0:
412,128,132143,2,0,B|304:244|304:244|252:244,1,203.999993774414
148,252,132470,2,0,B|132:200|132:200|92:163|92:163,1,101.999996887207,8|0,0:0|0:0,0:0:0:0:
20,84,132688,5,0,0:0:0:0:
40,80,132797,1,8,0:0:0:0:
60,72,132906,1,8,0:0:0:0:
80,68,133016,6,0,B|180:24|288:72|288:72,1,203.999993774414,4|0,0:0|0:0,0:0:0:0:
372,128,133343,2,0,B|308:144|260:220|260:288,1,203.999993774414,8|0,0:0|0:0,0:0:0:0:
204,380,133670,1,0,0:0:0:0:
160,276,133779,1,8,0:0:0:0:
200,180,133888,2,0,P|312:192|400:244,1,203.999993774414
488,176,134216,6,0,B|476:120|476:120|440:92,1,101.999996887207,8|0,0:0|0:0,0:0:0:0:
300,36,134434,2,0,B|312:92|312:92|348:120,1,101.999996887207
392,236,134652,1,8,0:0:0:0:
448,332,134761,6,0,P|372:352|284:260,1,203.999993774414,4|0,0:0|0:0,0:0:0:0:
232,176,135088,2,0,P|308:156|396:248,1,203.999993774414,8|0,0:0|0:0,0:0:0:0:
448,332,135416,1,0,0:0:0:0:
496,228,135525,1,8,0:0:0:0:
420,144,135634,2,0,P|320:188|300:272,1,203.999993774414
224,356,135961,6,0,B|180:332|180:332|124:332,1,101.999996887207,8|0,0:0|0:0,0:0:0:0:
160,224,136180,2,0,B|216:224|216:224|260:200,2,101.999996887207,0|0|8,0:0|0:0|0:0,0:0:0:0:
196,120,136506,6,0,B|248:96|248:96|396:96,1,203.999993774414,4|0,0:0|0:0,0:0:0:0:
484,164,136834,2,0,L|376:168,1,101.999996887207,8|0,0:0|0:0,0:0:0:0:
364,280,137052,6,0,B|420:280|420:280|460:308,2,101.999996887207,0|0|8,0:0|0:0|0:0,0:0:0:0:
256,264,137379,2,0,L|256:152,1,101.999996887207
148,280,137597,2,0,B|92:280|92:280|52:308,2,101.999996887207,0|8|0,0:0|0:0|0:0,0:0:0:0:
256,264,137925,6,0,L|256:160,1,101.999996887207
256,52,138142,1,8,0:0:0:0:
164,120,138252,2,0,P|280:160|352:112,1,203.999993774414,0|0,0:0|0:0,0:0:0:0:
448,88,138579,2,0,P|456:140|432:184,1,101.999996887207,8|0,0:0|0:0,0:0:0:0:
364,272,138797,2,0,P|332:316|332:372,2,101.999996887207,0|0|8,0:0|0:0|0:0,0:0:0:0:
452,344,139125,6,0,P|476:232|416:168,1,203.999993774414,4|0,0:0|0:0,0:0:0:0:
312,172,139452,2,0,B|260:164|260:164|224:116,1,101.999996887207,0|8,0:0|0:0,0:0:0:0:
120,112,139670,1,8,0:0:0:0:
72,212,139779,2,0,B|124:220|124:220|160:268,1,101.999996887207,8|8,0:0|0:0,0:0:0:0:
196,364,139997,6,0,B|224:312|300:268|368:272,1,203.999993774414,4|0,0:0|0:0,0:0:0:0:
480,292,140325,2,0,B|452:344|376:388|308:384,1,203.999993774414,8|0,0:0|0:0,0:0:0:0:
196,364,140652,1,0,0:0:0:0:
140,268,140761,1,8,0:0:0:0:
40,216,140870,6,0,P|128:156|220:184,1,203.999993774414
308,244,141197,2,0,B|364:244|364:244|412:272,1,101.999996887207,8|0,0:0|0:0,0:0:0:0:
464,172,141416,2,0,B|408:172|408:172|360:144,1,101.999996887207
304,56,141634,1,8,0:0:0:0:
196,48,141743,6,0,B|208:112|168:200|100:232,1,203.999993774414,4|0,0:0|0:0,0:0:0:0:
100,112,142070,2,0,P|192:164|208:264,1,203.999993774414,8|0,0:0|0:0,0:0:0:0:
136,336,142397,2,0,L|240:336,1,101.999996887207,0|8,0:0|0:0,0:0:0:0:
352,336,142616,6,0,B|436:268|436:268|440:164,1,203.999993774414
356,96,142943,2,0,L|356:200,1,101.999996887207,8|0,0:0|0:0,0:0:0:0:
276,276,143161,1,0,0:0:0:0:
196,200,143270,2,0,B|148:212|148:212|100:192,1,101.999996887207,0|8,0:0|0:0,0:0:0:0:
56,88,143488,6,0,B|152:140|152:140|248:108,1,203.999993774414,4|0,0:0|0:0,0:0:0:0:
272,220,143816,2,0,L|372:176,1,101.999996887207,8|0,0:0|0:0,0:0:0:0:
344,68,144034,6,0,B|396:40|396:40|440:40,2,101.999996887207,0|0|8,0:0|0:0|0:0,0:0:0:0:
256,136,144361,2,0,L|256:32,1,101.999996887207
168,68,144579,2,0,B|116:40|116:40|72:40,2,101.999996887207,0|8|0,0:0|0:0|0:0,0:0:0:0:
256,136,144906,6,0,L|256:240,1,101.999996887207
252,352,145125,1,8,0:0:0:0:
164,280,145234,2,0,P|248:236|348:280,1,203.999993774414,4|0,0:0|0:0,0:0:0:0:
396,376,145561,2,0,P|440:336|448:296,1,101.999996887207,8|0,0:0|0:0,0:0:0:0:
428,184,145779,5,0,0:0:0:0:
360,96,145888,2,0,L|260:52,2,101.999996887207,0|8|0,0:0|0:0|0:0,0:0:0:0:
256,136,146216,6,0,L|196:104,2,50.9999984436036
256,248,146434,2,0,L|316:216,2,50.9999984436036,8|0|0,0:0|0:0|0:0,0:0:0:0:
256,360,146652,1,0,0:0:0:0:
356,308,146762,2,0,L|416:276,2,50.9999984436036,0|0|8,0:0|0:0|0:0,0:0:0:0:
368,216,146979,6,0,P|364:80|248:60,1,255,4|4,0:0|0:0,0:0:0:0:
80,80,147525,5,0,0:0:0:0:
80,172,147634,2,0,L|56:216,2,42.5,8|0|0,0:0|0:0|0:0,0:0:0:0:
132,248,147852,1,8,0:0:0:0:
224,260,147961,6,0,L|196:304,2,42.5,8|0|0,0:0|0:0|0:0,0:0:0:0:
300,316,148179,2,0,L|322:280,2,42.5,8|0|0,0:0|0:0|0:0,0:0:0:0:
392,332,148397,6,0,L|440:256,2,85,0|8|0,0:0|0:0|0:0,0:0:0:0:
408,148,148725,2,0,L|362:219,1,85,4|0,0:0|0:0,0:0:0:0:
276,184,148943,2,0,B|232:176|232:176|216:140,1,85,8|0,0:0|0:0,0:0:0:0:
188,52,149161,1,8,0:0:0:0:
96,68,149270,2,0,B|144:172|144:172|140:236,1,170,8|8,0:0|0:0,0:0:0:0:
124,320,149598,1,8,0:0:0:0:
208,280,149706,6,0,L|256:252,2,42.5,8|0|0,0:0|0:0|0:0,0:0:0:0:
408,328,149925,2,0,L|368:352,2,42.5,8|0|0,0:0|0:0|0:0,0:0:0:0:
328,288,150143,2,8,L|248:344,2,85
408,240,150470,6,0,P|336:200|328:112,1,170,4|0,0:0|0:0,0:0:0:0:
404,168,150797,2,0,P|316:212|252:184,1,170,4|0,0:0|0:0,0:0:0:0:
324,120,151125,2,0,P|336:216|288:272,1,170,4|0,0:0|0:0,0:0:0:0:
208,308,151452,6,0,B|164:320|124:304|124:304,1,85,8|0,0:0|0:0,0:0:0:0:
80,224,151670,2,0,B|124:212|164:228|164:228,1,85,0|8,0:0|0:0,0:0:0:0:
256,228,151888,6,0,L|316:168,1,85,8|0,0:0|0:0,0:0:0:0:
348,256,152106,2,0,L|408:196,1,85,8|0,0:0|0:0,0:0:0:0:
440,284,152325,2,0,L|500:224,2,85,8|0|8,0:0|0:0|0:0,0:0:0:0:
372,348,152652,6,0,L|192:304,1,170,4|0,0:0|0:0,0:0:0:0:
144,380,152979,2,0,L|52:356,1,85,8|0,0:0|0:0,0:0:0:0:
40,268,153197,6,0,B|84:256|84:256|112:208,1,85,8|8,0:0|0:0,0:0:0:0:
32,164,153416,2,0,B|51:129|51:129|95:117,1,85,0|8,0:0|0:0,0:0:0:0:
188,100,153634,2,0,L|236:92,2,42.5,8|0|0,0:0|0:0|0:0,0:0:0:0:
196,192,153852,6,0,L|284:172,1,85,8|4,0:0|0:0,0:0:0:0:
316,328,154288,1,0,0:0:0:0:
136,280,154506,1,0,0:0:0:0:
188,100,154725,1,0,0:0:0:0:
368,148,154943,1,0,0:0:0:0:
316,328,155161,1,0,0:0:0:0:
136,280,155379,6,0,L|56:248,1,85
368,148,155597,2,0,L|446:179,1,85,0|4,0:0|0:0,0:0:0:0:
316,328,156034,53,0,0:0:0:0:
208,176,156252,2,0,L|192:132,2,42.5,0|0|0,0:0|0:0|0:0,0:0:0:0:
304,176,156470,2,0,L|320:132,2,42.5,0|0|0,0:0|0:0|0:0,0:0:0:0:
396,172,156688,6,0,B|376:228|376:228|308:244|292:296,1,170,4|0,0:0|0:0,0:0:0:0:
116,172,157016,2,0,B|136:228|136:228|204:244|220:296,1,170,4|0,0:0|0:0,0:0:0:0:
256,380,157343,1,0,0:0:0:0:
344,352,157452,6,0,B|432:328|432:328|472:252,1,170,4|0,0:0|0:0,0:0:0:0:
376,260,157779,2,0,B|400:168|400:168|348:112,1,170,8|0,0:0|0:0,0:0:0:0:
272,60,158106,1,0,0:0:0:0:
184,28,158216,1,8,0:0:0:0:
92,52,158325,6,0,P|40:120|72:200,1,170
152,232,158652,1,8,0:0:0:0:
244,252,158761,1,0,0:0:0:0:
300,176,158870,2,0,L|212:156,2,85,0|0|8,0:0|0:0|0:0,0:0:0:0:
348,96,159197,6,0,P|400:172|372:244,1,170
300,176,159525,2,0,P|276:243|328:319,1,170,8|0,0:0|0:0,0:0:0:0:
420,340,159852,2,0,B|456:316|472:268|472:268,1,85,0|8,0:0|0:0,0:0:0:0:
480,180,160070,5,0,0:0:0:0:
472,88,160179,1,0,0:0:0:0:
408,20,160288,2,0,L|360:24,2,42.5,0|0|8,0:0|0:0|0:0,0:0:0:0:
348,96,160506,2,0,L|390:92,2,42.5
412,164,160725,2,0,L|369:167,2,42.5,0|0|8,0:0|0:0|0:0,0:0:0:0:
480,228,160943,6,0,B|352:240|352:240|320:272,1,170,0|0,0:0|0:0,0:0:0:0:
404,316,161270,2,0,B|374:345|374:345|246:357,1,170,8|0,0:0|0:0,0:0:0:0:
240,264,161597,2,0,L|148:276,1,85,0|8,0:0|0:0,0:0:0:0:
104,196,161816,2,0,P|192:184|248:120,1,170
196,48,162143,6,0,P|240:36|280:40,1,85,8|0,0:0|0:0,0:0:0:0:
332,116,162361,2,0,P|376:127|408:151,2,85,0|0|8,0:0|0:0|0:0,0:0:0:0:
308,204,162688,6,0,P|392:236|444:312,1,170,4|0,0:0|0:0,0:0:0:0:
348,328,163016,2,0,L|379:356,2,42.5,8|0|0,0:0|0:0|0:0,0:0:0:0:
256,348,163234,2,8,L|188:292,2,85
300,268,163561,6,0,P|244:204|292:136,1,170,4|0,0:0|0:0,0:0:0:0:
452,160,163888,2,0,B|412:172|412:172|368:172,1,85,8|0,0:0|0:0,0:0:0:0:
312,60,164106,2,8,B|352:72|352:72|396:72,2,85,0|0|0,0:0|0:0|0:0,0:0:0:0:
216,52,164434,6,0,P|128:88|112:156,1,170,4|0,0:0|0:0,0:0:0:0:
128,244,164761,1,8,0:0:0:0:
200,304,164870,1,0,0:0:0:0:
264,236,164979,6,0,L|312:196,2,42.5,0|0|0,0:0|0:0|0:0,0:0:0:0:
352,268,165197,2,0,L|392:256,2,42.5,8|0|0,0:0|0:0|0:0,0:0:0:0:
400,188,165416,6,0,L|454:171,2,56.6666666666667
376,132,165634,2,0,L|414:90,2,56.6666666666667,8|0|0,0:0|0:0|0:0,0:0:0:0:
336,84,165852,2,0,L|348:28,2,56.6666666666667,0|0|0,0:0|0:0|0:0,0:0:0:0:
276,68,166070,2,0,L|259:13,2,56.6666666666667,8|0|4,0:0|0:0|0:0,0:0:0:0:
216,88,166288,6,0,L|252:216,1,127.5
248,256,166506,6,0,L|248:344,2,56.6666666666667,8|0|0,0:0|0:0|0:0,0:0:0:0:
308,276,166724,2,0,L|340:340,2,56.6666666666667
368,256,166943,6,0,L|424:292,2,56.6666666666667,8|0|0,0:0|0:0|0:0,0:0:0:0:
408,208,167161,2,0,L|464:220,1,56.6666666666667
456,156,167325,6,0,L|512:20,1,127.5
440,32,167543,6,0,L|336:32,1,85,0|0,0:0|0:0,0:0:0:0:
260,116,167761,2,0,L|376:116,1,85
368,256,168034,5,0,0:0:0:0:
308,328,168143,1,0,0:0:0:0:
220,296,168252,2,0,B|176:288|140:320|140:320,1,85,8|0,0:0|0:0,0:0:0:0:
60,272,168471,2,0,P|44:320|56:356,2,85,0|0|8,0:0|0:0|0:0,0:0:0:0:
116,196,168797,6,0,P|168:120|152:48,1,170,4|0,0:0|0:0,0:0:0:0:
248,44,169125,1,8,0:0:0:0:
316,112,169234,1,0,0:0:0:0:
312,204,169343,2,0,P|272:216|248:252,2,85,0|0|8,0:0|0:0|0:0,0:0:0:0:
340,292,169670,6,0,P|428:268|480:208,1,170,4|0,0:0|0:0,0:0:0:0:
396,168,169997,2,0,P|428:128|428:96,1,85,8|0,0:0|0:0,0:0:0:0:
360,32,170216,1,0,0:0:0:0:
316,112,170325,2,0,P|244:160|152:164,1,170,0|4,0:0|0:0,0:0:0:0:
80,204,170652,6,0,P|120:240|164:248,1,85
240,268,170870,2,0,P|284:260|324:272,2,85,8|0|0,0:0|0:0|0:0,0:0:0:0:
280,352,171197,5,8,0:0:0:0:
296,348,171306,1,8,0:0:0:0:
312,344,171416,1,8,0:0:0:0:
328,340,171525,6,0,L|420:316,1,85,12|0,0:0|0:0,0:0:0:0:
184,44,171852,2,0,L|92:68,1,85,8|0,0:0|0:0,0:0:0:0:
404,120,172179,2,0,L|380:28,1,85,8|0,0:0|0:0,0:0:0:0:
108,264,172506,2,0,L|132:356,1,85,8|0,0:0|0:0,0:0:0:0:
276,260,172834,6,0,L|340:196,1,85,8|0,0:0|0:0,0:0:0:0:
236,124,173052,2,0,L|172:188,1,85,8|0,0:0|0:0,0:0:0:0:
92,176,173270,5,12,0:0:0:0:
175,184,173379,2,0,L|192:268,1,85
420,208,173597,1,8,0:0:0:0:
336,199,173706,2,0,L|320:116,1,85
404,136,173925,6,0,L|388:48,2,85,0|8|0,0:0|0:0|0:0,0:0:0:0:
108,248,174252,2,0,L|124:336,2,85,0|8|0,0:0|0:0|0:0,0:0:0:0:
188,272,174579,53,12,0:0:0:0:
220,93,174688,1,0,0:0:0:0:
360,210,174797,1,8,0:0:0:0:
256,196,175016,5,0,0:0:0:0:
256,196,175125,1,0,0:0:0:0:
256,196,175234,1,0,0:0:0:0:
320,372,175452,5,0,0:0:0:0:
404,340,175561,2,0,B|444:312|456:272|456:272,2,85
108,340,175997,6,0,B|64:320|56:272|56:272,1,85
32,88,176325,1,0,0:0:0:0:
184,196,176543,6,0,B|172:244|128:264|128:264,2,85
76,240,186579,5,8,0:0:0:0:
152,280,186688,1,8,0:0:0:0:
236,288,186797,2,0,B|276:268|320:268|320:268,2,85,0|0|8,0:0|0:0|0:0,0:0:0:0:
228,204,187125,2,0,P|320:188|400:200,1,170,4|0,0:0|0:0,0:0:0:0:
440,128,187452,2,0,B|396:112|368:80|368:80,1,85,8|0,0:0|0:0,0:0:0:0:
440,36,187670,2,0,B|484:52|512:84|512:84,2,85,0|0|8,0:0|0:0|0:0,0:0:0:0:
284,204,187997,6,0,P|192:188|112:200,1,170,4|0,0:0|0:0,0:0:0:0:
72,128,188325,2,0,B|116:112|144:80|144:80,1,85,8|0,0:0|0:0,0:0:0:0:
72,36,188543,2,0,B|28:52|0:84|0:84,2,85,0|0|8,0:0|0:0|0:0,0:0:0:0:
144,80,188870,6,0,P|228:100|312:84,1,170,4|0,0:0|0:0,0:0:0:0:
348,160,189197,2,0,L|332:248,1,85,8|0,0:0|0:0,0:0:0:0:
416,232,189416,2,0,L|408:280,2,42.5
164,160,189634,2,0,L|180:248,1,85,8|0,0:0|0:0,0:0:0:0:
96,232,189853,2,0,L|104:280,2,42.5
16,200,190070,6,0,L|40:372,1,170,8|0,0:0|0:0,0:0:0:0:
124,376,190397,1,0,0:0:0:0:
208,376,190506,1,8,0:0:0:0:
208,376,190616,6,0,L|292:344,1,85
396,316,190943,6,0,P|488:228|468:168,1,203.999993774414,12|0,0:0|0:0,0:0:0:0:
364,208,191270,2,0,P|356:152|376:112,1,101.999996887207,0|8,0:0|0:0,0:0:0:0:
268,76,191488,2,0,B|204:160|104:196|104:196,1,203.999993774414
128,84,191816,6,0,B|92:120|40:136|40:136,1,101.999996887207,8|0,0:0|0:0,0:0:0:0:
260,192,192034,2,0,B|304:168|332:116|332:116,2,101.999996887207,0|0|8,0:0|0:0|0:0,0:0:0:0:
164,252,192361,6,0,B|64:288|0:376|0:376,1,203.999993774414,4|0,0:0|0:0,0:0:0:0:
116,364,192688,2,0,B|148:328|204:312|204:312,1,101.999996887207,8|0,0:0|0:0,0:0:0:0:
312,332,192906,2,0,B|280:368|224:384|224:384,2,101.999996887207,0|0|8,0:0|0:0|0:0,0:0:0:0:
396,256,193234,6,0,B|464:176|472:64|472:64,1,203.999993774414
360,60,193561,2,0,B|312:84|256:76|256:76,1,101.999996887207,8|0,0:0|0:0,0:0:0:0:
232,184,193779,2,0,B|280:160|336:168|336:168,2,101.999996887207,0|0|8,0:0|0:0|0:0,0:0:0:0:
300,272,194106,6,0,P|188:288|128:220,1,203.999993774414,4|0,0:0|0:0,0:0:0:0:
64,140,194433,2,0,P|176:124|236:192,1,203.999993774414,8|0,0:0|0:0,0:0:0:0:
344,192,194761,1,0,0:0:0:0:
452,228,194870,2,0,B|428:280|428:280|392:312,1,101.999996887207,8|0,0:0|0:0,0:0:0:0:
304,376,195088,1,0,0:0:0:0:
192,360,195197,6,0,L|88:336,2,101.999996887207,0|8|0,0:0|0:0|0:0,0:0:0:0:
168,248,195525,2,0,L|56:216,2,101.999996887207,0|0|8,0:0|0:0|0:0,0:0:0:0:
128,144,195852,6,0,B|232:176|232:176|320:124,1,203.999993774414,4|0,0:0|0:0,0:0:0:0:
212,80,196179,2,0,L|304:28,1,101.999996887207,8|0,0:0|0:0,0:0:0:0:
404,76,196397,2,0,L|315:126,1,101.999996887207
268,228,196616,1,8,0:0:0:0:
156,232,196725,6,0,P|56:184|56:88,1,203.999993774414,4|0,0:0|0:0,0:0:0:0:
132,28,197052,2,0,P|176:56|196:100,1,101.999996887207,8|0,0:0|0:0,0:0:0:0:
304,132,197270,2,0,B|335:91|335:31|335:31,2,101.999996887207,0|0|8,0:0|0:0|0:0,0:0:0:0:
308,244,197597,6,0,P|380:160|408:72,1,203.999993774414,0|0,0:0|0:0,0:0:0:0:
304,132,197925,2,0,P|412:160|432:280,1,203.999993774414,8|0,0:0|0:0,0:0:0:0:
348,320,198252,2,0,P|288:324|248:304,1,101.999996887207,0|8,0:0|0:0,0:0:0:0:
240,184,198470,6,0,P|128:208|60:156,1,203.999993774414
28,276,198797,2,0,B|48:324|104:344|104:344,1,101.999996887207,8|0,0:0|0:0,0:0:0:0:
216,300,199016,2,0,P|164:276|120:276,2,101.999996887207,0|0|8,0:0|0:0|0:0,0:0:0:0:
320,360,199343,6,0,B|388:388|472:380|520:328,1,203.999993774414,4|0,0:0|0:0,0:0:0:0:
488,216,199670,2,0,B|420:188|336:196|288:248,1,203.999993774414,8|0,0:0|0:0,0:0:0:0:
220,320,199997,1,0,0:0:0:0:
124,380,200106,1,8,0:0:0:0:
44,300,200216,6,0,P|100:208|68:124,1,203.999993774414
172,164,200543,2,0,B|160:108|124:72|124:72,1,101.999996887207,8|0,0:0|0:0,0:0:0:0:
232,112,200761,2,0,B|220:64|180:24|180:24,2,101.999996887207,0|0|8,0:0|0:0|0:0,0:0:0:0:
344,128,201088,6,0,P|412:212|380:296,1,203.999993774414,4|0,0:0|0:0,0:0:0:0:
296,368,201416,2,0,L|196:320,1,101.999996887207,8|0,0:0|0:0,0:0:0:0:
212,228,201634,6,0,B|164:248|164:248|128:288,2,101.999996887207,0|0|8,0:0|0:0|0:0,0:0:0:0:
256,124,201961,2,0,L|256:20,1,101.999996887207
300,228,202179,2,0,B|348:248|348:248|384:288,2,101.999996887207,0|8|0,0:0|0:0|0:0,0:0:0:0:
164,156,202506,6,0,L|164:44,2,101.999996887207,0|0|8,0:0|0:0|0:0,0:0:0:0:
80,80,202834,2,0,B|80:216|80:216|28:272,1,203.999993774414,4|0,0:0|0:0,0:0:0:0:
100,356,203161,2,0,L|176:272,1,101.999996887207,8|0,0:0|0:0,0:0:0:0:
280,280,203379,1,0,0:0:0:0:
392,268,203488,2,0,P|476:196|480:104,1,203.999993774414
388,96,203816,6,0,B|344:64|292:60|292:60,1,101.999996887207
124,96,204034,2,0,B|168:64|220:60|220:60,1,101.999996887207
204,172,204252,5,8,0:0:0:0:
220,184,204361,1,8,0:0:0:0:
236,196,204470,1,8,0:0:0:0:
252,208,204579,6,0,P|336:268|440:264,1,203.999993774414,4|0,0:0|0:0,0:0:0:0:
384,168,204906,2,0,P|300:108|196:112,1,203.999993774414,8|0,0:0|0:0,0:0:0:0:
100,156,205234,1,0,0:0:0:0:
52,256,205343,1,8,0:0:0:0:
80,364,205452,6,0,B|176:316|280:332|280:332,1,203.999993774414
388,360,205779,2,0,B|404:304|392:256|392:256,1,101.999996887207,8|0,0:0|0:0,0:0:0:0:
324,172,205997,2,0,B|308:228|320:276|320:276,2,101.999996887207,0|0|8,0:0|0:0|0:0,0:0:0:0:
436,172,206325,6,0,P|396:80|296:56,1,203.999993774414,4|0,0:0|0:0,0:0:0:0:
220,128,206652,2,0,P|200:168|148:204,1,101.999996887207,8|0,0:0|0:0,0:0:0:0:
44,184,206871,2,0,P|64:144|116:108,2,101.999996887207,0|0|8,0:0|0:0|0:0,0:0:0:0:
96,284,207197,6,0,B|208:288|272:196|272:196,1,203.999993774414
268,308,207525,2,0,B|316:284|340:236|340:236,1,101.999996887207,8|0,0:0|0:0,0:0:0:0:
352,348,207743,2,0,B|396:312|412:264|412:264,2,101.999996887207,0|0|8,0:0|0:0|0:0,0:0:0:0:
464,336,208070,6,0,B|516:216|488:140|488:140,1,203.999993774414,4|0,0:0|0:0,0:0:0:0:
400,64,208397,2,0,P|372:108|384:164,1,101.999996887207,8|0,0:0|0:0,0:0:0:0:
292,228,208616,2,0,B|240:240|188:208|188:208,1,101.999996887207
88,168,208834,6,0,L|104:268,2,101.999996887207,8|0|0,0:0|0:0|0:0,0:0:0:0:
8,244,209161,2,0,L|24:344,2,101.999996887207,0|8|0,0:0|0:0|0:0,0:0:0:0:
12,132,209488,1,0,0:0:0:0:
116,88,209597,2,0,B|168:88|168:88|228:112,1,101.999996887207,0|8,0:0|0:0,0:0:0:0:
316,156,209816,6,0,B|416:192|416:192|484:272,1,203.999993774414,4|0,0:0|0:0,0:0:0:0:
436,368,210143,2,0,L|368:288,1,101.999996887207,8|0,0:0|0:0,0:0:0:0:
276,232,210361,2,0,B|224:204|224:204|208:160,2,101.999996887207,0|0|8,0:0|0:0|0:0,0:0:0:0:
208,320,210688,2,0,B|136:272|136:272|100:152,1,203.999993774414,4|0,0:0|0:0,0:0:0:0:
72,52,211016,6,0,L|184:76,1,101.999996887207,8|0,0:0|0:0,0:0:0:0:
280,44,211234,2,8,L|379:65,2,101.999996887207
348,136,211561,6,0,P|336:236|252:284,1,203.999993774414,4|0,0:0|0:0,0:0:0:0:
164,216,211888,2,0,P|132:316|200:384,1,203.999993774414,8|0,0:0|0:0,0:0:0:0:
298,370,212216,2,0,B|348:344|400:352|400:352,1,101.999996887207,0|8,0:0|0:0,0:0:0:0:
492,288,212434,6,0,P|440:200|444:100,1,203.999993774414
352,36,212761,2,0,P|360:88|348:140,1,101.999996887207,8|0,0:0|0:0,0:0:0:0:
252,192,212979,2,0,P|244:140|256:88,2,101.999996887207,0|0|8,0:0|0:0|0:0,0:0:0:0:
256,304,213306,6,0,B|143:296|64:384|64:384,1,203.999993774414,4|0,0:0|0:0,0:0:0:0:
92,264,213634,2,0,B|37:287|9:333|9:333,1,101.999996887207,8|0,0:0|0:0,0:0:0:0:
24,216,213852,2,0,B|112:160|152:60|152:60,1,203.999993774414,0|8,0:0|0:0,0:0:0:0:
256,304,214179,6,0,B|368:296|448:384|448:384,1,203.999993774414,0|0,0:0|0:0,0:0:0:0:
420,264,214507,2,0,B|474:287|502:333|502:333,1,101.999996887207,8|0,0:0|0:0,0:0:0:0:
488,216,214725,2,0,B|400:160|360:60|360:60,1,203.999993774414,0|8,0:0|0:0,0:0:0:0:
256,192,215052,12,0,216252,0:0:0:0:
76,292,216470,6,0,L|156:256,1,85,8|8,0:0|0:0,0:0:0:0:
240,224,216688,1,8,0:0:0:0:
188,148,216797,2,0,B|84:192|84:192|20:176,1,170,4|0,0:0|0:0,0:0:0:0:
84,104,217125,6,0,L|172:68,1,85,8|0,0:0|0:0,0:0:0:0:
256,72,217343,2,0,L|348:80,1,85
384,164,217561,2,0,L|299:156,1,85,8|0,0:0|0:0,0:0:0:0:
240,224,217779,5,8,0:0:0:0:
268,312,217888,2,0,L|348:352,2,85,0|8|0,0:0|0:0|0:0,0:0:0:0:
436,292,218216,6,0,L|356:256,1,85,8|8,0:0|0:0,0:0:0:0:
272,224,218434,1,8,0:0:0:0:
324,148,218543,2,0,B|428:192|428:192|492:176,1,170,4|0,0:0|0:0,0:0:0:0:
428,104,218870,6,0,L|348:72,1,85,8|0,0:0|0:0,0:0:0:0:
256,72,219088,2,0,L|164:80,1,85
128,164,219306,2,0,L|212:156,1,85,8|0,0:0|0:0,0:0:0:0:
308,148,219525,5,8,0:0:0:0:
208,284,219743,1,8,0:0:0:0:
364,336,219961,6,0,L|440:284,1,85,8|8,0:0|0:0,0:0:0:0:
512,236,220179,1,8,0:0:0:0:
464,156,220288,2,0,B|364:224|364:224|316:216,1,170,4|0,0:0|0:0,0:0:0:0:
352,128,220616,6,0,L|432:80,1,85,8|0,0:0|0:0,0:0:0:0:
340,44,220834,2,0,L|264:92,1,85
196,32,221052,2,0,L|164:120,1,85,8|0,0:0|0:0,0:0:0:0:
144,204,221270,5,8,0:0:0:0:
322,282,221488,1,8,0:0:0:0:
301,89,221706,1,8,0:0:0:0:
256,192,222034,6,0,P|344:172|420:212,1,170,4|0,0:0|0:0,0:0:0:0:
500,244,222361,2,0,P|472:284|436:300,1,85,8|0,0:0|0:0,0:0:0:0:
352,328,222579,1,0,0:0:0:0:
260,312,222688,2,0,B|220:296|220:296|156:292,1,85,0|8,0:0|0:0,0:0:0:0:
136,376,222906,2,0,P|88:308|116:220,1,170
168,156,223234,6,0,L|256:120,1,85,8|0,0:0|0:0,0:0:0:0:
382,163,223452,2,0,L|304:196,2,85,0|0|8,0:0|0:0|0:0,0:0:0:0:
472,140,223779,6,0,B|472:204|472:204|368:248,1,170,4|0,0:0|0:0,0:0:0:0:
440,312,224106,2,0,L|348:348,1,85,8|0,0:0|0:0,0:0:0:0:
268,340,224325,6,0,L|184:312,1,85,0|0,0:0|0:0,0:0:0:0:
160,188,224543,2,0,L|240:214,1,85,8|0,0:0|0:0,0:0:0:0:
332,240,224761,5,0,0:0:0:0:
300,152,224870,2,0,L|260:136,2,42.5,0|0|8,0:0|0:0|0:0,0:0:0:0:
120,256,225088,2,0,L|160:272,2,42.5,0|0|0,0:0|0:0|0:0,0:0:0:0:
52,320,225306,2,0,L|148:360,1,85,0|8,0:0|0:0,0:0:0:0:
224,352,225525,6,0,P|312:344|384:292,1,170,4|0,0:0|0:0,0:0:0:0:
296,252,225852,2,0,P|336:224|380:212,1,85,8|0,0:0|0:0,0:0:0:0:
456,176,226070,2,0,P|480:136|484:92,2,85,0|0|8,0:0|0:0|0:0,0:0:0:0:
388,112,226397,6,0,B|300:120|220:72|220:72,1,170
148,128,226725,2,0,B|160:168|160:168|160:220,1,85,8|0,0:0|0:0,0:0:0:0:
84,323,226943,2,0,B|72:283|72:283|72:240,2,85,0|0|8,0:0|0:0|0:0,0:0:0:0:
176,332,227270,6,0,B|268:316|328:256|328:256,1,170
368,340,227597,2,0,B|412:316|424:264|424:264,1,85,8|0,0:0|0:0,0:0:0:0:
376,192,227816,2,0,B|372:203|384:151|428:127,2,85,0|0|8,0:0|0:0|0:0,0:0:0:0:
328,112,228143,6,0,L|296:80,2,42.5,4|0|0,0:0|0:0|0:0,0:0:0:0:
184,112,228360,2,0,L|216:80,2,42.5,0|0|8,0:0|0:0|0:0,0:0:0:0:
256,272,228689,53,8,0:0:0:0:
256,288,228798,1,8,0:0:0:0:
256,304,228906,1,8,0:0:0:0:
256,320,229016,6,0,B|340:360|340:360|428:356,1,170,4|0,0:0|0:0,0:0:0:0:
468,280,229343,2,0,L|384:284,1,85,8|0,0:0|0:0,0:0:0:0:
428,204,229561,2,0,L|340:176,2,85,0|0|8,0:0|0:0|0:0,0:0:0:0:
464,116,229888,2,0,B|340:84|340:84|296:104,1,170
236,32,230216,6,0,L|152:80,1,85,8|0,0:0|0:0,0:0:0:0:
122,202,230434,2,0,L|196:160,2,85,0|0|8,0:0|0:0|0:0,0:0:0:0:
160,288,230761,6,0,P|232:240|320:232,1,170,4|0,0:0|0:0,0:0:0:0:
264,312,231088,2,0,B|304:296|352:316|352:316,1,85,8|0,0:0|0:0,0:0:0:0:
408,244,231306,2,0,B|403:242|451:262|491:246,2,85,0|0|8,0:0|0:0|0:0,0:0:0:0:
364,160,231634,1,0,0:0:0:0:
280,116,231743,6,0,L|236:104,2,42.5
174,172,231961,2,0,L|216:184,2,42.5,8|0|0,0:0|0:0|0:0,0:0:0:0:
108,240,232179,2,0,L|192:268,2,85,0|0|8,0:0|0:0|0:0,0:0:0:0:
92,332,232506,6,0,B|180:360|180:360|268:360,1,170,4|0,0:0|0:0,0:0:0:0:
268,268,232834,2,0,L|360:268,1,85,8|0,0:0|0:0,0:0:0:0:
444,252,233052,2,0,B|428:212|428:212|392:184,2,85,0|0|8,0:0|0:0|0:0,0:0:0:0:
496,328,233379,6,0,P|408:324|352:268,1,170
320,180,233706,2,0,L|292:96,1,85,8|0,0:0|0:0,0:0:0:0:
177,43,233925,2,0,L|204:124,2,85,0|0|8,0:0|0:0|0:0,0:0:0:0:
104,104,234252,6,0,B|140:188|140:188|140:268,1,170,4|0,0:0|0:0,0:0:0:0:
196,340,234579,2,0,L|256:280,1,85,8|0,0:0|0:0,0:0:0:0:
256,188,234797,2,0,L|256:104,2,85,0|0|8,0:0|0:0|0:0,0:0:0:0:
408,104,235125,6,0,B|372:188|372:188|372:268,1,170
296,216,235452,2,0,L|296:304,1,85,8|0,0:0|0:0,0:0:0:0:
216,252,235670,2,0,L|216:352,2,85,0|0|8,0:0|0:0|0:0,0:0:0:0:
148,220,235997,6,0,P|148:88|208:44,1,204,4|0,0:0|0:0,0:0:0:0:
340,16,236542,1,0,0:0:0:0:
372,164,236761,1,0,0:0:0:0:
228,196,236979,1,0,0:0:0:0:
196,48,237197,1,0,0:0:0:0:
340,92,237416,6,8,L|428:92,2,68
264,96,237743,53,12,0:0:0:0:
128,276,238070,1,12,0:0:0:0:
352,252,238397,1,12,0:0:0:0:
264,224,238506,6,0,L|180:192,1,85,8|0,0:0|0:0,0:0:0:0:
168,100,238725,2,0,L|216:120,2,42.5,0|0|0,0:0|0:0|0:0,0:0:0:0:
84,60,238943,5,8,0:0:0:0:
84,76,239053,1,8,0:0:0:0:
84,92,239162,1,8,0:0:0:0:
84,108,239270,6,0,B|84:184|136:216|192:244|192:340,1,255
256,192,239707,12,0,252688,0:0:0:0:
