osu file format v14

[General]
AudioFilename: Gumi - Kanzen Chouaku Lolita Complax.mp3
AudioLeadIn: 1500
PreviewTime: 66143
Countdown: 0
SampleSet: Normal
StackLeniency: 0.4
Mode: 0
LetterboxInBreaks: 1
WidescreenStoryboard: 0

[Editor]
Bookmarks: 6141,24907,45852,66797,80761,98161,119161,147088,157561,176761,222143,239706
DistanceSpacing: 0.8
BeatDivisor: 4
GridSize: 8
TimelineZoom: 1

[Metadata]
Title:Kanzen Chouaku Lolita Complex
TitleUnicode:完全懲悪ロリィタコンプレックス
Artist:Kairiki bear feat. GUMI
ArtistUnicode:かいりきベア feat. GUMI
Creator:Star Stream
Version:Mixagji's Hard
Source:
Tags:Rock Japanese FARM Records FARM-0292 VOCAROCK collection 4 feat. 初音ミク アイスクリーム 何か、妖怪? Nani ka, youkai? The Voc@loid M@ster 21 EXIT TUNES QWCE-00440 IMITATION GALLERY イミテーシヨンギャラリー J-Rock JRock HelloSCV mixagji winber1 kaburagi kotetsu megpoid gumi メグッポイド グミ
BeatmapID:259354
BeatmapSetID:65476

[Difficulty]
HPDrainRate:5
CircleSize:4
OverallDifficulty:5
ApproachRate:8
SliderMultiplier:1.3
SliderTickRate:1

[Events]
//Background and Video events
0,0,"BG.jpg",0,0
//Break Periods
2,42561,45102
2,176961,185829
//Storyboard Layer 0 (Background)
//Storyboard Layer 1 (Fail)
//Storyboard Layer 2 (Pass)
//Storyboard Layer 3 (Foreground)
//Storyboard Layer 4 (Overlay)
//Storyboard Sound Samples

[TimingPoints]
469,218.181818181818,4,1,1,70,1,0
687,-100,4,1,1,5,0,0
6141,-100,4,1,1,60,0,0
7341,-100,4,1,1,60,0,0
21305,-133.333333333333,4,1,1,60,0,0
21687,-100,4,1,1,60,0,0
22832,-100,4,1,1,50,0,0
22941,-100,4,1,1,40,0,0
23050,-133.333333333333,4,1,1,30,0,0
23596,-100,4,1,1,50,0,0
23650,-100,4,1,1,40,0,0
23759,-100,4,1,1,30,0,0
23868,-100,4,1,1,20,0,0
24032,-100,4,1,1,60,0,0
24359,-100,4,1,1,60,0,0
24907,218.181818181818,4,1,1,50,1,0
24907,-100,4,1,1,50,0,0
38870,-100,4,1,1,50,0,0
45852,-133.333333333333,4,1,1,50,0,0
57961,-100,4,1,1,50,0,0
59707,-100,4,1,1,80,0,1
59761,-100,4,1,1,80,0,0
66688,-100,4,1,1,80,0,1
66906,-100,4,1,1,80,0,1
78906,-100,4,1,1,80,0,1
79234,-100,4,1,1,80,0,1
79888,-100,4,1,1,80,0,0
80652,-100,4,1,1,80,0,1
80761,-100,4,1,1,80,0,0
94616,-133.333333333333,4,1,1,50,0,0
97779,-100,4,1,1,5,0,0
97888,-100,4,1,1,50,0,0
105197,-100,4,1,1,50,0,0
112070,-100,4,1,1,50,0,1
112125,-100,4,1,1,50,0,0
119052,-100,4,1,1,80,0,1
119379,-100,4,1,1,80,0,1
120252,-100,4,1,1,80,0,1
120797,-100,4,1,1,80,0,1
121997,-100,4,1,1,80,0,1
122543,-100,4,1,1,80,0,1
125488,-100,4,1,1,80,0,1
126034,-100,4,1,1,80,0,1
127234,-100,4,1,1,80,0,1
127779,-100,4,1,1,80,0,1
128979,-100,4,1,1,80,0,1
129525,-100,4,1,1,80,0,1
132470,-100,4,1,1,80,0,1
132688,-100,4,1,1,80,0,0
133016,-100,4,1,1,80,0,1
134216,-100,4,1,1,80,0,1
134761,-100,4,1,1,80,0,1
139452,-100,4,1,1,80,0,1
139997,-100,4,1,1,80,0,1
141197,-100,4,1,1,80,0,1
141743,-100,4,1,1,80,0,1
145779,-100,4,1,1,80,0,1
146216,-100,4,1,1,80,0,1
146979,-133.333333333333,4,1,1,80,0,0
147634,-133.333333333333,4,1,1,80,0,0
156688,-100,4,1,1,80,0,0
157016,-100,4,1,1,80,0,0
157452,-100,4,1,1,80,0,0
164979,-100,4,1,1,80,0,0
166288,-100,4,1,1,80,0,0
170870,-100,4,1,1,80,0,0
171088,-100,4,1,1,80,0,0
174579,-100,4,1,1,80,0,0
175016,-100,4,2,0,60,0,0
186579,-100,4,1,1,60,0,0
190616,-100,4,2,0,60,0,0
190943,-100,4,1,1,80,0,1
204252,-100,4,1,1,80,0,0
204579,-100,4,1,1,80,0,1
213306,-100,4,1,1,80,0,1
213634,-100,4,1,1,80,0,1
214179,-100,4,1,1,80,0,1
214506,-100,4,1,1,80,0,1
216797,-100,4,1,1,80,0,1
217125,-100,4,1,1,80,0,1
218543,-100,4,1,1,80,0,1
218870,-100,4,1,1,80,0,1
220179,-100,4,1,1,80,0,1
220616,-100,4,1,1,80,0,1
221706,-100,4,1,1,80,0,1
222034,-100,4,1,1,80,0,0

[Colours]
Combo1 : 116,139,156
Combo2 : 140,218,54
Combo3 : 205,20,24
Combo4 : 203,176,69
Combo5 : 50,94,197
Combo6 : 255,255,255
Combo7 : 85,80,146

[HitObjects]
116,92,7341,6,0,B|172:132|224:92|224:92|296:132,1,195,4|8,0:0|0:0,0:0:0:0:
320,232,7887,2,0,P|312:296|260:333,1,130,0|8,0:0|0:0,0:0:0:0:
211,344,8214,1,0,0:0:0:0:
64,291,8541,5,0,0:0:0:0:
48,188,8759,2,0,P|96:136|168:140,1,130,0|8,0:0|0:0,0:0:0:0:
184,176,9087,1,0,0:0:0:0:
248,320,9414,5,0,0:0:0:0:
304,232,9632,2,0,P|342:233|367:249,1,65
388,292,9850,2,0,P|419:308|448:303,1,65,8|0,0:0|0:0,0:0:0:0:
468,256,10068,2,0,B|469:205|433:181|433:181|434:132,1,130,4|8,0:0|0:0,0:0:0:0:
338,87,10505,2,0,B|332:157|332:157|298:145|257:165,1,130,0|8,0:0|0:0,0:0:0:0:
226,179,10832,6,0,B|210:233|248:275|248:275|296:280,1,130,4|8,0:0|0:0,0:0:0:0:
326,281,11159,1,0,0:0:0:0:
420,320,11378,2,0,L|287:356,1,130,0|8,0:0|0:0,0:0:0:0:
244,352,11705,1,0,0:0:0:0:
104,284,12032,5,8,0:0:0:0:
129,89,12250,2,0,L|133:154,2,65
129,89,12578,2,0,P|186:54|252:58,1,130,4|0,0:0|0:0,0:0:0:0:
277,98,12905,1,8,0:0:0:0:
308,197,13123,6,0,P|319:230|345:248,1,65
392,240,13341,1,0,0:0:0:0:
440,220,13450,2,0,B|420:176|420:176|448:144|444:96,1,130
408,60,13778,1,8,0:0:0:0:
277,98,13996,2,0,L|340:112,2,65
277,98,14323,6,0,B|231:111|206:162|206:162|108:145,1,195,4|8,0:0|0:0,0:0:0:0:
123,42,14868,2,0,P|167:94|164:158,1,130,0|8,0:0|0:0,0:0:0:0:
142,199,15196,1,0,0:0:0:0:
62,333,15523,5,8,0:0:0:0:
163,312,15741,2,0,P|236:300|295:322,1,130,0|8,0:0|0:0,0:0:0:0:
329,348,16068,2,0,P|390:324|413:266,1,130
399,216,16396,1,8,0:0:0:0:
295,211,16614,6,0,L|227:211,1,65
206,163,16832,1,8,0:0:0:0:
181,117,16941,2,0,P|246:105|314:118,1,130
344,153,17268,1,8,0:0:0:0:
361,255,17487,6,0,L|326:320,1,65
282,333,17705,1,0,0:0:0:0:
282,333,17814,2,0,P|240:280|178:277,1,130,4|0,0:0|0:0,0:0:0:0:
135,300,18141,1,8,0:0:0:0:
282,333,18359,6,0,L|280:187,1,130,0|8,0:0|0:0,0:0:0:0:
277,150,18687,2,0,B|212:140|212:140|172:200|96:176,1,195,0|8,0:0|0:0,0:0:0:0:
60,80,19232,2,0,L|29:21,2,65
60,80,19559,6,0,P|90:135|66:198,1,130,4|0,0:0|0:0,0:0:0:0:
43,240,19887,1,8,0:0:0:0:
145,256,20105,2,0,P|182:273|196:298,1,65
234,260,20323,1,8,0:0:0:0:
234,260,20432,2,0,B|241:312|205:355|154:362,1,130
117,347,20759,1,8,0:0:0:0:
70,253,20978,5,0,0:0:0:0:
61,201,21087,1,0,0:0:0:0:
95,162,21196,1,0,0:0:0:0:
146,152,21305,2,0,B|193:181|250:163|272:105,1,146.250005578995,4|0,0:0|0:0,0:0:0:0:
188,74,21850,5,8,0:0:0:0:
324,310,22068,1,0,0:0:0:0:
128,145,22287,1,0,0:0:0:0:
383,238,22505,1,8,0:0:0:0:
280,264,22723,1,8,0:0:0:0:
231,246,22832,1,0,0:0:0:0:
226,194,22941,1,0,0:0:0:0:
244,159,23050,2,0,P|304:115|392:111,1,146.250005578995
460,219,23596,6,0,L|452:289,1,65
403,266,23814,2,0,L|394:332,1,65
354,297,24032,2,0,L|229:352,1,130,8|0,0:0|0:0,0:0:0:0:
185,335,24359,1,0,0:0:0:0:
104,88,24907,6,0,L|152:212,1,130,4|8,0:0|0:0,0:0:0:0:
240,156,25343,2,0,L|192:28,1,130,0|8,0:0|0:0,0:0:0:0:
194,34,25670,1,0,0:0:0:0:
296,44,25888,1,0,0:0:0:0:
296,44,25997,2,0,L|344:168,1,130,8|0,0:0|0:0,0:0:0:0:
428,228,26434,1,0,0:0:0:0:
428,228,26543,6,0,L|384:288,1,65,8|0,0:0|0:0,0:0:0:0:
304,340,26870,1,0,0:0:0:0:
220,280,27088,2,0,P|182:231|192:160,1,130,8|0,0:0|0:0,0:0:0:0:
233,139,27416,1,0,0:0:0:0:
258,239,27634,1,0,0:0:0:0:
220,280,27743,2,0,P|152:299|97:267,2,130,8|0|8,0:0|0:0|0:0,0:0:0:0:
284,198,28397,5,8,0:0:0:0:
312,154,28506,1,0,0:0:0:0:
361,137,28616,1,8,0:0:0:0:
304,49,28834,2,0,P|238:61|178:37,1,130,0|8,0:0|0:0,0:0:0:0:
129,43,29161,2,0,P|81:83|68:149,1,130,8|0,0:0|0:0,0:0:0:0:
94,191,29488,1,8,0:0:0:0:
194,164,29706,6,0,P|218:133|219:107,1,65,0|8,0:0|0:0,0:0:0:0:
269,122,29925,2,0,P|272:89|262:59,1,65
210,53,30143,2,0,L|255:185,1,130,8|0,0:0|0:0,0:0:0:0:
335,238,30579,1,8,0:0:0:0:
187,289,30797,1,0,0:0:0:0:
146,137,31016,1,8,0:0:0:0:
295,93,31234,1,0,0:0:0:0:
335,238,31452,6,0,L|269:199,1,65
271,256,31670,2,0,L|205:219,1,65
213,302,31888,6,0,L|173:357,2,65,0|0|8,0:0|0:0|0:0,0:0:0:0:
86,210,32325,2,0,L|37:161,2,65,0|0|8,0:0|0:0|0:0,0:0:0:0:
199,103,32761,2,0,L|240:44,1,65
199,103,32979,2,0,L|164:235,1,130,8|8,0:0|0:0,0:0:0:0:
215,320,33416,1,0,0:0:0:0:
317,304,33634,5,8,0:0:0:0:
424,190,33852,1,0,0:0:0:0:
271,157,34070,1,8,0:0:0:0:
317,304,34288,1,0,0:0:0:0:
424,190,34506,2,0,L|406:127,1,65,8|0,0:0|0:0,0:0:0:0:
390,77,34725,2,0,B|337:64|301:85|301:85|260:66,1,130,8|0,0:0|0:0,0:0:0:0:
169,30,35161,1,0,0:0:0:0:
266,68,35379,6,0,L|269:139,2,65,0|0|8,0:0|0:0|0:0,0:0:0:0:
367,150,35816,2,0,L|326:202,1,65,0|8,0:0|0:0,0:0:0:0:
344,249,36034,2,0,L|266:268,1,65,8|8,0:0|0:0,0:0:0:0:
254,308,36252,2,0,L|188:270,1,65,0|8,0:0|0:0,0:0:0:0:
145,272,36470,2,0,L|142:207,1,65
108,167,36688,6,0,L|147:109,4,65,8|0|8|0|8,0:0|0:0|0:0|0:0|0:0,0:0:0:0:
61,287,37343,1,8,0:0:0:0:
108,167,37561,2,0,P|162:146|233:160,1,130
231,159,37888,6,0,P|294:179|373:147,1,130,2|0,0:0|0:0,0:0:0:0:
390,125,38216,1,8,0:0:0:0:
294,84,38434,1,0,0:0:0:0:
218,300,38652,1,0,0:0:0:0:
256,192,38870,1,4,0:0:0:0:
256,192,38925,12,0,42361,0:0:0:0:
352,144,45852,6,0,P|288:168|207:143,1,146.250005578995,2|0,0:0|0:0,0:0:0:0:
192,116,46288,1,2,0:0:0:0:
94,108,46506,1,2,0:0:0:0:
160,36,46725,2,0,P|185:111|161:183,1,146.250005578995,2|0,0:0|0:0,0:0:0:0:
126,200,47161,2,0,L|28:233,1,97.50000371933,2|0,0:0|0:0,0:0:0:0:
94,108,47597,2,0,B|168:97|168:97|222:136|227:207,2,195.00000743866,2|2|2,0:0|0:0|0:0,0:0:0:0:
142,297,48906,6,0,P|177:333|232:334,1,97.50000371933
220,239,49343,2,0,P|151:204|81:231,1,146.250005578995,2|0,0:0|0:0,0:0:0:0:
61,264,49779,1,2,0:0:0:0:
220,239,49997,1,2,0:0:0:0:
173,152,50216,2,0,P|190:68|295:38,1,195.00000743866,2|2,0:0|0:0,0:0:0:0:
466,104,51088,6,0,P|449:188|344:218,1,195.00000743866,2|0,0:0|0:0,0:0:0:0:
268,172,51743,2,0,L|219:144,2,48.750001859665,2|0|2,0:0|0:0|0:0,0:0:0:0:
466,104,52397,1,0,0:0:0:0:
466,104,52616,1,0,0:0:0:0:
377,145,52834,6,0,P|330:201|343:273,1,146.250005578995,2|0,0:0|0:0,0:0:0:0:
389,268,53270,2,0,P|438:214|426:137,1,146.250005578995,2|0,0:0|0:0,0:0:0:0:
377,145,53706,2,0,L|184:204,1,195.00000743866,2|2,0:0|0:0,0:0:0:0:
101,161,54361,1,0,0:0:0:0:
122,256,54579,2,0,B|169:307|234:277|234:277|296:329,2,195.00000743866,2|2|2,0:0|0:0|0:0,0:0:0:0:
90,63,55888,6,0,P|125:98|133:147,1,97.50000371933
188,224,56325,2,0,P|271:198|288:98,2,195.00000743866
381,200,57634,1,0,0:0:0:0:
381,200,57961,6,0,P|378:273|335:313,1,130,4|0,0:0|0:0,0:0:0:0:
289,324,58288,1,8,0:0:0:0:
204,262,58506,1,0,0:0:0:0:
243,165,58725,1,8,0:0:0:0:
243,113,58834,2,0,P|173:59|83:104,1,195,0|8,0:0|0:0,0:0:0:0:
66,202,59379,6,0,P|66:268|109:317,1,130
157,320,59706,2,0,B|212:309|212:309|239:314|239:314|299:303,1,130,4|0,0:0|0:0,0:0:0:0:
335,292,60034,1,8,0:0:0:0:
379,198,60252,2,0,P|360:135|386:69,1,130,0|8,0:0|0:0,0:0:0:0:
429,58,60579,2,0,P|361:77|297:61,1,130
257,41,60906,1,8,0:0:0:0:
154,59,61125,1,0,0:0:0:0:
94,144,61343,5,0,0:0:0:0:
94,144,61452,2,0,P|150:166|217:143,1,130,4|0,0:0|0:0,0:0:0:0:
186,101,61779,1,8,0:0:0:0:
148,252,61997,1,0,0:0:0:0:
299,289,62216,1,8,0:0:0:0:
299,289,62325,2,0,P|304:220|269:161,1,130
224,176,62652,2,0,L|96:222,1,130,8|0,0:0|0:0,0:0:0:0:
97,323,63088,5,0,0:0:0:0:
97,323,63197,2,0,B|135:352|178:337|178:337|223:356,1,130,4|0,0:0|0:0,0:0:0:0:
218,354,63525,1,0,0:0:0:0:
299,289,63743,1,0,0:0:0:0:
402,281,63961,1,8,0:0:0:0:
419,232,64070,2,0,P|438:163|420:105,1,130
373,89,64397,1,8,0:0:0:0:
292,155,64616,6,0,P|226:186|166:181,1,130,0|8,0:0|0:0,0:0:0:0:
126,154,64943,1,4,0:0:0:0:
256,192,65052,12,2,65816,0:0:0:0:
261,83,66688,6,0,L|231:222,1,130,6|0,0:0|0:0,0:0:0:0:
221,261,67016,1,8,0:0:0:0:
287,340,67234,2,0,P|308:315|315:280,1,65,2|0,0:0|0:0,0:0:0:0:
362,191,67561,2,0,P|420:225|413:296,1,130,2|2,0:0|0:0,0:0:0:0:
385,319,67888,2,0,L|252:346,1,130,8|2,0:0|0:0,0:0:0:0:
153,339,68325,1,0,0:0:0:0:
116,301,68434,6,0,P|88:240|108:182,1,130,6|2,0:0|0:0,0:0:0:0:
148,151,68761,1,8,0:0:0:0:
239,200,68979,2,0,P|277:210|308:202,1,65,2|0,0:0|0:0,0:0:0:0:
347,111,69306,2,0,P|414:129|441:195,1,130,2|0,0:0|0:0,0:0:0:0:
389,188,69634,2,0,P|355:243|369:307,1,130,10|2,0:0|0:0,0:0:0:0:
462,262,70070,1,8,0:0:0:0:
462,262,70179,6,0,B|441:216|441:216|412:203|412:203|381:158,1,130,6|2,0:0|0:0,0:0:0:0:
355,120,70506,1,8,0:0:0:0:
250,127,70725,2,0,P|209:142|178:142,1,65,2|0,0:0|0:0,0:0:0:0:
120,64,71052,2,0,P|62:94|52:161,1,130,2|2,0:0|0:0,0:0:0:0:
69,201,71379,1,8,0:0:0:0:
164,242,71597,6,0,P|182:274|184:306,1,65,2|0,0:0|0:0,0:0:0:0:
83,326,71925,2,0,P|146:305|212:338,1,130,6|2,0:0|0:0,0:0:0:0:
250,348,72252,2,0,P|286:335|306:305,1,65,0|2,0:0|0:0,0:0:0:0:
288,264,72470,2,0,L|252:205,1,65,0|2,0:0|0:0,0:0:0:0:
258,104,72797,2,0,P|317:140|381:126,1,130,6|0,0:0|0:0,0:0:0:0:
382,78,73125,6,0,P|438:121|444:180,1,130,8|2,0:0|0:0,0:0:0:0:
430,226,73452,1,0,0:0:0:0:
331,194,73670,6,0,P|266:188|212:232,1,130,6|0,0:0|0:0,0:0:0:0:
165,214,73997,2,0,P|130:262|152:337,1,130,8|2,0:0|0:0,0:0:0:0:
194,338,74325,1,0,0:0:0:0:
273,270,74543,2,0,P|341:252|402:279,1,130,2|2,0:0|0:0,0:0:0:0:
422,316,74870,1,8,0:0:0:0:
325,354,75088,1,2,0:0:0:0:
234,195,75306,1,8,0:0:0:0:
234,195,75416,6,0,B|170:181|170:181|53:244,1,195,6|8,0:0|0:0,0:0:0:0:
104,334,75961,1,0,0:0:0:0:
104,334,76070,2,0,P|176:327|200:276,1,130,2|0,0:0|0:0,0:0:0:0:
167,240,76397,2,0,P|136:182|158:125,2,130,2|2|2,0:0|0:0|0:0,0:0:0:0:
250,177,77052,1,8,0:0:0:0:
301,186,77161,6,0,P|351:228|357:297,1,130,6|2,0:0|0:0,0:0:0:0:
327,330,77488,1,8,0:0:0:0:
225,308,77706,2,0,P|246:280|282:265,1,65,2|0,0:0|0:0,0:0:0:0:
370,232,78034,2,0,P|389:168|353:115,1,130,2|2,0:0|0:0,0:0:0:0:
309,96,78361,1,8,0:0:0:0:
207,119,78579,6,0,P|169:129|141:125,1,65,2|0,0:0|0:0,0:0:0:0:
63,59,78906,2,0,P|111:102|118:176,1,130,6|2,0:0|0:0,0:0:0:0:
90,206,79234,2,0,L|47:256,1,65,8|2,0:0|0:0,0:0:0:0:
69,302,79452,2,0,L|134:281,1,65,2|0,0:0|0:0,0:0:0:0:
175,308,79670,2,0,L|132:371,1,65,8|2,0:0|0:0,0:0:0:0:
70,259,80652,6,0,B|59:195|59:195|136:188|156:115,1,195,4|8,0:0|0:0,0:0:0:0:
185,219,81197,2,0,P|217:232|247:228,1,65
240,96,81525,2,0,P|290:42|351:39,1,130
371,80,81852,1,8,0:0:0:0:
448,156,82070,6,0,P|432:189|400:203,2,65,0|0|8,0:0|0:0|0:0,0:0:0:0:
448,156,82397,2,0,P|463:226|435:282,1,130,4|0,0:0|0:0,0:0:0:0:
396,306,82725,1,8,0:0:0:0:
296,275,82943,2,0,P|231:279|180:326,1,130,0|8,0:0|0:0,0:0:0:0:
131,319,83270,2,0,B|76:282|76:282|68:216,1,130
106,183,83597,1,8,0:0:0:0:
187,81,83816,2,0,L|114:54,2,65
187,81,84143,6,0,P|231:124|238:192,1,130,4|0,0:0|0:0,0:0:0:0:
210,233,84470,1,8,0:0:0:0:
313,233,84688,2,0,P|347:227|372:204,1,65
326,112,85016,2,0,P|362:170|424:189,1,130
463,164,85343,1,8,0:0:0:0:
420,287,85561,2,0,P|455:284|478:266,2,65,0|0|8,0:0|0:0|0:0,0:0:0:0:
420,287,85888,6,0,P|350:280|297:315,1,130,4|0,0:0|0:0,0:0:0:0:
262,345,86216,1,8,0:0:0:0:
158,336,86434,2,0,P|125:321|110:294,1,65
118,245,86652,1,8,0:0:0:0:
160,215,86761,2,0,B|192:159|162:86|125:116,1,130
100,149,87088,1,8,0:0:0:0:
118,245,87306,2,0,P|90:267|59:272,2,65
118,245,87634,6,0,B|181:186|244:289|297:214,1,195,4|8,0:0|0:0,0:0:0:0:
351,126,88179,2,0,L|379:63,1,65
273,68,88506,2,0,P|207:94|147:82,1,130
107,54,88834,1,8,0:0:0:0:
66,149,89052,2,0,P|74:188|93:213,1,65
139,212,89270,1,8,0:0:0:0:
179,179,89379,6,0,P|246:162|309:183,1,130,4|0,0:0|0:0,0:0:0:0:
332,221,89706,1,0,0:0:0:0:
297,319,89925,2,0,P|271:341|238:347,2,65,0|0|8,0:0|0:0|0:0,0:0:0:0:
297,319,90252,2,0,B|331:312|362:320|362:320|425:299,1,130
432,248,90579,1,8,0:0:0:0:
402,121,90797,2,0,P|403:86|421:62,2,65,0|0|8,0:0|0:0|0:0,0:0:0:0:
402,121,91125,6,0,P|365:177|299:192,1,130,4|0,0:0|0:0,0:0:0:0:
259,172,91452,2,0,P|195:147|131:163,1,130,8|0,0:0|0:0,0:0:0:0:
104,200,91779,1,0,0:0:0:0:
205,222,91997,2,0,P|255:172|261:112,1,130
227,75,92325,1,8,0:0:0:0:
123,74,92543,2,0,P|86:77|59:59,2,65,0|0|8,0:0|0:0|0:0,0:0:0:0:
123,74,92870,6,0,B|151:137|151:137|140:200,1,130,4|0,0:0|0:0,0:0:0:0:
112,240,93197,1,8,0:0:0:0:
157,333,93416,2,0,P|191:345|223:335,1,65
253,299,93634,1,8,0:0:0:0:
286,258,93743,2,0,P|350:243|413:262,1,130
400,311,94070,1,8,0:0:0:0:
286,258,94288,5,0,0:0:0:0:
258,213,94397,1,0,0:0:0:0:
267,161,94506,1,0,0:0:0:0:
313,137,94616,2,0,P|376:115|401:39,1,146.250005578995,4|0,0:0|0:0,0:0:0:0:
316,50,95161,1,8,0:0:0:0:
114,132,95379,2,0,L|57:157,1,48.750001859665
267,161,95816,1,8,0:0:0:0:
264,258,96034,2,0,L|253:314,2,48.750001859665
264,258,96361,2,0,P|336:233|407:249,2,146.250005578995,4|0|4,0:0|0:0|0:0,0:0:0:0:
112,94,98216,6,0,L|90:158,2,65,0|0|8,0:0|0:0|0:0,0:0:0:0:
211,65,98652,2,0,P|273:91|343:79,1,130,0|8,0:0|0:0,0:0:0:0:
380,60,98979,1,0,0:0:0:0:
396,162,99197,2,0,P|389:197|373:225,1,65,0|8,0:0|0:0,0:0:0:0:
345,322,99525,2,0,P|284:298|270:237,1,130,0|8,0:0|0:0,0:0:0:0:
209,155,99961,6,0,P|140:132|82:159,1,130,0|8,0:0|0:0,0:0:0:0:
135,245,100397,2,0,P|144:274|133:311,1,65
47,250,100725,2,0,P|58:186|121:159,1,130,8|0,0:0|0:0,0:0:0:0:
125,108,101052,2,0,B|167:126|167:126|165:176|212:199,1,130,8|0,0:0|0:0,0:0:0:0:
308,182,101488,1,8,0:0:0:0:
254,92,101706,6,0,P|241:54|243:29,2,65,0|0|8,0:0|0:0|0:0,0:0:0:0:
308,182,102143,2,0,P|313:221|300:244,1,65
250,332,102470,2,0,P|310:305|380:321,1,130,8|0,0:0|0:0,0:0:0:0:
419,296,102797,2,0,P|447:238|435:174,1,130,8|0,0:0|0:0,0:0:0:0:
354,110,103234,1,8,0:0:0:0:
260,155,103452,6,0,P|201:180|135:166,1,130,0|8,0:0|0:0,0:0:0:0:
101,131,103779,1,0,0:0:0:0:
114,80,103888,2,0,P|175:51|238:60,2,130,2|8|4,0:0|0:0|0:0,0:0:0:0:
399,124,105197,6,0,B|376:161|389:204|389:204|360:249,1,130,4|8,0:0|0:0,0:0:0:0:
339,344,105634,2,0,P|307:354|276:345,1,65
249,245,105961,2,0,P|218:184|156:172,1,130,8|0,0:0|0:0,0:0:0:0:
112,185,106288,1,8,0:0:0:0:
109,288,106506,2,0,B|141:308|156:343|156:343|223:333,1,130,0|8,0:0|0:0,0:0:0:0:
324,269,106943,6,0,B|337:228|309:193|309:193|321:139,1,130,0|8,0:0|0:0,0:0:0:0:
404,85,107379,2,0,P|392:50|365:34,1,65
273,75,107706,2,0,P|211:102|147:92,1,130,8|0,0:0|0:0,0:0:0:0:
98,87,108034,2,0,B|50:136|50:136|48:204,1,130,8|0,0:0|0:0,0:0:0:0:
99,287,108470,1,8,0:0:0:0:
202,285,108688,6,0,B|250:236|250:236|252:168,1,130,4|8,0:0|0:0,0:0:0:0:
191,89,109125,2,0,P|193:52|211:26,1,65
295,84,109452,2,0,P|347:118|424:99,1,130,8|0,0:0|0:0,0:0:0:0:
444,68,109779,1,8,0:0:0:0:
454,171,109997,2,0,P|443:236|393:281,1,130,0|8,0:0|0:0,0:0:0:0:
305,326,110434,6,0,P|242:303|221:245,1,130,0|8,0:0|0:0,0:0:0:0:
244,201,110761,1,0,0:0:0:0:
285,169,110870,2,0,P|269:102|218:71,1,130,8|0,0:0|0:0,0:0:0:0:
168,80,111197,1,4,0:0:0:0:
87,143,111416,2,0,P|82:182|96:210,1,65,0|8,0:0|0:0,0:0:0:0:
181,257,111743,6,0,P|189:322|140:368,1,130,0|8,0:0|0:0,0:0:0:0:
97,350,112070,2,0,B|84:300|84:300|96:276|96:276|84:220,1,130,4|0,0:0|0:0,0:0:0:0:
74,174,112397,1,8,0:0:0:0:
177,159,112616,2,0,P|247:149|290:99,1,130,0|8,0:0|0:0,0:0:0:0:
299,57,112943,2,0,B|363:27|363:27|441:44,1,130
441,87,113270,1,8,0:0:0:0:
445,190,113488,5,0,0:0:0:0:
365,256,113706,1,8,0:0:0:0:
327,219,113816,2,0,B|264:207|264:207|195:236,1,130,4|0,0:0|0:0,0:0:0:0:
182,280,114143,1,8,0:0:0:0:
281,308,114361,1,0,0:0:0:0:
327,219,114579,1,8,0:0:0:0:
333,167,114688,2,0,P|317:104|267:63,1,130
216,66,115016,1,8,0:0:0:0:
232,168,115234,6,0,P|178:205|111:203,1,130,0|8,0:0|0:0,0:0:0:0:
86,247,115561,2,0,B|114:311|114:311|187:331,1,130,4|0,0:0|0:0,0:0:0:0:
222,313,115888,1,8,0:0:0:0:
307,253,116106,2,0,P|375:241|433:265,1,130,0|8,0:0|0:0,0:0:0:0:
420,314,116434,2,0,B|368:358|368:358|306:365,1,130,4|0,0:0|0:0,0:0:0:0:
258,346,116761,1,8,0:0:0:0:
214,251,116979,2,0,P|217:216|235:192,1,65
327,145,117306,1,4,0:0:0:0:
256,192,117416,12,2,118179,0:0:0:0:
251,301,119052,6,0,L|281:162,1,130,6|0,0:0|0:0,0:0:0:0:
291,123,119380,1,8,0:0:0:0:
225,44,119598,2,0,P|204:69|197:104,1,65,2|0,0:0|0:0,0:0:0:0:
150,193,119925,2,0,P|92:159|99:88,1,130,2|2,0:0|0:0,0:0:0:0:
127,65,120252,2,0,L|260:38,1,130,8|2,0:0|0:0,0:0:0:0:
359,45,120689,1,0,0:0:0:0:
396,83,120798,6,0,P|424:144|404:202,1,130,6|2,0:0|0:0,0:0:0:0:
364,233,121125,1,8,0:0:0:0:
273,184,121343,2,0,P|235:174|204:182,1,65,2|0,0:0|0:0,0:0:0:0:
165,273,121670,2,0,P|98:255|71:189,1,130,2|0,0:0|0:0,0:0:0:0:
123,196,121998,2,0,P|157:141|143:77,1,130,10|2,0:0|0:0,0:0:0:0:
50,122,122434,1,8,0:0:0:0:
50,122,122543,6,0,B|71:168|71:168|100:181|100:181|131:226,1,130,6|2,0:0|0:0,0:0:0:0:
157,264,122870,1,8,0:0:0:0:
262,257,123089,2,0,P|303:242|334:242,1,65,2|0,0:0|0:0,0:0:0:0:
392,320,123416,2,0,P|450:290|460:223,1,130,2|2,0:0|0:0,0:0:0:0:
443,183,123743,1,8,0:0:0:0:
348,142,123961,6,0,P|330:110|328:78,1,65,2|0,0:0|0:0,0:0:0:0:
429,58,124289,2,0,P|366:79|300:46,1,130,6|2,0:0|0:0,0:0:0:0:
262,36,124616,2,0,P|226:49|206:79,1,65,0|2,0:0|0:0,0:0:0:0:
224,120,124834,2,0,L|260:179,1,65,0|2,0:0|0:0,0:0:0:0:
254,280,125161,2,0,P|195:244|131:258,1,130,6|0,0:0|0:0,0:0:0:0:
130,306,125489,6,0,P|74:263|68:204,1,130,8|2,0:0|0:0,0:0:0:0:
82,158,125816,1,0,0:0:0:0:
181,190,126034,6,0,P|246:196|300:152,1,130,6|0,0:0|0:0,0:0:0:0:
347,170,126361,2,0,P|382:122|360:47,1,130,8|2,0:0|0:0,0:0:0:0:
318,46,126689,1,0,0:0:0:0:
239,114,126907,2,0,P|171:132|110:105,1,130,2|2,0:0|0:0,0:0:0:0:
90,68,127234,1,8,0:0:0:0:
187,30,127452,1,2,0:0:0:0:
278,189,127670,1,8,0:0:0:0:
278,189,127780,6,0,B|342:203|342:203|459:140,1,195,6|8,0:0|0:0,0:0:0:0:
408,50,128325,1,0,0:0:0:0:
408,50,128434,2,0,P|336:57|312:108,1,130,2|0,0:0|0:0,0:0:0:0:
345,144,128761,2,0,P|376:202|354:259,2,130,2|2|2,0:0|0:0|0:0,0:0:0:0:
262,207,129416,1,8,0:0:0:0:
211,198,129525,6,0,P|161:156|155:87,1,130,6|2,0:0|0:0,0:0:0:0:
185,54,129852,1,8,0:0:0:0:
287,76,130070,2,0,P|266:104|230:119,1,65,2|0,0:0|0:0,0:0:0:0:
142,152,130398,2,0,P|123:216|159:269,1,130,2|2,0:0|0:0,0:0:0:0:
203,288,130725,1,8,0:0:0:0:
305,265,130943,6,0,P|343:255|371:259,1,65,2|0,0:0|0:0,0:0:0:0:
449,325,131270,2,0,P|401:282|394:208,1,130,6|2,0:0|0:0,0:0:0:0:
422,178,131597,1,8,0:0:0:0:
343,109,131816,2,0,P|271:109|225:151,1,130,2|8,0:0|0:0,0:0:0:0:
186,174,132143,2,0,B|121:177|121:177|72:128,1,130,6|0,0:0|0:0,0:0:0:0:
81,79,132470,1,8,0:0:0:0:
186,174,132688,6,0,P|180:216|169:237,2,65,0|0|8,0:0|0:0|0:0,0:0:0:0:
186,174,133016,2,0,P|165:112|191:48,1,130,6|2,0:0|0:0,0:0:0:0:
235,38,133343,1,8,0:0:0:0:
318,99,133561,2,0,P|353:113|387:105,1,65,0|2,0:0|0:0,0:0:0:0:
454,37,133888,2,0,L|446:171,1,130,2|2,0:0|0:0,0:0:0:0:
441,218,134216,1,8,0:0:0:0:
340,336,134434,5,0,0:0:0:0:
284,190,134652,1,8,0:0:0:0:
254,147,134761,2,0,P|189:121|127:141,1,130,6|2,0:0|0:0,0:0:0:0:
104,179,135088,1,8,0:0:0:0:
128,280,135306,2,0,P|118:315|91:331,1,65,0|2,0:0|0:0,0:0:0:0:
48,236,135634,6,0,B|120:212|135:126|72:70,1,195,2|8,0:0|0:0,0:0:0:0:
48,236,136179,1,2,0:0:0:0:
128,280,136397,1,8,0:0:0:0:
179,283,136506,2,0,P|244:279|292:234,1,130,6|2,0:0|0:0,0:0:0:0:
307,187,136834,1,8,0:0:0:0:
228,118,137052,6,0,P|222:85|229:54,1,65,0|2,0:0|0:0,0:0:0:0:
142,112,137379,2,0,P|153:175|212:209,1,130,2|2,0:0|0:0,0:0:0:0:
247,176,137706,1,8,0:0:0:0:
325,106,137925,2,0,P|357:93|395:95,1,65,0|2,0:0|0:0,0:0:0:0:
433,186,138252,6,0,B|429:253|429:253|377:291,1,130,6|2,0:0|0:0,0:0:0:0:
331,266,138579,2,0,B|298:304|244:245|202:290,1,130,8|0,0:0|0:0,0:0:0:0:
168,317,138906,2,0,B|100:307|100:307|60:257,1,130,2|2,0:0|0:0,0:0:0:0:
81,104,139452,6,0,P|133:148|194:131,1,130,2|0,0:0|0:0,0:0:0:0:
227,101,139779,1,2,0:0:0:0:
265,197,139997,2,0,B|277:268|277:268|208:286|210:369,1,195,6|0,0:0|0:0,0:0:0:0:
314,355,140543,2,0,P|348:349|375:323,1,65,0|2,0:0|0:0,0:0:0:0:
434,247,140870,2,0,B|361:234|333:155|390:98,1,195,2|8,0:0|0:0,0:0:0:0:
434,247,141416,1,2,0:0:0:0:
334,278,141634,1,8,0:0:0:0:
284,261,141743,6,0,B|227:242|227:242|216:158|135:142,1,195
72,218,142288,2,0,P|58:250|63:283,2,65,2|0|8,0:0|0:0|0:0,0:0:0:0:
72,218,142616,2,0,P|133:161|120:43,1,195,2|8,0:0|0:0,0:0:0:0:
232,49,143161,1,2,0:0:0:0:
254,150,143379,1,8,0:0:0:0:
291,186,143488,6,0,P|353:216|415:193,1,130,6|0,0:0|0:0,0:0:0:0:
439,156,143816,1,8,0:0:0:0:
386,66,144034,2,0,P|355:82|345:113,1,65,0|2,0:0|0:0,0:0:0:0:
291,186,144361,2,0,B|282:230|282:230|296:270|342:291,1,130,2|2,0:0|0:0,0:0:0:0:
390,296,144688,1,8,0:0:0:0:
296,340,144906,6,0,P|257:348|227:342,1,65,0|2,0:0|0:0,0:0:0:0:
195,246,145234,2,0,P|152:194|82:195,1,130,6|2,0:0|0:0,0:0:0:0:
59,230,145561,1,8,0:0:0:0:
117,315,145779,5,0,0:0:0:0:
162,339,145888,1,8,0:0:0:0:
213,338,145997,1,0,0:0:0:0:
259,315,146106,1,12,0:0:0:0:
352,123,146979,6,0,P|301:171|216:160,1,146.250005578995,4|0,0:0|0:0,0:0:0:0:
188,100,147525,1,0,0:0:0:0:
263,79,147743,2,0,L|313:69,1,48.750001859665,2|0,0:0|0:0,0:0:0:0:
349,64,147961,2,0,B|328:136|365:181|439:194,2,170.625006508827,2|2|2,0:0|0:0|0:0,0:0:0:0:
148,289,150470,2,0,P|155:215|111:152,2,146.250005578995,6|6|6,0:0|0:0|0:0,0:0:0:0:
256,192,152652,1,6,0:0:0:0:
256,192,153961,12,0,155706,0:0:0:0:
256,192,155816,12,0,156688,0:0:0:0:
256,192,157016,5,0,0:0:0:0:
434,297,157452,6,0,B|365:254|365:254|338:200|365:138,1,195,6|2,0:0|0:0,0:0:0:0:
422,59,157997,2,0,P|388:70|353:69,1,65,0|2,0:0|0:0,0:0:0:0:
256,51,158325,2,0,P|187:41|133:63,1,130,2|2,0:0|0:0,0:0:0:0:
109,109,158652,1,0,0:0:0:0:
69,204,158870,2,0,L|41:265,2,65,2|0|2,0:0|0:0|0:0,0:0:0:0:
69,204,159197,6,0,B|120:232|164:198|164:198|258:238,1,195,2|2,0:0|0:0,0:0:0:0:
326,163,159743,2,0,P|356:130|388:122,1,65,0|2,0:0|0:0,0:0:0:0:
402,223,160070,2,0,P|406:287|371:341,1,130,2|2,0:0|0:0,0:0:0:0:
320,349,160397,1,0,0:0:0:0:
234,289,160616,2,0,L|176:249,2,65,2|0|2,0:0|0:0|0:0,0:0:0:0:
234,289,160943,6,0,B|211:351|211:351|138:358,1,130,6|2,0:0|0:0,0:0:0:0:
105,326,161270,2,0,P|80:260|94:194,1,130,0|2,0:0|0:0,0:0:0:0:
121,161,161597,1,0,0:0:0:0:
225,157,161816,6,0,P|290:183|349:169,1,130,2|2,0:0|0:0,0:0:0:0:
382,133,162143,2,0,L|380:67,1,65,0|2,0:0|0:0,0:0:0:0:
337,38,162361,2,0,L|297:94,2,65,0|0|2,0:0|0:0|0:0,0:0:0:0:
337,38,162688,6,0,P|407:34|459:77,1,130,6|2,0:0|0:0,0:0:0:0:
458,120,163016,1,0,0:0:0:0:
435,221,163234,2,0,P|431:258|444:292,2,65,2|0|2,0:0|0:0|0:0,0:0:0:0:
435,221,163561,6,0,P|365:211|321:253,1,130,2|2,0:0|0:0,0:0:0:0:
321,299,163888,1,0,0:0:0:0:
249,223,164106,2,0,P|190:186|122:200,1,130
96,231,164434,6,0,B|91:295|91:295|121:326|164:321,1,130,6|2,0:0|0:0,0:0:0:0:
198,304,164761,1,0,0:0:0:0:
321,299,164979,2,0,L|351:358,2,65,2|0|2,0:0|0:0|0:0,0:0:0:0:
321,299,165306,2,0,B|362:259|353:203|353:203|391:178,1,130,6|2,0:0|0:0,0:0:0:0:
422,170,165634,2,0,P|444:101|406:58,2,130,0|2|0,0:0|0:0|0:0,0:0:0:0:
376,152,166179,6,0,P|307:136|277:88,1,130,6|2,0:0|0:0,0:0:0:0:
232,64,166506,2,0,P|164:95|152:147,1,130,0|2,0:0|0:0,0:0:0:0:
216,224,166943,1,0,0:0:0:0:
195,271,167052,2,0,P|131:285|75:251,1,130,2|2,0:0|0:0,0:0:0:0:
63,204,167379,1,0,0:0:0:0:
115,114,167597,2,0,P|150:129|159:156,1,65,2|2,0:0|0:0,0:0:0:0:
262,158,167925,6,0,P|331:159|381:124,1,130,6|2,0:0|0:0,0:0:0:0:
384,73,168252,1,0,0:0:0:0:
281,56,168470,2,0,L|211:46,2,65,2|0|2,0:0|0:0|0:0,0:0:0:0:
281,56,168797,6,0,P|278:122|322:166,1,130,6|2,0:0|0:0,0:0:0:0:
369,181,169125,1,0,0:0:0:0:
348,282,169343,2,0,P|346:312|360:346,2,65,2|0|2,0:0|0:0|0:0,0:0:0:0:
348,282,169670,6,0,P|416:277|457:231,1,130,6|2,0:0|0:0,0:0:0:0:
461,182,169997,1,0,0:0:0:0:
420,85,170216,2,0,P|397:54|369:43,1,65,0|2,0:0|0:0,0:0:0:0:
279,87,170543,1,4,0:0:0:0:
256,192,170652,12,2,171525,0:0:0:0:
256,192,171852,5,2,0:0:0:0:
136,288,172179,1,2,0:0:0:0:
120,136,172506,1,2,0:0:0:0:
272,152,172834,2,0,P|303:163|344:152,1,65
385,153,173052,2,0,P|389:122|377:92,1,65
328,72,173270,2,0,B|242:33|200:121|142:59,2,195,2|2|2,0:0|0:0|0:0,0:0:0:0:
333,228,174252,1,2,0:0:0:0:
177,220,174579,2,0,P|117:249|85:309,1,130
256,192,175016,12,0,176761,0:0:0:0:
275,108,186579,6,0,L|231:174,1,65,8|0,0:0|0:0,0:0:0:0:
204,201,186797,2,0,L|124:204,2,65,0|0|8,0:0|0:0|0:0,0:0:0:0:
204,201,187125,2,0,P|283:230|308:334,1,195,4|8,0:0|0:0,0:0:0:0:
206,316,187670,1,8,0:0:0:0:
106,284,187888,1,8,0:0:0:0:
97,232,187997,6,0,P|100:141|188:92,1,195,4|8,0:0|0:0,0:0:0:0:
204,201,188543,1,0,0:0:0:0:
307,211,188761,1,8,0:0:0:0:
256,192,188870,12,0,189852,0:0:0:0:
122,203,190616,6,0,P|207:224|275:138,1,195,0|4,0:0|0:0,0:0:0:0:
321,67,191161,6,0,P|355:51|389:54,1,65,2|0,0:0|0:0,0:0:0:0:
346,149,191488,2,0,B|270:157|270:157|161:92,1,195,2|8,0:0|0:0,0:0:0:0:
73,139,192034,1,2,0:0:0:0:
158,198,192252,1,8,0:0:0:0:
190,238,192361,2,0,B|190:304|190:304|174:357|75:349,1,195,6|8,0:0|0:0,0:0:0:0:
44,251,192906,2,0,L|116:271,1,65,0|2,0:0|0:0,0:0:0:0:
121,165,193234,6,0,P|168:118|229:109,1,130,2|2,0:0|0:0,0:0:0:0:
274,133,193561,1,8,0:0:0:0:
299,286,193779,1,2,0:0:0:0:
424,193,193997,1,8,0:0:0:0:
373,205,194106,6,0,B|325:231|279:205|279:205|241:218|223:280,1,195,6|8,0:0|0:0,0:0:0:0:
283,365,194652,2,0,P|316:365|345:346,1,65,2|2,0:0|0:0,0:0:0:0:
420,280,194979,2,0,B|352:253|393:157|393:157|341:113,1,195,6|8,0:0|0:0,0:0:0:0:
253,153,195525,2,0,P|214:158|184:148,1,65,2|2,0:0|0:0,0:0:0:0:
108,85,195852,6,0,B|56:127|56:127|37:202,1,130,6|2,0:0|0:0,0:0:0:0:
60,236,196179,1,8,0:0:0:0:
153,281,196397,2,0,P|171:314|175:347,2,65,2|0|2,0:0|0:0|0:0,0:0:0:0:
153,281,196725,2,0,P|164:213|211:180,1,130,6|2,0:0|0:0,0:0:0:0:
262,184,197052,1,8,0:0:0:0:
335,110,197270,6,0,P|369:95|405:101,1,65,0|2,0:0|0:0,0:0:0:0:
377,199,197597,2,0,B|383:239|383:239|378:275|378:275|396:327,1,130,6|0,0:0|0:0,0:0:0:0:
354,357,197925,1,8,0:0:0:0:
255,324,198143,2,0,P|219:332|198:365,1,65,0|2,0:0|0:0,0:0:0:0:
105,313,198470,2,0,P|140:254|126:190,1,130,2|2,0:0|0:0,0:0:0:0:
81,176,198797,1,8,0:0:0:0:
105,313,199016,1,0,0:0:0:0:
245,244,199234,1,8,0:0:0:0:
275,201,199343,6,0,P|293:134|268:74,1,130,6|2,0:0|0:0,0:0:0:0:
223,62,199670,2,0,B|184:43|184:43|148:62|98:45,2,130,8|2|8,0:0|0:0|0:0,0:0:0:0:
312,115,200325,2,0,P|374:142|441:117,1,130,2|8,0:0|0:0,0:0:0:0:
378,35,200761,1,2,0:0:0:0:
312,115,200979,1,8,0:0:0:0:
294,163,201088,6,0,P|293:231|336:293,1,130,6|2,0:0|0:0,0:0:0:0:
374,297,201416,1,8,0:0:0:0:
429,208,201634,2,0,P|436:164|429:139,1,65,0|2,0:0|0:0,0:0:0:0:
378,35,201961,2,0,L|180:18,1,195,2|8,0:0|0:0,0:0:0:0:
93,69,202506,6,0,P|75:98|73:131,1,65,2|2,0:0|0:0,0:0:0:0:
169,168,202834,2,0,B|227:196|227:196|257:261,1,130,6|0,0:0|0:0,0:0:0:0:
235,304,203161,1,0,0:0:0:0:
134,276,203379,2,0,P|100:261|66:261,2,65,2|0|2,0:0|0:0|0:0,0:0:0:0:
134,276,203706,2,0,B|165:342|165:342|224:368,1,130,2|2,0:0|0:0,0:0:0:0:
269,360,204034,5,8,0:0:0:0:
362,314,204252,2,0,P|369:281|363:246,1,65,2|0,0:0|0:0,0:0:0:0:
341,203,204470,1,2,0:0:0:0:
292,184,204579,6,0,P|234:148|221:88,1,130,6|2,0:0|0:0,0:0:0:0:
254,52,204906,1,8,0:0:0:0:
338,112,205125,2,0,P|371:127|400:121,1,65,0|2,0:0|0:0,0:0:0:0:
341,203,205452,2,0,B|332:272|217:252|203:344,1,195,2|8,0:0|0:0,0:0:0:0:
105,303,205997,1,2,0:0:0:0:
144,206,206216,1,8,0:0:0:0:
168,160,206325,6,0,P|174:95|132:47,1,130,6|2,0:0|0:0,0:0:0:0:
82,53,206652,2,0,P|41:106|49:167,1,130,8|0,0:0|0:0,0:0:0:0:
62,215,206979,1,2,0:0:0:0:
144,278,207197,2,0,B|215:291|274:237|274:237|333:274,1,195,2|8,0:0|0:0,0:0:0:0:
390,341,207743,1,2,0:0:0:0:
421,241,207961,1,8,0:0:0:0:
437,191,208070,6,0,P|445:126|412:73,1,130,6|2,0:0|0:0,0:0:0:0:
361,63,208397,1,8,0:0:0:0:
260,89,208616,6,0,P|255:55|264:27,1,65,0|2,0:0|0:0,0:0:0:0:
361,63,208943,2,0,B|377:128|377:128|347:197|273:203,1,195,2|8,0:0|0:0,0:0:0:0:
176,209,209488,6,0,P|176:172|198:143,1,65,0|2,0:0|0:0,0:0:0:0:
280,202,209816,2,0,B|226:253|237:322|237:322|170:348,1,195,2|8,0:0|0:0,0:0:0:0:
99,277,210361,6,0,P|74:247|71:215,1,65,0|2,0:0|0:0,0:0:0:0:
43,121,210688,2,0,P|79:43|178:54,1,195,2|8,0:0|0:0,0:0:0:0:
262,109,211234,2,0,P|298:115|332:107,2,65,2|0|2,0:0|0:0|0:0,0:0:0:0:
262,109,211561,6,0,B|198:125|198:125|164:185,1,130,6|2,0:0|0:0,0:0:0:0:
163,232,211888,1,8,0:0:0:0:
229,312,212106,2,0,P|266:315|292:303,1,65,0|2,0:0|0:0,0:0:0:0:
321,203,212434,2,0,P|383:226|406:291,1,130,2|2,0:0|0:0,0:0:0:0:
375,323,212761,1,8,0:0:0:0:
290,263,212979,2,0,B|267:229|267:229|230:201|230:201|211:160,1,130,2|8,0:0|0:0,0:0:0:0:
196,112,213306,6,0,P|110:76|42:147,1,195,6|8,0:0|0:0,0:0:0:0:
41,242,213852,2,0,P|83:286|159:287,1,130,2|8,0:0|0:0,0:0:0:0:
196,269,214179,2,0,P|261:206|357:249,1,195,2|8,0:0|0:0,0:0:0:0:
295,327,214725,2,0,B|354:353|354:353|415:317,1,130,2|8,0:0|0:0,0:0:0:0:
256,192,215052,12,8,216252,0:0:0:0:
276,248,216470,6,0,P|304:230|317:200,1,65,0|2,0:0|0:0,0:0:0:0:
381,120,216797,2,0,B|312:124|312:124|254:91,1,130,6|2,0:0|0:0,0:0:0:0:
227,51,217125,1,8,0:0:0:0:
123,48,217343,2,0,P|88:46|59:67,3,65,2|0|8|2,0:0|0:0|0:0|0:0,0:0:0:0:
123,48,218216,6,0,P|142:79|139:115,1,65,0|2,0:0|0:0,0:0:0:0:
93,198,218543,2,0,B|106:267|106:267|168:310,1,130,6|2,0:0|0:0,0:0:0:0:
206,291,218870,1,8,0:0:0:0:
309,285,219088,2,0,P|338:301|355:334,3,65,2|0|8|2,0:0|0:0|0:0|0:0,0:0:0:0:
309,285,219961,6,0,P|346:271|365:252,1,65,0|2,0:0|0:0,0:0:0:0:
419,165,220288,2,0,B|351:160|351:160|307:110,1,130,6|2,0:0|0:0,0:0:0:0:
290,64,220616,1,8,0:0:0:0:
225,145,220834,2,0,P|215:179|226:212,3,65,2|0|8|2,0:0|0:0|0:0|0:0,0:0:0:0:
256,192,221270,12,4,222034,0:0:0:0:
