osu file format v14

[General]
AudioFilename: audio.mp3
AudioLeadIn: 0
PreviewTime: 58
Countdown: 1
SampleSet: None
StackLeniency: 0.7
Mode: 3
LetterboxInBreaks: 0
SpecialStyle: 0
WidescreenStoryboard: 1

[Editor]
Bookmarks: 1976,154468
DistanceSpacing: 1.4
BeatDivisor: 4
GridSize: 4
TimelineZoom: 1.9

[Metadata]
Title:Seidenkiningen
TitleUnicode:セイデンキニンゲン
Artist:Kairiki Bear ft. Hatsune Miku
ArtistUnicode:かいりきベア feat.初音ミク
Creator:TecGamer_Brazil
Version:Nothing Here
Source:
Tags:rock hatsune miku Kairiki Bear
BeatmapID:1504763
BeatmapSetID:711582

[Difficulty]
HPDrainRate:10
CircleSize:4
OverallDifficulty:9.3
ApproachRate:8.4
SliderMultiplier:1.63
SliderTickRate:1

[Events]
//Background and Video events
0,0,"かいりきベア_-_セイデンキニンゲン.png",0,0
//Break Periods
2,139531,151868
//Storyboard Layer 0 (Background)
//Storyboard Layer 1 (Fail)
//Storyboard Layer 2 (Pass)
//Storyboard Layer 3 (Foreground)
//Storyboard Sound Samples

[TimingPoints]
2181,272.727272727273,4,1,0,100,1,0
10635,-111.111111111111,4,1,0,100,0,0
12355,272.727272727273,4,1,0,100,1,0
13065,272.727272727273,4,1,0,100,1,0
58567,-66.6666666666667,4,1,0,100,0,0
58585,-111.111111111111,4,1,0,100,0,1
75252,272.727272727273,4,1,0,100,1,8
110706,-100,4,1,0,100,0,9
110774,-111.111111111111,4,1,0,100,0,9
110911,-50,4,1,0,100,0,9
111047,-100,4,1,0,100,0,9
127138,272.727272727273,3,1,0,100,1,8
128849,272.727272727273,4,1,0,100,1,8
131634,606.060606060606,4,1,0,100,1,8
132240,272.727272727273,4,1,0,100,1,8
133681,606.060606060606,4,1,0,100,1,8
134218,272.727272727273,4,1,0,100,1,8
154468,545.454545454546,4,1,0,14,1,8
159922,272.727272727273,4,1,0,100,1,8
161012,-100,4,1,0,100,0,9
175566,-100,4,1,0,100,0,8

[HitObjects]
320,192,2044,5,0,0:0:0:0:
64,192,2317,1,0,0:0:0:0:
448,192,2453,1,0,0:0:0:0:
448,192,2590,1,0,0:0:0:0:
448,192,2794,1,0,0:0:0:0:
192,192,2794,1,0,0:0:0:0:
320,192,2999,1,0,0:0:0:0:
320,192,3135,1,0,0:0:0:0:
64,192,3203,1,0,0:0:0:0:
448,192,3340,1,0,0:0:0:0:
192,192,3612,1,0,0:0:0:0:
320,192,3612,1,0,0:0:0:0:
64,192,3681,1,0,0:0:0:0:
448,192,3681,1,0,0:0:0:0:
192,192,3749,1,0,0:0:0:0:
320,192,3817,1,0,0:0:0:0:
320,192,4226,1,0,0:0:0:0:
64,192,4431,1,0,0:0:0:0:
448,192,4635,1,0,0:0:0:0:
448,192,4771,1,0,0:0:0:0:
192,192,4976,1,0,0:0:0:0:
320,192,5112,1,0,0:0:0:0:
320,192,5385,1,0,0:0:0:0:
64,192,5521,1,0,0:0:0:0:
448,192,5590,1,0,0:0:0:0:
448,192,5726,1,0,0:0:0:0:
192,192,5862,1,0,0:0:0:0:
320,192,5999,1,0,0:0:0:0:
64,192,6135,1,0,0:0:0:0:
448,192,6271,1,0,0:0:0:0:
192,192,6408,1,0,0:0:0:0:
320,192,6612,1,0,0:0:0:0:
64,192,6749,1,0,0:0:0:0:
448,192,6885,1,0,0:0:0:0:
192,192,7158,1,0,0:0:0:0:
320,192,7294,1,0,0:0:0:0:
448,192,7362,1,0,0:0:0:0:
192,192,7362,1,0,0:0:0:0:
320,192,7431,1,0,0:0:0:0:
64,192,7499,1,0,0:0:0:0:
448,192,7499,1,0,0:0:0:0:
192,192,7567,1,0,0:0:0:0:
320,192,7635,1,0,0:0:0:0:
64,192,7635,1,0,0:0:0:0:
448,192,7703,1,0,0:0:0:0:
192,192,7703,1,0,0:0:0:0:
320,192,7840,1,0,0:0:0:0:
64,192,7840,1,0,0:0:0:0:
192,192,7908,1,0,0:0:0:0:
448,192,7908,1,0,0:0:0:0:
64,192,7976,1,0,0:0:0:0:
320,192,8317,1,0,0:0:0:0:
320,192,8521,1,0,0:0:0:0:
64,192,8658,1,0,0:0:0:0:
448,192,8794,1,0,0:0:0:0:
448,192,8931,1,0,0:0:0:0:
320,192,9135,1,0,0:0:0:0:
192,192,9203,1,0,0:0:0:0:
448,192,9203,1,0,0:0:0:0:
64,192,9271,1,0,0:0:0:0:
320,192,9340,1,0,0:0:0:0:
192,192,9340,1,0,0:0:0:0:
448,192,9408,1,0,0:0:0:0:
64,192,9476,1,0,0:0:0:0:
320,192,9476,1,0,0:0:0:0:
192,192,9544,1,0,0:0:0:0:
448,192,9612,1,0,0:0:0:0:
320,192,9681,1,0,0:0:0:0:
192,192,9681,1,0,0:0:0:0:
448,192,9749,1,0,0:0:0:0:
64,192,9749,1,0,0:0:0:0:
320,192,9817,1,0,0:0:0:0:
192,192,9885,1,0,0:0:0:0:
448,192,9953,1,0,0:0:0:0:
64,192,9953,1,0,0:0:0:0:
192,192,10090,1,0,0:0:0:0:
320,192,10090,1,0,0:0:0:0:
64,192,10158,1,0,0:0:0:0:
448,192,10158,1,0,0:0:0:0:
192,192,10226,1,0,0:0:0:0:
320,192,10226,1,0,0:0:0:0:
64,192,10362,1,0,0:0:0:0:
448,192,10362,1,0,0:0:0:0:
320,192,10567,1,0,0:0:0:0:
64,192,10703,1,0,0:0:0:0:
448,192,10908,1,0,0:0:0:0:
448,192,11044,1,0,0:0:0:0:
192,192,11181,1,0,0:0:0:0:
320,192,11317,1,0,0:0:0:0:
64,192,11453,1,0,0:0:0:0:
448,192,11658,1,0,0:0:0:0:
192,192,11794,1,0,0:0:0:0:
320,192,11931,1,0,0:0:0:0:
320,192,12135,1,0,0:0:0:0:
64,192,12491,1,0,0:0:0:0:
448,192,12627,1,0,0:0:0:0:
448,192,12764,1,0,0:0:0:0:
64,192,12968,1,0,0:0:0:0:
320,192,13065,1,0,0:0:0:0:
448,192,13201,1,0,0:0:0:0:
320,192,13269,1,0,0:0:0:0:
192,192,13269,1,0,0:0:0:0:
320,192,13610,1,0,0:0:0:0:
64,192,13746,1,0,0:0:0:0:
448,192,13883,1,0,0:0:0:0:
448,192,14019,1,0,0:0:0:0:
192,192,14224,1,0,0:0:0:0:
320,192,14701,128,0,15451:0:0:0:0:
64,192,14905,1,0,0:0:0:0:
192,192,15110,1,0,0:0:0:0:
192,192,15315,1,0,0:0:0:0:
448,192,15383,1,0,0:0:0:0:
192,192,15587,1,0,0:0:0:0:
320,192,15724,128,0,16065:0:0:0:0:
192,192,15860,1,0,0:0:0:0:
64,192,15928,1,0,0:0:0:0:
192,192,16065,1,0,0:0:0:0:
448,192,16065,1,0,0:0:0:0:
64,192,16133,1,0,0:0:0:0:
448,192,16269,1,0,0:0:0:0:
320,192,16815,1,0,0:0:0:0:
320,192,16951,1,0,0:0:0:0:
64,192,17087,1,0,0:0:0:0:
448,192,17292,1,0,0:0:0:0:
64,192,17633,1,0,0:0:0:0:
448,192,17633,128,0,18246:0:0:0:0:
320,192,17769,128,0,18178:0:0:0:0:
192,192,17905,1,0,0:0:0:0:
64,192,17974,1,0,0:0:0:0:
192,192,18110,1,0,0:0:0:0:
64,192,18383,1,0,0:0:0:0:
192,192,18451,1,0,0:0:0:0:
320,192,18519,1,0,0:0:0:0:
64,192,18587,1,0,0:0:0:0:
448,192,18587,128,0,18996:0:0:0:0:
192,192,18655,1,0,0:0:0:0:
64,192,18792,1,0,0:0:0:0:
320,192,18860,128,0,19746:0:0:0:0:
192,192,18996,1,0,0:0:0:0:
64,192,19065,1,0,0:0:0:0:
448,192,19133,128,0,19746:0:0:0:0:
192,192,19201,1,0,0:0:0:0:
64,192,19269,1,0,0:0:0:0:
192,192,19405,1,0,0:0:0:0:
64,192,19474,1,0,0:0:0:0:
192,192,19542,1,0,0:0:0:0:
64,192,19678,1,0,0:0:0:0:
320,192,19883,1,0,0:0:0:0:
64,192,20019,1,0,0:0:0:0:
448,192,20155,1,0,0:0:0:0:
448,192,20360,1,0,0:0:0:0:
448,192,20496,1,0,0:0:0:0:
192,192,20496,1,0,0:0:0:0:
320,192,20701,1,0,0:0:0:0:
320,192,20837,1,0,0:0:0:0:
192,192,20974,1,0,0:0:0:0:
64,192,21042,1,0,0:0:0:0:
320,192,21042,1,0,0:0:0:0:
448,192,21042,1,0,0:0:0:0:
64,192,21246,1,0,0:0:0:0:
192,192,21246,1,0,0:0:0:0:
320,192,21315,1,0,0:0:0:0:
448,192,21315,1,0,0:0:0:0:
64,192,21519,1,0,0:0:0:0:
192,192,21519,1,0,0:0:0:0:
320,192,21519,1,0,0:0:0:0:
448,192,21519,1,0,0:0:0:0:
64,192,21792,1,0,0:0:0:0:
192,192,21792,1,0,0:0:0:0:
320,192,21860,1,0,0:0:0:0:
448,192,21860,1,0,0:0:0:0:
192,192,22065,1,0,0:0:0:0:
64,192,22065,1,0,0:0:0:0:
320,192,22065,1,0,0:0:0:0:
448,192,22065,1,0,0:0:0:0:
64,192,22337,1,0,0:0:0:0:
192,192,22337,1,0,0:0:0:0:
320,192,22337,1,0,0:0:0:0:
448,192,22337,1,0,0:0:0:0:
192,192,22542,1,0,0:0:0:0:
64,192,22542,1,0,0:0:0:0:
320,192,22610,1,0,0:0:0:0:
448,192,22610,1,0,0:0:0:0:
320,192,22883,1,0,0:0:0:0:
64,192,23087,1,0,0:0:0:0:
448,192,23155,1,0,0:0:0:0:
448,192,23360,1,0,0:0:0:0:
448,192,23496,1,0,0:0:0:0:
192,192,23565,1,0,0:0:0:0:
320,192,23701,1,0,0:0:0:0:
320,192,23837,1,0,0:0:0:0:
64,192,23974,1,0,0:0:0:0:
448,192,24110,1,0,0:0:0:0:
448,192,24246,1,0,0:0:0:0:
192,192,24451,1,0,0:0:0:0:
320,192,24587,1,0,0:0:0:0:
320,192,25065,1,0,0:0:0:0:
320,192,25269,1,0,0:0:0:0:
64,192,25337,1,0,0:0:0:0:
448,192,25474,1,0,0:0:0:0:
448,192,25678,1,0,0:0:0:0:
192,192,25815,1,0,0:0:0:0:
320,192,25951,1,0,0:0:0:0:
320,192,26155,1,0,0:0:0:0:
320,192,26292,1,0,0:0:0:0:
320,192,26565,1,0,0:0:0:0:
320,192,26701,1,0,0:0:0:0:
64,192,26837,1,0,0:0:0:0:
448,192,27042,1,0,0:0:0:0:
448,192,27178,1,0,0:0:0:0:
448,192,27315,1,0,0:0:0:0:
192,192,27383,1,0,0:0:0:0:
320,192,27587,1,0,0:0:0:0:
64,192,27792,1,0,0:0:0:0:
448,192,28065,1,0,0:0:0:0:
192,192,28201,1,0,0:0:0:0:
448,192,28269,1,0,0:0:0:0:
320,192,28474,1,0,0:0:0:0:
448,192,28610,1,0,0:0:0:0:
320,192,28746,1,0,0:0:0:0:
448,192,28815,1,0,0:0:0:0:
320,192,28883,1,0,0:0:0:0:
448,192,28951,1,0,0:0:0:0:
192,192,29087,1,0,0:0:0:0:
64,192,29224,1,0,0:0:0:0:
192,192,29292,1,0,0:0:0:0:
64,192,29428,1,0,0:0:0:0:
192,192,29496,1,0,0:0:0:0:
64,192,29565,1,0,0:0:0:0:
320,192,29701,1,0,0:0:0:0:
448,192,29769,1,0,0:0:0:0:
64,192,29905,1,0,0:0:0:0:
320,192,29905,1,0,0:0:0:0:
448,192,30042,1,0,0:0:0:0:
192,192,30042,1,0,0:0:0:0:
64,192,30110,1,0,0:0:0:0:
320,192,30110,1,0,0:0:0:0:
192,192,30178,1,0,0:0:0:0:
448,192,30246,1,0,0:0:0:0:
64,192,30315,1,0,0:0:0:0:
320,192,30315,1,0,0:0:0:0:
192,192,30383,1,0,0:0:0:0:
448,192,30451,1,0,0:0:0:0:
64,192,30451,1,0,0:0:0:0:
320,192,30587,1,0,0:0:0:0:
192,192,30587,1,0,0:0:0:0:
448,192,30655,1,0,0:0:0:0:
64,192,30655,128,0,31201:0:0:0:0:
192,192,30724,1,0,0:0:0:0:
320,192,30792,1,0,0:0:0:0:
448,192,30860,1,0,0:0:0:0:
320,192,30996,1,0,0:0:0:0:
192,192,30996,1,0,0:0:0:0:
448,192,31065,1,0,0:0:0:0:
320,192,31474,1,0,0:0:0:0:
64,192,31678,1,0,0:0:0:0:
448,192,31951,1,0,0:0:0:0:
192,192,32224,1,0,0:0:0:0:
320,192,32360,128,0,33178:0:0:0:0:
448,192,32428,128,0,33246:0:0:0:0:
192,192,32769,1,0,0:0:0:0:
64,192,32905,1,0,0:0:0:0:
192,192,32974,1,0,0:0:0:0:
192,192,33451,1,0,0:0:0:0:
64,192,33519,1,0,0:0:0:0:
320,192,33587,1,0,0:0:0:0:
448,192,33587,1,0,0:0:0:0:
64,192,33724,1,0,0:0:0:0:
192,192,33792,1,0,0:0:0:0:
64,192,33928,1,0,0:0:0:0:
192,192,33996,1,0,0:0:0:0:
320,192,33996,1,0,0:0:0:0:
64,192,34065,1,0,0:0:0:0:
448,192,34065,1,0,0:0:0:0:
192,192,34337,1,0,0:0:0:0:
64,192,34337,1,0,0:0:0:0:
320,192,34337,1,0,0:0:0:0:
448,192,34337,1,0,0:0:0:0:
320,192,34678,1,0,0:0:0:0:
320,192,34883,1,0,0:0:0:0:
64,192,34951,1,0,0:0:0:0:
448,192,35087,1,0,0:0:0:0:
448,192,35292,1,0,0:0:0:0:
448,192,35428,1,0,0:0:0:0:
192,192,35496,1,0,0:0:0:0:
320,192,35769,1,0,0:0:0:0:
64,192,35905,1,0,0:0:0:0:
448,192,36042,1,0,0:0:0:0:
448,192,36383,1,0,0:0:0:0:
192,192,36587,1,0,0:0:0:0:
320,192,36928,1,0,0:0:0:0:
64,192,37133,1,0,0:0:0:0:
448,192,37405,1,0,0:0:0:0:
192,192,37678,1,0,0:0:0:0:
320,192,37815,1,0,0:0:0:0:
64,192,38019,1,0,0:0:0:0:
448,192,38155,1,0,0:0:0:0:
192,192,38360,1,0,0:0:0:0:
320,192,38565,1,0,0:0:0:0:
64,192,38701,1,0,0:0:0:0:
448,192,38837,1,0,0:0:0:0:
192,192,39042,1,0,0:0:0:0:
320,192,39110,1,0,0:0:0:0:
448,192,39178,1,0,0:0:0:0:
320,192,39315,1,0,0:0:0:0:
448,192,39383,1,0,0:0:0:0:
320,192,39451,1,0,0:0:0:0:
448,192,39519,1,0,0:0:0:0:
192,192,39587,1,0,0:0:0:0:
64,192,39655,1,0,0:0:0:0:
192,192,39792,1,0,0:0:0:0:
64,192,39928,1,0,0:0:0:0:
320,192,40201,1,0,0:0:0:0:
192,192,40269,1,0,0:0:0:0:
64,192,40337,1,0,0:0:0:0:
448,192,40337,1,0,0:0:0:0:
192,192,40542,1,0,0:0:0:0:
320,192,40610,1,0,0:0:0:0:
64,192,40678,1,0,0:0:0:0:
448,192,40678,1,0,0:0:0:0:
192,192,40746,1,0,0:0:0:0:
320,192,40815,1,0,0:0:0:0:
64,192,40883,1,0,0:0:0:0:
448,192,40951,1,0,0:0:0:0:
64,192,41087,1,0,0:0:0:0:
320,192,41087,1,0,0:0:0:0:
192,192,41087,1,0,0:0:0:0:
448,192,41155,1,0,0:0:0:0:
64,192,41224,1,0,0:0:0:0:
192,192,41292,1,0,0:0:0:0:
64,192,41360,1,0,0:0:0:0:
320,192,41428,1,0,0:0:0:0:
448,192,41496,1,0,0:0:0:0:
192,192,41837,1,0,0:0:0:0:
64,192,42042,1,0,0:0:0:0:
448,192,42110,1,0,0:0:0:0:
192,192,42451,1,0,0:0:0:0:
320,192,42519,1,0,0:0:0:0:
64,192,42724,1,0,0:0:0:0:
448,192,42792,1,0,0:0:0:0:
192,192,42928,1,0,0:0:0:0:
320,192,43065,1,0,0:0:0:0:
192,192,43133,1,0,0:0:0:0:
64,192,43337,1,0,0:0:0:0:
448,192,43405,1,0,0:0:0:0:
192,192,43815,1,0,0:0:0:0:
448,192,43883,1,0,0:0:0:0:
448,192,44019,1,0,0:0:0:0:
192,192,44019,1,0,0:0:0:0:
448,192,44155,1,0,0:0:0:0:
192,192,44224,1,0,0:0:0:0:
448,192,44292,1,0,0:0:0:0:
192,192,44360,1,0,0:0:0:0:
448,192,44428,1,0,0:0:0:0:
192,192,44565,1,0,0:0:0:0:
448,192,44565,1,0,0:0:0:0:
192,192,44837,1,0,0:0:0:0:
320,192,44905,1,0,0:0:0:0:
448,192,45042,1,0,0:0:0:0:
192,192,45042,1,0,0:0:0:0:
64,192,45042,1,0,0:0:0:0:
320,192,45110,1,0,0:0:0:0:
192,192,45178,1,0,0:0:0:0:
448,192,45178,1,0,0:0:0:0:
64,192,45246,1,0,0:0:0:0:
320,192,45315,1,0,0:0:0:0:
192,192,45383,1,0,0:0:0:0:
448,192,45383,1,0,0:0:0:0:
64,192,45451,1,0,0:0:0:0:
320,192,45587,1,0,0:0:0:0:
320,192,46065,128,0,46951:0:0:0:0:
448,192,46065,128,0,47019:0:0:0:0:
192,192,46337,1,0,0:0:0:0:
192,192,46542,1,0,0:0:0:0:
64,192,46815,1,0,0:0:0:0:
192,192,47019,1,0,0:0:0:0:
64,192,47087,1,0,0:0:0:0:
320,192,47087,1,0,0:0:0:0:
192,192,47155,1,0,0:0:0:0:
448,192,47155,1,0,0:0:0:0:
64,192,47224,1,0,0:0:0:0:
192,192,47292,1,0,0:0:0:0:
64,192,47428,1,0,0:0:0:0:
320,192,47428,1,0,0:0:0:0:
192,192,47496,1,0,0:0:0:0:
448,192,47496,1,0,0:0:0:0:
64,192,47565,1,0,0:0:0:0:
320,192,47633,1,0,0:0:0:0:
192,192,47633,1,0,0:0:0:0:
448,192,47701,1,0,0:0:0:0:
64,192,47701,1,0,0:0:0:0:
192,192,48110,128,0,48519:0:0:0:0:
64,192,48178,1,0,0:0:0:0:
320,192,48178,128,0,48519:0:0:0:0:
448,192,48178,128,0,48519:0:0:0:0:
320,192,48587,128,0,48928:0:0:0:0:
64,192,48587,128,0,48928:0:0:0:0:
192,192,48587,128,0,48928:0:0:0:0:
448,192,48587,128,0,48928:0:0:0:0:
64,192,49065,1,0,0:0:0:0:
192,192,49065,1,0,0:0:0:0:
320,192,49065,1,0,0:0:0:0:
448,192,49065,1,0,0:0:0:0:
64,192,49474,128,0,49815:0:0:0:0:
192,192,49474,128,0,49815:0:0:0:0:
320,192,49542,1,0,0:0:0:0:
448,192,49542,1,0,0:0:0:0:
320,192,49951,128,0,50292:0:0:0:0:
448,192,49951,128,0,50292:0:0:0:0:
64,192,49951,128,0,50292:0:0:0:0:
192,192,49951,128,0,50292:0:0:0:0:
192,192,50428,128,0,51042:0:0:0:0:
64,192,50428,128,0,51178:0:0:0:0:
320,192,50496,128,0,50837:0:0:0:0:
448,192,50496,128,0,51178:0:0:0:0:
320,192,50974,1,0,0:0:0:0:
192,192,51110,1,0,0:0:0:0:
320,192,51246,1,0,0:0:0:0:
64,192,51246,1,0,0:0:0:0:
448,192,51315,1,0,0:0:0:0:
192,192,51315,1,0,0:0:0:0:
64,192,51451,1,0,0:0:0:0:
320,192,51451,1,0,0:0:0:0:
448,192,51519,1,0,0:0:0:0:
192,192,51519,1,0,0:0:0:0:
64,192,51587,1,0,0:0:0:0:
320,192,51655,1,0,0:0:0:0:
448,192,51724,1,0,0:0:0:0:
192,192,51724,1,0,0:0:0:0:
320,192,51860,1,0,0:0:0:0:
64,192,51928,1,0,0:0:0:0:
448,192,51928,1,0,0:0:0:0:
320,192,52269,1,0,0:0:0:0:
64,192,52474,1,0,0:0:0:0:
448,192,52746,1,0,0:0:0:0:
448,192,52883,1,0,0:0:0:0:
448,192,53019,1,0,0:0:0:0:
192,192,53087,1,0,0:0:0:0:
320,192,53224,1,0,0:0:0:0:
320,192,53360,1,0,0:0:0:0:
64,192,53496,1,0,0:0:0:0:
448,192,53701,1,0,0:0:0:0:
448,192,53905,1,0,0:0:0:0:
192,192,54042,1,0,0:0:0:0:
320,192,54042,1,0,0:0:0:0:
64,192,54110,1,0,0:0:0:0:
448,192,54110,1,0,0:0:0:0:
192,192,54178,1,0,0:0:0:0:
320,192,54246,1,0,0:0:0:0:
64,192,54315,1,0,0:0:0:0:
448,192,54315,1,0,0:0:0:0:
192,192,54383,1,0,0:0:0:0:
320,192,54451,1,0,0:0:0:0:
64,192,54451,1,0,0:0:0:0:
448,192,54519,1,0,0:0:0:0:
192,192,54587,1,0,0:0:0:0:
320,192,54655,1,0,0:0:0:0:
64,192,54655,1,0,0:0:0:0:
192,192,54792,1,0,0:0:0:0:
320,192,54860,1,0,0:0:0:0:
64,192,54860,1,0,0:0:0:0:
448,192,54928,1,0,0:0:0:0:
192,192,54996,1,0,0:0:0:0:
64,192,54996,1,0,0:0:0:0:
320,192,55065,1,0,0:0:0:0:
192,192,55133,1,0,0:0:0:0:
448,192,55201,1,0,0:0:0:0:
64,192,55201,1,0,0:0:0:0:
192,192,55337,1,0,0:0:0:0:
320,192,55337,1,0,0:0:0:0:
448,192,55405,1,0,0:0:0:0:
64,192,55405,1,0,0:0:0:0:
192,192,55474,1,0,0:0:0:0:
320,192,55542,1,0,0:0:0:0:
64,192,55610,1,0,0:0:0:0:
448,192,55610,1,0,0:0:0:0:
192,192,55746,1,0,0:0:0:0:
320,192,55746,1,0,0:0:0:0:
64,192,55815,1,0,0:0:0:0:
448,192,55815,1,0,0:0:0:0:
192,192,55883,1,0,0:0:0:0:
320,192,55883,1,0,0:0:0:0:
64,192,55951,1,0,0:0:0:0:
448,192,56019,1,0,0:0:0:0:
192,192,56087,1,0,0:0:0:0:
320,192,56155,1,0,0:0:0:0:
64,192,56155,1,0,0:0:0:0:
448,192,56224,1,0,0:0:0:0:
192,192,56292,1,0,0:0:0:0:
320,192,56360,1,0,0:0:0:0:
64,192,56360,1,0,0:0:0:0:
448,192,56428,1,0,0:0:0:0:
192,192,56496,1,0,0:0:0:0:
320,192,56565,1,0,0:0:0:0:
64,192,56565,1,0,0:0:0:0:
448,192,56633,1,0,0:0:0:0:
192,192,56701,1,0,0:0:0:0:
320,192,56769,1,0,0:0:0:0:
64,192,56837,1,0,0:0:0:0:
448,192,56837,1,0,0:0:0:0:
192,192,56905,1,0,0:0:0:0:
320,192,56974,1,0,0:0:0:0:
64,192,56974,1,0,0:0:0:0:
448,192,57042,1,0,0:0:0:0:
192,192,57042,1,0,0:0:0:0:
320,192,57178,1,0,0:0:0:0:
64,192,57178,1,0,0:0:0:0:
192,192,57246,1,0,0:0:0:0:
448,192,57246,1,0,0:0:0:0:
64,192,57315,1,0,0:0:0:0:
320,192,57383,1,0,0:0:0:0:
192,192,57383,1,0,0:0:0:0:
448,192,57451,1,0,0:0:0:0:
64,192,57451,1,0,0:0:0:0:
320,192,58542,1,0,0:0:0:0:
64,192,58746,1,0,0:0:0:0:
448,192,58883,1,0,0:0:0:0:
192,192,58883,1,0,0:0:0:0:
320,192,58883,1,0,0:0:0:0:
64,192,58951,1,0,0:0:0:0:
448,192,59019,1,0,0:0:0:0:
192,192,59087,1,0,0:0:0:0:
320,192,59087,1,0,0:0:0:0:
64,192,59155,1,0,0:0:0:0:
448,192,59224,1,0,0:0:0:0:
192,192,59224,1,0,0:0:0:0:
320,192,59292,1,0,0:0:0:0:
64,192,59360,1,0,0:0:0:0:
448,192,59428,1,0,0:0:0:0:
192,192,59428,1,0,0:0:0:0:
64,192,59496,1,0,0:0:0:0:
320,192,59496,1,0,0:0:0:0:
192,192,59633,1,0,0:0:0:0:
448,192,59633,1,0,0:0:0:0:
64,192,59701,1,0,0:0:0:0:
320,192,59701,1,0,0:0:0:0:
192,192,59769,1,0,0:0:0:0:
64,192,59905,1,0,0:0:0:0:
192,192,59974,1,0,0:0:0:0:
320,192,59974,1,0,0:0:0:0:
64,192,60042,1,0,0:0:0:0:
448,192,60042,1,0,0:0:0:0:
192,192,60178,1,0,0:0:0:0:
320,192,60178,1,0,0:0:0:0:
64,192,60246,1,0,0:0:0:0:
448,192,60315,1,0,0:0:0:0:
192,192,60383,1,0,0:0:0:0:
320,192,60451,1,0,0:0:0:0:
64,192,60451,1,0,0:0:0:0:
448,192,60519,1,0,0:0:0:0:
320,192,60655,1,0,0:0:0:0:
320,192,60860,1,0,0:0:0:0:
64,192,60996,1,0,0:0:0:0:
448,192,60996,1,0,0:0:0:0:
192,192,61133,1,0,0:0:0:0:
64,192,61201,1,0,0:0:0:0:
320,192,61269,1,0,0:0:0:0:
192,192,61337,1,0,0:0:0:0:
448,192,61337,1,0,0:0:0:0:
320,192,61405,1,0,0:0:0:0:
64,192,61405,1,0,0:0:0:0:
448,192,61474,1,0,0:0:0:0:
192,192,61542,1,0,0:0:0:0:
64,192,61610,1,0,0:0:0:0:
320,192,61610,1,0,0:0:0:0:
448,192,61746,1,0,0:0:0:0:
192,192,61746,1,0,0:0:0:0:
64,192,61815,1,0,0:0:0:0:
320,192,61815,1,0,0:0:0:0:
192,192,61951,1,0,0:0:0:0:
64,192,62087,1,0,0:0:0:0:
320,192,62087,1,0,0:0:0:0:
448,192,62155,1,0,0:0:0:0:
192,192,62155,1,0,0:0:0:0:
64,192,62224,1,0,0:0:0:0:
320,192,62292,1,0,0:0:0:0:
448,192,62360,1,0,0:0:0:0:
320,192,62701,1,0,0:0:0:0:
64,192,62974,1,0,0:0:0:0:
448,192,63246,1,0,0:0:0:0:
448,192,63451,1,0,0:0:0:0:
448,192,63519,1,0,0:0:0:0:
192,192,63655,1,0,0:0:0:0:
320,192,63724,1,0,0:0:0:0:
64,192,63792,1,0,0:0:0:0:
448,192,63792,1,0,0:0:0:0:
192,192,63860,1,0,0:0:0:0:
320,192,63860,1,0,0:0:0:0:
64,192,63928,1,0,0:0:0:0:
448,192,63996,1,0,0:0:0:0:
192,192,64065,1,0,0:0:0:0:
320,192,64065,1,0,0:0:0:0:
64,192,64133,1,0,0:0:0:0:
448,192,64201,1,0,0:0:0:0:
192,192,64201,1,0,0:0:0:0:
320,192,64337,1,0,0:0:0:0:
64,192,64337,1,0,0:0:0:0:
448,192,64405,1,0,0:0:0:0:
192,192,64405,1,0,0:0:0:0:
64,192,64542,1,0,0:0:0:0:
320,192,64542,1,0,0:0:0:0:
192,192,64610,1,0,0:0:0:0:
448,192,64610,1,0,0:0:0:0:
64,192,64746,1,0,0:0:0:0:
320,192,64883,1,0,0:0:0:0:
192,192,65019,1,0,0:0:0:0:
448,192,65087,1,0,0:0:0:0:
64,192,65087,1,0,0:0:0:0:
320,192,65155,1,0,0:0:0:0:
192,192,65224,1,0,0:0:0:0:
448,192,65292,1,0,0:0:0:0:
64,192,65292,1,0,0:0:0:0:
320,192,65428,1,0,0:0:0:0:
192,192,65428,1,0,0:0:0:0:
448,192,65496,1,0,0:0:0:0:
320,192,65633,1,0,0:0:0:0:
192,192,65633,1,0,0:0:0:0:
448,192,65701,1,0,0:0:0:0:
64,192,65769,1,0,0:0:0:0:
320,192,65837,1,0,0:0:0:0:
64,192,65905,1,0,0:0:0:0:
448,192,65905,1,0,0:0:0:0:
192,192,66042,1,0,0:0:0:0:
320,192,66042,1,0,0:0:0:0:
64,192,66178,1,0,0:0:0:0:
448,192,66178,1,0,0:0:0:0:
192,192,66246,1,0,0:0:0:0:
320,192,66315,1,0,0:0:0:0:
64,192,66315,1,0,0:0:0:0:
448,192,66383,1,0,0:0:0:0:
192,192,66451,1,0,0:0:0:0:
320,192,66451,1,0,0:0:0:0:
64,192,66519,1,0,0:0:0:0:
448,192,66587,1,0,0:0:0:0:
192,192,66655,1,0,0:0:0:0:
320,192,66655,1,0,0:0:0:0:
64,192,66724,1,0,0:0:0:0:
192,192,66724,1,0,0:0:0:0:
448,192,66792,1,0,0:0:0:0:
320,192,67065,1,0,0:0:0:0:
320,192,67133,1,0,0:0:0:0:
64,192,67269,1,0,0:0:0:0:
448,192,67405,1,0,0:0:0:0:
448,192,67542,1,0,0:0:0:0:
448,192,67678,1,0,0:0:0:0:
192,192,67815,1,0,0:0:0:0:
320,192,67951,1,0,0:0:0:0:
320,192,68087,1,0,0:0:0:0:
320,192,68224,1,0,0:0:0:0:
64,192,68292,1,0,0:0:0:0:
192,192,68428,1,0,0:0:0:0:
320,192,68428,1,0,0:0:0:0:
64,192,68496,1,0,0:0:0:0:
448,192,68496,1,0,0:0:0:0:
192,192,68565,1,0,0:0:0:0:
320,192,68633,1,0,0:0:0:0:
64,192,68633,1,0,0:0:0:0:
448,192,68701,1,0,0:0:0:0:
192,192,68701,1,0,0:0:0:0:
64,192,68837,1,0,0:0:0:0:
320,192,68837,1,0,0:0:0:0:
448,192,68905,1,0,0:0:0:0:
192,192,68905,1,0,0:0:0:0:
320,192,69042,1,0,0:0:0:0:
64,192,69042,1,0,0:0:0:0:
448,192,69110,1,0,0:0:0:0:
192,192,69110,1,0,0:0:0:0:
320,192,69178,1,0,0:0:0:0:
64,192,69246,1,0,0:0:0:0:
448,192,69315,1,0,0:0:0:0:
192,192,69315,1,0,0:0:0:0:
320,192,69383,1,0,0:0:0:0:
64,192,69451,1,0,0:0:0:0:
448,192,69519,1,0,0:0:0:0:
192,192,69519,1,0,0:0:0:0:
64,192,69587,1,0,0:0:0:0:
320,192,69587,1,0,0:0:0:0:
192,192,69724,1,0,0:0:0:0:
448,192,69724,1,0,0:0:0:0:
64,192,69792,1,0,0:0:0:0:
320,192,69860,1,0,0:0:0:0:
192,192,69860,1,0,0:0:0:0:
448,192,69928,1,0,0:0:0:0:
64,192,69996,1,0,0:0:0:0:
320,192,70065,1,0,0:0:0:0:
192,192,70065,1,0,0:0:0:0:
64,192,70133,1,0,0:0:0:0:
448,192,70133,1,0,0:0:0:0:
320,192,70269,1,0,0:0:0:0:
192,192,70269,1,0,0:0:0:0:
64,192,70337,1,0,0:0:0:0:
448,192,70405,1,0,0:0:0:0:
320,192,70474,1,0,0:0:0:0:
192,192,70474,1,0,0:0:0:0:
64,192,70542,1,0,0:0:0:0:
448,192,70542,1,0,0:0:0:0:
192,192,70678,1,0,0:0:0:0:
320,192,70678,1,0,0:0:0:0:
64,192,70746,1,0,0:0:0:0:
448,192,70746,1,0,0:0:0:0:
192,192,70883,1,0,0:0:0:0:
320,192,70883,1,0,0:0:0:0:
64,192,70951,1,0,0:0:0:0:
448,192,70951,1,0,0:0:0:0:
320,192,71087,1,0,0:0:0:0:
320,192,71292,1,0,0:0:0:0:
320,192,71428,1,0,0:0:0:0:
64,192,71565,1,0,0:0:0:0:
448,192,71633,1,0,0:0:0:0:
448,192,71769,1,0,0:0:0:0:
448,192,71905,1,0,0:0:0:0:
192,192,72042,1,0,0:0:0:0:
64,192,72178,1,0,0:0:0:0:
192,192,72246,1,0,0:0:0:0:
320,192,72246,1,0,0:0:0:0:
64,192,72315,1,0,0:0:0:0:
448,192,72315,1,0,0:0:0:0:
192,192,72451,1,0,0:0:0:0:
320,192,72451,1,0,0:0:0:0:
64,192,72519,1,0,0:0:0:0:
448,192,72519,1,0,0:0:0:0:
192,192,72587,1,0,0:0:0:0:
320,192,72655,1,0,0:0:0:0:
64,192,72724,1,0,0:0:0:0:
192,192,72792,1,0,0:0:0:0:
320,192,72860,1,0,0:0:0:0:
64,192,72928,1,0,0:0:0:0:
448,192,72928,1,0,0:0:0:0:
192,192,72996,1,0,0:0:0:0:
320,192,73065,1,0,0:0:0:0:
64,192,73133,1,0,0:0:0:0:
448,192,73133,1,0,0:0:0:0:
192,192,73201,1,0,0:0:0:0:
64,192,73337,1,0,0:0:0:0:
320,192,73337,1,0,0:0:0:0:
448,192,73405,1,0,0:0:0:0:
192,192,73405,1,0,0:0:0:0:
64,192,73474,1,0,0:0:0:0:
320,192,73474,1,0,0:0:0:0:
192,192,73610,1,0,0:0:0:0:
448,192,73610,1,0,0:0:0:0:
64,192,73678,1,0,0:0:0:0:
320,192,73746,1,0,0:0:0:0:
192,192,73815,1,0,0:0:0:0:
448,192,73815,1,0,0:0:0:0:
64,192,73883,1,0,0:0:0:0:
192,192,73951,1,0,0:0:0:0:
320,192,73951,1,0,0:0:0:0:
64,192,74019,1,0,0:0:0:0:
320,192,74155,1,0,0:0:0:0:
320,192,74360,1,0,0:0:0:0:
320,192,74496,1,0,0:0:0:0:
64,192,74633,1,0,0:0:0:0:
448,192,74701,1,0,0:0:0:0:
192,192,74769,1,0,0:0:0:0:
64,192,74905,1,0,0:0:0:0:
320,192,74905,1,0,0:0:0:0:
192,192,74974,1,0,0:0:0:0:
448,192,74974,1,0,0:0:0:0:
64,192,75042,1,0,0:0:0:0:
320,192,75110,1,0,0:0:0:0:
192,192,75178,1,0,0:0:0:0:
448,192,75178,1,0,0:0:0:0:
64,192,75246,1,0,0:0:0:0:
320,192,75252,1,0,0:0:0:0:
192,192,75388,1,0,0:0:0:0:
448,192,75388,1,0,0:0:0:0:
64,192,75524,1,0,0:0:0:0:
320,192,75524,1,0,0:0:0:0:
192,192,75524,1,0,0:0:0:0:
448,192,75592,1,0,0:0:0:0:
64,192,75661,1,0,0:0:0:0:
192,192,75729,1,0,0:0:0:0:
320,192,75729,1,0,0:0:0:0:
64,192,75865,1,0,0:0:0:0:
448,192,75865,1,0,0:0:0:0:
192,192,75933,1,0,0:0:0:0:
320,192,76002,1,0,0:0:0:0:
64,192,76070,1,0,0:0:0:0:
448,192,76070,1,0,0:0:0:0:
192,192,76206,1,0,0:0:0:0:
320,192,76206,1,0,0:0:0:0:
64,192,76274,1,0,0:0:0:0:
448,192,76274,1,0,0:0:0:0:
192,192,76411,1,0,0:0:0:0:
320,192,76411,1,0,0:0:0:0:
64,192,76479,1,0,0:0:0:0:
448,192,76479,1,0,0:0:0:0:
192,192,76547,1,0,0:0:0:0:
320,192,76615,1,0,0:0:0:0:
64,192,76683,1,0,0:0:0:0:
448,192,76683,1,0,0:0:0:0:
192,192,76752,1,0,0:0:0:0:
320,192,76820,1,0,0:0:0:0:
64,192,76820,1,0,0:0:0:0:
448,192,76888,1,0,0:0:0:0:
192,192,76956,1,0,0:0:0:0:
320,192,77365,1,0,0:0:0:0:
64,192,77638,1,0,0:0:0:0:
448,192,77911,1,0,0:0:0:0:
448,192,78047,1,0,0:0:0:0:
448,192,78115,1,0,0:0:0:0:
192,192,78252,1,0,0:0:0:0:
320,192,78388,1,0,0:0:0:0:
320,192,78592,1,0,0:0:0:0:
192,192,78797,1,0,0:0:0:0:
64,192,78865,1,0,0:0:0:0:
320,192,78933,1,0,0:0:0:0:
192,192,78933,1,0,0:0:0:0:
448,192,79002,1,0,0:0:0:0:
64,192,79002,1,0,0:0:0:0:
320,192,79070,1,0,0:0:0:0:
192,192,79138,1,0,0:0:0:0:
448,192,79206,1,0,0:0:0:0:
64,192,79206,1,0,0:0:0:0:
320,192,79342,1,0,0:0:0:0:
192,192,79342,1,0,0:0:0:0:
64,192,79411,1,0,0:0:0:0:
448,192,79411,1,0,0:0:0:0:
192,192,79547,1,0,0:0:0:0:
320,192,79547,1,0,0:0:0:0:
64,192,79615,1,0,0:0:0:0:
448,192,79683,1,0,0:0:0:0:
192,192,79752,1,0,0:0:0:0:
320,192,79820,1,0,0:0:0:0:
64,192,79820,1,0,0:0:0:0:
448,192,79888,1,0,0:0:0:0:
320,192,80024,1,0,0:0:0:0:
192,192,80092,1,0,0:0:0:0:
64,192,80161,1,0,0:0:0:0:
320,192,80297,1,0,0:0:0:0:
192,192,80297,1,0,0:0:0:0:
448,192,80365,1,0,0:0:0:0:
64,192,80365,1,0,0:0:0:0:
192,192,80502,1,0,0:0:0:0:
320,192,80502,1,0,0:0:0:0:
64,192,80638,1,0,0:0:0:0:
448,192,80638,1,0,0:0:0:0:
192,192,80706,1,0,0:0:0:0:
320,192,80774,1,0,0:0:0:0:
64,192,80842,1,0,0:0:0:0:
448,192,80842,1,0,0:0:0:0:
192,192,80979,1,0,0:0:0:0:
320,192,81047,1,0,0:0:0:0:
64,192,81047,1,0,0:0:0:0:
448,192,81115,1,0,0:0:0:0:
192,192,81183,1,0,0:0:0:0:
320,192,81456,1,0,0:0:0:0:
64,192,81797,1,0,0:0:0:0:
448,192,82070,1,0,0:0:0:0:
448,192,82274,1,0,0:0:0:0:
448,192,82411,1,0,0:0:0:0:
192,192,82547,1,0,0:0:0:0:
64,192,82615,1,0,0:0:0:0:
320,192,82615,1,0,0:0:0:0:
448,192,82683,1,0,0:0:0:0:
192,192,82683,1,0,0:0:0:0:
64,192,82752,1,0,0:0:0:0:
320,192,82820,1,0,0:0:0:0:
192,192,82888,1,0,0:0:0:0:
64,192,83024,1,0,0:0:0:0:
320,192,83024,1,0,0:0:0:0:
192,192,83092,1,0,0:0:0:0:
64,192,83161,1,0,0:0:0:0:
448,192,83161,1,0,0:0:0:0:
320,192,83570,1,0,0:0:0:0:
64,192,83774,1,0,0:0:0:0:
448,192,84115,1,0,0:0:0:0:
192,192,84320,1,0,0:0:0:0:
320,192,84661,1,0,0:0:0:0:
192,192,84729,1,0,0:0:0:0:
448,192,84797,1,0,0:0:0:0:
64,192,84865,1,0,0:0:0:0:
320,192,84865,1,0,0:0:0:0:
192,192,84933,1,0,0:0:0:0:
448,192,85002,1,0,0:0:0:0:
64,192,85002,1,0,0:0:0:0:
320,192,85070,1,0,0:0:0:0:
192,192,85138,1,0,0:0:0:0:
448,192,85138,1,0,0:0:0:0:
64,192,85206,1,0,0:0:0:0:
320,192,85615,1,0,0:0:0:0:
320,192,85752,1,0,0:0:0:0:
192,192,85752,1,0,0:0:0:0:
448,192,85820,1,0,0:0:0:0:
64,192,85888,1,0,0:0:0:0:
320,192,86092,1,0,0:0:0:0:
448,192,86092,1,0,0:0:0:0:
64,192,86092,1,0,0:0:0:0:
192,192,86092,1,0,0:0:0:0:
320,192,86229,1,0,0:0:0:0:
64,192,86229,1,0,0:0:0:0:
448,192,86229,1,0,0:0:0:0:
192,192,86229,1,0,0:0:0:0:
320,192,86502,1,0,0:0:0:0:
64,192,86638,1,0,0:0:0:0:
448,192,86842,1,0,0:0:0:0:
448,192,86979,1,0,0:0:0:0:
448,192,87115,1,0,0:0:0:0:
192,192,87183,1,0,0:0:0:0:
320,192,87388,1,0,0:0:0:0:
64,192,87592,1,0,0:0:0:0:
448,192,87797,1,0,0:0:0:0:
448,192,87933,1,0,0:0:0:0:
192,192,88138,1,0,0:0:0:0:
64,192,88138,1,0,0:0:0:0:
320,192,88206,1,0,0:0:0:0:
192,192,88274,1,0,0:0:0:0:
448,192,88274,1,0,0:0:0:0:
64,192,88342,1,0,0:0:0:0:
320,192,88411,1,0,0:0:0:0:
192,192,88479,1,0,0:0:0:0:
448,192,88479,1,0,0:0:0:0:
64,192,88547,1,0,0:0:0:0:
320,192,88615,1,0,0:0:0:0:
192,192,88683,1,0,0:0:0:0:
448,192,88683,1,0,0:0:0:0:
64,192,88752,1,0,0:0:0:0:
192,192,88820,1,0,0:0:0:0:
320,192,88888,1,0,0:0:0:0:
64,192,88888,1,0,0:0:0:0:
448,192,88956,1,0,0:0:0:0:
192,192,89024,1,0,0:0:0:0:
320,192,89092,1,0,0:0:0:0:
64,192,89092,1,0,0:0:0:0:
448,192,89161,1,0,0:0:0:0:
192,192,89229,1,0,0:0:0:0:
320,192,89297,1,0,0:0:0:0:
64,192,89365,1,0,0:0:0:0:
448,192,89365,1,0,0:0:0:0:
64,192,89433,1,0,0:0:0:0:
320,192,89842,1,0,0:0:0:0:
320,192,90047,1,0,0:0:0:0:
64,192,90252,1,0,0:0:0:0:
320,192,90320,1,0,0:0:0:0:
192,192,90388,1,0,0:0:0:0:
448,192,90388,1,0,0:0:0:0:
64,192,90456,1,0,0:0:0:0:
192,192,90524,1,0,0:0:0:0:
320,192,90524,1,0,0:0:0:0:
64,192,90592,1,0,0:0:0:0:
448,192,90592,1,0,0:0:0:0:
192,192,90729,1,0,0:0:0:0:
320,192,90729,1,0,0:0:0:0:
64,192,90865,1,0,0:0:0:0:
448,192,90865,1,0,0:0:0:0:
192,192,90933,1,0,0:0:0:0:
320,192,91002,1,0,0:0:0:0:
64,192,91002,1,0,0:0:0:0:
448,192,91070,1,0,0:0:0:0:
192,192,91138,1,0,0:0:0:0:
320,192,91206,1,0,0:0:0:0:
64,192,91206,1,0,0:0:0:0:
448,192,91274,1,0,0:0:0:0:
192,192,91342,1,0,0:0:0:0:
320,192,91411,1,0,0:0:0:0:
64,192,91411,1,0,0:0:0:0:
448,192,91411,1,0,0:0:0:0:
192,192,91547,1,0,0:0:0:0:
320,192,91547,1,0,0:0:0:0:
64,192,91615,1,0,0:0:0:0:
448,192,91615,1,0,0:0:0:0:
320,192,91956,1,0,0:0:0:0:
64,192,92092,1,0,0:0:0:0:
448,192,92297,1,0,0:0:0:0:
448,192,92502,1,0,0:0:0:0:
192,192,92638,1,0,0:0:0:0:
320,192,92842,1,0,0:0:0:0:
320,192,93047,1,0,0:0:0:0:
64,192,93183,1,0,0:0:0:0:
448,192,93388,1,0,0:0:0:0:
448,192,93592,1,0,0:0:0:0:
192,192,93797,1,0,0:0:0:0:
320,192,94002,1,0,0:0:0:0:
448,192,94138,1,0,0:0:0:0:
192,192,94138,1,0,0:0:0:0:
64,192,94274,1,0,0:0:0:0:
320,192,94274,1,0,0:0:0:0:
448,192,94342,1,0,0:0:0:0:
192,192,94342,1,0,0:0:0:0:
64,192,94479,1,0,0:0:0:0:
320,192,94479,1,0,0:0:0:0:
192,192,94547,1,0,0:0:0:0:
448,192,94547,1,0,0:0:0:0:
64,192,94615,1,0,0:0:0:0:
320,192,94683,1,0,0:0:0:0:
448,192,94752,1,0,0:0:0:0:
64,192,94820,1,0,0:0:0:0:
192,192,94888,1,0,0:0:0:0:
320,192,94956,1,0,0:0:0:0:
64,192,95024,1,0,0:0:0:0:
448,192,95024,1,0,0:0:0:0:
192,192,95092,1,0,0:0:0:0:
320,192,95161,1,0,0:0:0:0:
64,192,95229,1,0,0:0:0:0:
448,192,95229,1,0,0:0:0:0:
192,192,95297,1,0,0:0:0:0:
320,192,95365,1,0,0:0:0:0:
64,192,95433,1,0,0:0:0:0:
448,192,95502,1,0,0:0:0:0:
192,192,95502,1,0,0:0:0:0:
320,192,95638,1,0,0:0:0:0:
64,192,95638,1,0,0:0:0:0:
448,192,95706,1,0,0:0:0:0:
192,192,95706,1,0,0:0:0:0:
64,192,95774,1,0,0:0:0:0:
320,192,95842,1,0,0:0:0:0:
192,192,95911,1,0,0:0:0:0:
448,192,95979,1,0,0:0:0:0:
64,192,95979,1,0,0:0:0:0:
320,192,96183,1,0,0:0:0:0:
320,192,96388,1,0,0:0:0:0:
64,192,96456,1,0,0:0:0:0:
448,192,96592,1,0,0:0:0:0:
192,192,96797,1,0,0:0:0:0:
320,192,96933,1,0,0:0:0:0:
64,192,97070,1,0,0:0:0:0:
448,192,97274,1,0,0:0:0:0:
448,192,97411,1,0,0:0:0:0:
192,192,97547,1,0,0:0:0:0:
320,192,97683,1,0,0:0:0:0:
192,192,97820,1,0,0:0:0:0:
64,192,97888,1,0,0:0:0:0:
320,192,97956,1,0,0:0:0:0:
192,192,98024,1,0,0:0:0:0:
64,192,98092,1,0,0:0:0:0:
320,192,98161,1,0,0:0:0:0:
192,192,98229,1,0,0:0:0:0:
448,192,98229,1,0,0:0:0:0:
64,192,98297,1,0,0:0:0:0:
320,192,98365,1,0,0:0:0:0:
192,192,98433,1,0,0:0:0:0:
448,192,98502,1,0,0:0:0:0:
64,192,98502,1,0,0:0:0:0:
192,192,98638,1,0,0:0:0:0:
320,192,98638,1,0,0:0:0:0:
64,192,98706,1,0,0:0:0:0:
448,192,98706,1,0,0:0:0:0:
192,192,98774,1,0,0:0:0:0:
320,192,98842,1,0,0:0:0:0:
64,192,98911,1,0,0:0:0:0:
448,192,98911,1,0,0:0:0:0:
192,192,98979,1,0,0:0:0:0:
320,192,99047,1,0,0:0:0:0:
64,192,99115,1,0,0:0:0:0:
448,192,99183,1,0,0:0:0:0:
192,192,99183,1,0,0:0:0:0:
320,192,99252,1,0,0:0:0:0:
64,192,99320,1,0,0:0:0:0:
448,192,99388,1,0,0:0:0:0:
192,192,99388,1,0,0:0:0:0:
64,192,99524,1,0,0:0:0:0:
320,192,99524,1,0,0:0:0:0:
192,192,99592,1,0,0:0:0:0:
448,192,99661,1,0,0:0:0:0:
64,192,99661,1,0,0:0:0:0:
320,192,99729,1,0,0:0:0:0:
192,192,99797,1,0,0:0:0:0:
448,192,99865,1,0,0:0:0:0:
64,192,99865,1,0,0:0:0:0:
320,192,100274,1,0,0:0:0:0:
64,192,100547,1,0,0:0:0:0:
448,192,100820,1,0,0:0:0:0:
448,192,101024,1,0,0:0:0:0:
448,192,101161,1,0,0:0:0:0:
192,192,101297,1,0,0:0:0:0:
64,192,101365,1,0,0:0:0:0:
320,192,101433,1,0,0:0:0:0:
192,192,101433,1,0,0:0:0:0:
448,192,101502,1,0,0:0:0:0:
64,192,101570,1,0,0:0:0:0:
320,192,101570,1,0,0:0:0:0:
192,192,101706,1,0,0:0:0:0:
448,192,101706,1,0,0:0:0:0:
64,192,101774,1,0,0:0:0:0:
320,192,101842,1,0,0:0:0:0:
192,192,101842,1,0,0:0:0:0:
448,192,101911,1,0,0:0:0:0:
64,192,101979,1,0,0:0:0:0:
192,192,102047,1,0,0:0:0:0:
320,192,102047,1,0,0:0:0:0:
64,192,102115,1,0,0:0:0:0:
448,192,102183,1,0,0:0:0:0:
320,192,102388,1,0,0:0:0:0:
320,192,102592,1,0,0:0:0:0:
64,192,102729,1,0,0:0:0:0:
448,192,102865,1,0,0:0:0:0:
320,192,103002,1,0,0:0:0:0:
448,192,103070,1,0,0:0:0:0:
64,192,103138,1,0,0:0:0:0:
320,192,103206,1,0,0:0:0:0:
192,192,103274,1,0,0:0:0:0:
448,192,103274,1,0,0:0:0:0:
64,192,103342,1,0,0:0:0:0:
192,192,103411,1,0,0:0:0:0:
320,192,103411,1,0,0:0:0:0:
64,192,103547,1,0,0:0:0:0:
448,192,103547,1,0,0:0:0:0:
192,192,103683,1,0,0:0:0:0:
320,192,103683,1,0,0:0:0:0:
64,192,103752,1,0,0:0:0:0:
448,192,103820,1,0,0:0:0:0:
192,192,103820,1,0,0:0:0:0:
320,192,103888,1,0,0:0:0:0:
64,192,103956,1,0,0:0:0:0:
192,192,103956,1,0,0:0:0:0:
448,192,103956,1,0,0:0:0:0:
64,192,104092,1,0,0:0:0:0:
320,192,104502,1,0,0:0:0:0:
64,192,104638,1,0,0:0:0:0:
448,192,104842,1,0,0:0:0:0:
448,192,105047,1,0,0:0:0:0:
192,192,105183,1,0,0:0:0:0:
320,192,105320,1,0,0:0:0:0:
320,192,105456,1,0,0:0:0:0:
320,192,105592,1,0,0:0:0:0:
64,192,105797,1,0,0:0:0:0:
448,192,105933,1,0,0:0:0:0:
448,192,106138,1,0,0:0:0:0:
448,192,106342,1,0,0:0:0:0:
448,192,106479,1,0,0:0:0:0:
64,192,106615,1,0,0:0:0:0:
320,192,107024,1,0,0:0:0:0:
64,192,107161,1,0,0:0:0:0:
320,192,107502,1,0,0:0:0:0:
64,192,107638,1,0,0:0:0:0:
320,192,107911,1,0,0:0:0:0:
64,192,108115,1,0,0:0:0:0:
320,192,108388,1,0,0:0:0:0:
320,192,108661,1,0,0:0:0:0:
64,192,109070,1,0,0:0:0:0:
448,192,109274,1,0,0:0:0:0:
192,192,109342,1,0,0:0:0:0:
320,192,109547,1,0,0:0:0:0:
320,192,110161,1,0,0:0:0:0:
320,192,110638,1,0,0:0:0:0:
64,192,110638,1,0,0:0:0:0:
448,192,110706,1,0,0:0:0:0:
192,192,110774,1,0,0:0:0:0:
320,192,110842,1,0,0:0:0:0:
64,192,110842,1,0,0:0:0:0:
448,192,110911,1,0,0:0:0:0:
192,192,110911,1,0,0:0:0:0:
320,192,110979,1,0,0:0:0:0:
64,192,111047,1,0,0:0:0:0:
448,192,111115,1,0,0:0:0:0:
192,192,111115,1,0,0:0:0:0:
64,192,111252,1,0,0:0:0:0:
320,192,111252,1,0,0:0:0:0:
192,192,111388,1,0,0:0:0:0:
64,192,111456,1,0,0:0:0:0:
192,192,111524,1,0,0:0:0:0:
320,192,111524,1,0,0:0:0:0:
448,192,111592,1,0,0:0:0:0:
64,192,111592,1,0,0:0:0:0:
192,192,111661,1,0,0:0:0:0:
320,192,111661,1,0,0:0:0:0:
64,192,111797,1,0,0:0:0:0:
448,192,111797,1,0,0:0:0:0:
192,192,111865,1,0,0:0:0:0:
320,192,111865,1,0,0:0:0:0:
64,192,112002,1,0,0:0:0:0:
448,192,112002,1,0,0:0:0:0:
192,192,112138,1,0,0:0:0:0:
320,192,112138,1,0,0:0:0:0:
64,192,112206,1,0,0:0:0:0:
448,192,112206,1,0,0:0:0:0:
192,192,112274,1,0,0:0:0:0:
320,192,112342,1,0,0:0:0:0:
64,192,112411,1,0,0:0:0:0:
448,192,112479,1,0,0:0:0:0:
192,192,112479,128,0,112820:0:0:0:0:
320,192,112547,1,0,0:0:0:0:
64,192,112615,1,0,0:0:0:0:
448,192,112683,1,0,0:0:0:0:
320,192,112888,1,0,0:0:0:0:
320,192,113024,1,0,0:0:0:0:
64,192,113092,1,0,0:0:0:0:
448,192,113229,1,0,0:0:0:0:
448,192,113365,1,0,0:0:0:0:
192,192,113502,1,0,0:0:0:0:
320,192,113638,1,0,0:0:0:0:
448,192,113706,1,0,0:0:0:0:
192,192,113706,1,0,0:0:0:0:
320,192,113774,1,0,0:0:0:0:
64,192,113774,1,0,0:0:0:0:
448,192,113842,128,0,114320:0:0:0:0:
192,192,113911,1,0,0:0:0:0:
64,192,113979,1,0,0:0:0:0:
320,192,114047,1,0,0:0:0:0:
192,192,114115,1,0,0:0:0:0:
64,192,114183,1,0,0:0:0:0:
192,192,114252,1,0,0:0:0:0:
64,192,114320,1,0,0:0:0:0:
192,192,114456,1,0,0:0:0:0:
64,192,114524,1,0,0:0:0:0:
192,192,114661,1,0,0:0:0:0:
64,192,114729,1,0,0:0:0:0:
192,192,114865,1,0,0:0:0:0:
64,192,114933,1,0,0:0:0:0:
320,192,115002,1,0,0:0:0:0:
64,192,115070,128,0,116092:0:0:0:0:
320,192,115274,1,0,0:0:0:0:
320,192,115411,1,0,0:0:0:0:
448,192,115411,1,0,0:0:0:0:
192,192,115479,1,0,0:0:0:0:
320,192,115547,1,0,0:0:0:0:
448,192,115683,1,0,0:0:0:0:
192,192,115683,1,0,0:0:0:0:
320,192,115820,1,0,0:0:0:0:
448,192,115888,1,0,0:0:0:0:
192,192,115888,1,0,0:0:0:0:
320,192,115956,1,0,0:0:0:0:
448,192,116092,1,0,0:0:0:0:
320,192,116229,1,0,0:0:0:0:
320,192,116365,1,0,0:0:0:0:
192,192,116433,1,0,0:0:0:0:
64,192,116502,1,0,0:0:0:0:
448,192,116502,1,0,0:0:0:0:
192,192,116570,1,0,0:0:0:0:
320,192,116570,1,0,0:0:0:0:
64,192,116706,1,0,0:0:0:0:
448,192,116706,128,0,117797:0:0:0:0:
320,192,116842,1,0,0:0:0:0:
192,192,116911,1,0,0:0:0:0:
192,192,117115,1,0,0:0:0:0:
192,192,117320,1,0,0:0:0:0:
320,192,117388,1,0,0:0:0:0:
192,192,117524,1,0,0:0:0:0:
64,192,117524,1,0,0:0:0:0:
320,192,117592,1,0,0:0:0:0:
192,192,117661,1,0,0:0:0:0:
64,192,117729,1,0,0:0:0:0:
320,192,117797,1,0,0:0:0:0:
192,192,117797,1,0,0:0:0:0:
448,192,117865,1,0,0:0:0:0:
64,192,117865,1,0,0:0:0:0:
192,192,118002,1,0,0:0:0:0:
320,192,118002,1,0,0:0:0:0:
448,192,118070,1,0,0:0:0:0:
64,192,118138,1,0,0:0:0:0:
192,192,118206,1,0,0:0:0:0:
320,192,118206,1,0,0:0:0:0:
64,192,118274,1,0,0:0:0:0:
448,192,118274,1,0,0:0:0:0:
192,192,118411,1,0,0:0:0:0:
320,192,118411,1,0,0:0:0:0:
448,192,118479,1,0,0:0:0:0:
64,192,118547,1,0,0:0:0:0:
320,192,118615,1,0,0:0:0:0:
192,192,118615,1,0,0:0:0:0:
64,192,118752,1,0,0:0:0:0:
448,192,118752,1,0,0:0:0:0:
192,192,118820,1,0,0:0:0:0:
320,192,118820,1,0,0:0:0:0:
64,192,118888,1,0,0:0:0:0:
448,192,118956,1,0,0:0:0:0:
320,192,119092,1,0,0:0:0:0:
320,192,119297,1,0,0:0:0:0:
64,192,119365,1,0,0:0:0:0:
448,192,119433,1,0,0:0:0:0:
448,192,119638,1,0,0:0:0:0:
448,192,119774,1,0,0:0:0:0:
192,192,119911,1,0,0:0:0:0:
320,192,120047,1,0,0:0:0:0:
64,192,120183,1,0,0:0:0:0:
448,192,120320,1,0,0:0:0:0:
448,192,120524,1,0,0:0:0:0:
192,192,120661,1,0,0:0:0:0:
448,192,120661,1,0,0:0:0:0:
320,192,120933,1,0,0:0:0:0:
320,192,121274,1,0,0:0:0:0:
448,192,121411,1,0,0:0:0:0:
192,192,121479,1,0,0:0:0:0:
64,192,121479,1,0,0:0:0:0:
320,192,121547,1,0,0:0:0:0:
192,192,121615,1,0,0:0:0:0:
448,192,121615,1,0,0:0:0:0:
64,192,121683,1,0,0:0:0:0:
320,192,121752,1,0,0:0:0:0:
192,192,121752,1,0,0:0:0:0:
64,192,121820,1,0,0:0:0:0:
448,192,121888,1,0,0:0:0:0:
320,192,122092,1,0,0:0:0:0:
320,192,122229,1,0,0:0:0:0:
64,192,122365,1,0,0:0:0:0:
448,192,122502,1,0,0:0:0:0:
192,192,122638,1,0,0:0:0:0:
448,192,122706,1,0,0:0:0:0:
192,192,122911,1,0,0:0:0:0:
448,192,123115,1,0,0:0:0:0:
192,192,123252,1,0,0:0:0:0:
448,192,123388,1,0,0:0:0:0:
192,192,123524,1,0,0:0:0:0:
448,192,123592,1,0,0:0:0:0:
192,192,123729,1,0,0:0:0:0:
448,192,123797,1,0,0:0:0:0:
192,192,123933,1,0,0:0:0:0:
448,192,123933,1,0,0:0:0:0:
192,192,124070,1,0,0:0:0:0:
448,192,124138,1,0,0:0:0:0:
448,192,124206,1,0,0:0:0:0:
192,192,124274,1,0,0:0:0:0:
320,192,124547,1,0,0:0:0:0:
64,192,124683,1,0,0:0:0:0:
192,192,124752,1,0,0:0:0:0:
320,192,124752,1,0,0:0:0:0:
64,192,124820,1,0,0:0:0:0:
448,192,124888,1,0,0:0:0:0:
192,192,124888,1,0,0:0:0:0:
320,192,124956,1,0,0:0:0:0:
64,192,125024,1,0,0:0:0:0:
448,192,125092,1,0,0:0:0:0:
192,192,125161,1,0,0:0:0:0:
320,192,125161,1,0,0:0:0:0:
64,192,125229,1,0,0:0:0:0:
192,192,125297,1,0,0:0:0:0:
448,192,125297,1,0,0:0:0:0:
64,192,125365,1,0,0:0:0:0:
320,192,125433,1,0,0:0:0:0:
192,192,125502,1,0,0:0:0:0:
448,192,125502,1,0,0:0:0:0:
64,192,125570,1,0,0:0:0:0:
192,192,125638,1,0,0:0:0:0:
320,192,125638,1,0,0:0:0:0:
448,192,125706,1,0,0:0:0:0:
64,192,125774,1,0,0:0:0:0:
192,192,125842,1,0,0:0:0:0:
320,192,125842,1,0,0:0:0:0:
448,192,125911,1,0,0:0:0:0:
64,192,125911,1,0,0:0:0:0:
192,192,126047,1,0,0:0:0:0:
320,192,126047,1,0,0:0:0:0:
64,192,126115,1,0,0:0:0:0:
448,192,126115,1,0,0:0:0:0:
192,192,126252,1,0,0:0:0:0:
320,192,126252,1,0,0:0:0:0:
64,192,126320,1,0,0:0:0:0:
448,192,126388,1,0,0:0:0:0:
192,192,126388,1,0,0:0:0:0:
64,192,126456,1,0,0:0:0:0:
320,192,126524,1,0,0:0:0:0:
192,192,126592,1,0,0:0:0:0:
448,192,126592,1,0,0:0:0:0:
64,192,126661,1,0,0:0:0:0:
320,192,126729,1,0,0:0:0:0:
192,192,126729,1,0,0:0:0:0:
448,192,126797,1,0,0:0:0:0:
64,192,126865,1,0,0:0:0:0:
192,192,126933,1,0,0:0:0:0:
320,192,126933,1,0,0:0:0:0:
448,192,127002,1,0,0:0:0:0:
64,192,127002,1,0,0:0:0:0:
320,192,127410,1,0,0:0:0:0:
64,192,127683,1,0,0:0:0:0:
448,192,127956,1,0,0:0:0:0:
448,192,128365,1,0,0:0:0:0:
448,192,128917,1,0,0:0:0:0:
448,192,129394,1,0,0:0:0:0:
64,192,129530,1,0,0:0:0:0:
320,192,129599,1,0,0:0:0:0:
320,192,129735,1,0,0:0:0:0:
320,192,130008,1,0,0:0:0:0:
64,192,130212,1,0,0:0:0:0:
448,192,130349,1,0,0:0:0:0:
448,192,130553,1,0,0:0:0:0:
448,192,130689,1,0,0:0:0:0:
192,192,130826,1,0,0:0:0:0:
320,192,131030,1,0,0:0:0:0:
64,192,131235,1,0,0:0:0:0:
448,192,131439,1,0,0:0:0:0:
448,192,131785,1,0,0:0:0:0:
192,192,132088,1,0,0:0:0:0:
320,192,132308,1,0,0:0:0:0:
320,192,132580,1,0,0:0:0:0:
64,192,132785,1,0,0:0:0:0:
448,192,132990,1,0,0:0:0:0:
448,192,133194,1,0,0:0:0:0:
448,192,133330,1,0,0:0:0:0:
192,192,133467,1,0,0:0:0:0:
320,192,133681,1,0,0:0:0:0:
64,192,133832,1,0,0:0:0:0:
448,192,134135,1,0,0:0:0:0:
192,192,134218,1,0,0:0:0:0:
448,192,134422,1,0,0:0:0:0:
192,192,134627,1,0,0:0:0:0:
320,192,134763,1,0,0:0:0:0:
64,192,134968,1,0,0:0:0:0:
448,192,135104,1,0,0:0:0:0:
192,192,135240,1,0,0:0:0:0:
320,192,135445,1,0,0:0:0:0:
64,192,135581,1,0,0:0:0:0:
448,192,135718,1,0,0:0:0:0:
192,192,135854,1,0,0:0:0:0:
448,192,136195,1,0,0:0:0:0:
448,192,136331,1,0,0:0:0:0:
192,192,136399,1,0,0:0:0:0:
64,192,136536,1,0,0:0:0:0:
320,192,136536,1,0,0:0:0:0:
192,192,136604,1,0,0:0:0:0:
448,192,136604,1,0,0:0:0:0:
64,192,136672,1,0,0:0:0:0:
320,192,136740,1,0,0:0:0:0:
192,192,136808,1,0,0:0:0:0:
448,192,136808,1,0,0:0:0:0:
64,192,136877,1,0,0:0:0:0:
192,192,137013,1,0,0:0:0:0:
320,192,137013,1,0,0:0:0:0:
448,192,137081,1,0,0:0:0:0:
64,192,137081,1,0,0:0:0:0:
192,192,137149,1,0,0:0:0:0:
320,192,137218,1,0,0:0:0:0:
64,192,137218,1,0,0:0:0:0:
448,192,137286,1,0,0:0:0:0:
192,192,137354,1,0,0:0:0:0:
64,192,137422,1,0,0:0:0:0:
320,192,137422,1,0,0:0:0:0:
192,192,137490,1,0,0:0:0:0:
448,192,137490,1,0,0:0:0:0:
320,192,137831,1,0,0:0:0:0:
320,192,137968,1,0,0:0:0:0:
64,192,138172,1,0,0:0:0:0:
448,192,138240,1,0,0:0:0:0:
448,192,138445,1,0,0:0:0:0:
448,192,138581,1,0,0:0:0:0:
192,192,138718,1,0,0:0:0:0:
320,192,138854,1,0,0:0:0:0:
320,192,139058,1,0,0:0:0:0:
64,192,139195,1,0,0:0:0:0:
448,192,139331,1,0,0:0:0:0:
320,192,152558,5,0,0:0:0:0:
320,192,154812,1,0,0:0:0:0:
64,192,155157,1,0,0:0:0:0:
448,192,155502,1,0,0:0:0:0:
448,192,155674,1,0,0:0:0:0:
192,192,155847,1,0,0:0:0:0:
320,192,156019,1,0,0:0:0:0:
64,192,156364,1,0,0:0:0:0:
448,192,156709,1,0,0:0:0:0:
448,192,156881,1,0,0:0:0:0:
192,192,157054,1,0,0:0:0:0:
320,192,157399,1,0,0:0:0:0:
320,192,157571,1,0,0:0:0:0:
64,192,157743,1,0,0:0:0:0:
448,192,157916,1,0,0:0:0:0:
448,192,158088,1,0,0:0:0:0:
192,192,158605,1,0,0:0:0:0:
320,192,158778,1,0,0:0:0:0:
64,192,158950,1,0,0:0:0:0:
448,192,159295,1,0,0:0:0:0:
192,192,159468,1,0,0:0:0:0:
320,192,159640,1,0,0:0:0:0:
64,192,159812,1,0,0:0:0:0:
320,192,159990,1,0,0:0:0:0:
192,192,160058,1,0,0:0:0:0:
448,192,160058,1,0,0:0:0:0:
64,192,160126,1,0,0:0:0:0:
320,192,160194,1,0,0:0:0:0:
192,192,160194,1,0,0:0:0:0:
448,192,160262,1,0,0:0:0:0:
64,192,160262,1,0,0:0:0:0:
320,192,160331,1,0,0:0:0:0:
192,192,160399,1,0,0:0:0:0:
64,192,160467,1,0,0:0:0:0:
448,192,160467,1,0,0:0:0:0:
192,192,160535,1,0,0:0:0:0:
320,192,160535,1,0,0:0:0:0:
64,192,160603,1,0,0:0:0:0:
448,192,160603,1,0,0:0:0:0:
320,192,160808,1,0,0:0:0:0:
320,192,160944,1,0,0:0:0:0:
64,192,161149,1,0,0:0:0:0:
448,192,161217,1,0,0:0:0:0:
448,192,161353,1,0,0:0:0:0:
192,192,161422,1,0,0:0:0:0:
320,192,161558,1,0,0:0:0:0:
192,192,161626,1,0,0:0:0:0:
448,192,161762,1,0,0:0:0:0:
192,192,161831,1,0,0:0:0:0:
320,192,161831,1,0,0:0:0:0:
64,192,161899,1,0,0:0:0:0:
448,192,161899,1,0,0:0:0:0:
192,192,161967,1,0,0:0:0:0:
320,192,162035,1,0,0:0:0:0:
64,192,162035,1,0,0:0:0:0:
448,192,162103,1,0,0:0:0:0:
192,192,162172,1,0,0:0:0:0:
64,192,162240,1,0,0:0:0:0:
320,192,162240,1,0,0:0:0:0:
192,192,162308,1,0,0:0:0:0:
448,192,162308,1,0,0:0:0:0:
64,192,162376,1,0,0:0:0:0:
320,192,162444,1,0,0:0:0:0:
64,192,162581,1,0,0:0:0:0:
448,192,162581,1,0,0:0:0:0:
192,192,162649,1,0,0:0:0:0:
320,192,162649,1,0,0:0:0:0:
64,192,162717,1,0,0:0:0:0:
448,192,162717,1,0,0:0:0:0:
320,192,162922,1,0,0:0:0:0:
64,192,163126,1,0,0:0:0:0:
448,192,163331,1,0,0:0:0:0:
448,192,163467,1,0,0:0:0:0:
448,192,163603,1,0,0:0:0:0:
192,192,163672,1,0,0:0:0:0:
320,192,163808,1,0,0:0:0:0:
320,192,164012,1,0,0:0:0:0:
64,192,164149,1,0,0:0:0:0:
448,192,164217,1,0,0:0:0:0:
192,192,164353,1,0,0:0:0:0:
320,192,164353,1,0,0:0:0:0:
64,192,164422,1,0,0:0:0:0:
448,192,164422,1,0,0:0:0:0:
192,192,164558,1,0,0:0:0:0:
320,192,164558,1,0,0:0:0:0:
64,192,164626,1,0,0:0:0:0:
448,192,164626,1,0,0:0:0:0:
192,192,164762,1,0,0:0:0:0:
320,192,164762,1,0,0:0:0:0:
64,192,164831,1,0,0:0:0:0:
448,192,164831,1,0,0:0:0:0:
192,192,164899,1,0,0:0:0:0:
320,192,164967,1,0,0:0:0:0:
64,192,165035,1,0,0:0:0:0:
448,192,165103,1,0,0:0:0:0:
320,192,165240,1,0,0:0:0:0:
320,192,165444,1,0,0:0:0:0:
64,192,165581,1,0,0:0:0:0:
192,192,165649,1,0,0:0:0:0:
320,192,165717,1,0,0:0:0:0:
64,192,165785,1,0,0:0:0:0:
448,192,165853,1,0,0:0:0:0:
192,192,165853,1,0,0:0:0:0:
320,192,165922,1,0,0:0:0:0:
64,192,165990,1,0,0:0:0:0:
448,192,165990,1,0,0:0:0:0:
192,192,166058,1,0,0:0:0:0:
320,192,166126,1,0,0:0:0:0:
64,192,166126,1,0,0:0:0:0:
448,192,166194,1,0,0:0:0:0:
192,192,166262,1,0,0:0:0:0:
320,192,166331,1,0,0:0:0:0:
64,192,166331,1,0,0:0:0:0:
448,192,166399,1,0,0:0:0:0:
192,192,166467,1,0,0:0:0:0:
320,192,166467,1,0,0:0:0:0:
64,192,166535,1,0,0:0:0:0:
448,192,166603,1,0,0:0:0:0:
192,192,166603,1,0,0:0:0:0:
64,192,166672,1,0,0:0:0:0:
320,192,166944,1,0,0:0:0:0:
320,192,167217,1,0,0:0:0:0:
64,192,167353,1,0,0:0:0:0:
320,192,167353,1,0,0:0:0:0:
448,192,167558,1,0,0:0:0:0:
448,192,167694,1,0,0:0:0:0:
448,192,167831,1,0,0:0:0:0:
192,192,167967,1,0,0:0:0:0:
320,192,168103,1,0,0:0:0:0:
64,192,168308,1,0,0:0:0:0:
448,192,168444,1,0,0:0:0:0:
192,192,168581,1,0,0:0:0:0:
320,192,168785,1,0,0:0:0:0:
64,192,168922,1,0,0:0:0:0:
448,192,169058,1,0,0:0:0:0:
448,192,169194,1,0,0:0:0:0:
448,192,169399,1,0,0:0:0:0:
192,192,169467,1,0,0:0:0:0:
320,192,169603,1,0,0:0:0:0:
320,192,169808,1,0,0:0:0:0:
448,192,169944,1,0,0:0:0:0:
192,192,170012,1,0,0:0:0:0:
320,192,170081,1,0,0:0:0:0:
64,192,170149,1,0,0:0:0:0:
448,192,170149,1,0,0:0:0:0:
192,192,170217,1,0,0:0:0:0:
320,192,170217,1,0,0:0:0:0:
64,192,170285,1,0,0:0:0:0:
448,192,170285,1,0,0:0:0:0:
192,192,170422,1,0,0:0:0:0:
320,192,170422,1,0,0:0:0:0:
64,192,170490,1,0,0:0:0:0:
192,192,170558,1,0,0:0:0:0:
64,192,170694,1,0,0:0:0:0:
320,192,170694,1,0,0:0:0:0:
192,192,170762,1,0,0:0:0:0:
448,192,170762,1,0,0:0:0:0:
64,192,170831,1,0,0:0:0:0:
320,192,170899,1,0,0:0:0:0:
192,192,170967,1,0,0:0:0:0:
64,192,171035,1,0,0:0:0:0:
448,192,171035,1,0,0:0:0:0:
192,192,171103,1,0,0:0:0:0:
320,192,171172,1,0,0:0:0:0:
448,192,171240,1,0,0:0:0:0:
320,192,171444,1,0,0:0:0:0:
320,192,171581,1,0,0:0:0:0:
64,192,171717,1,0,0:0:0:0:
448,192,171853,1,0,0:0:0:0:
192,192,172058,1,0,0:0:0:0:
320,192,172194,1,0,0:0:0:0:
64,192,172331,1,0,0:0:0:0:
448,192,172399,1,0,0:0:0:0:
192,192,172467,1,0,0:0:0:0:
320,192,172535,1,0,0:0:0:0:
64,192,172603,1,0,0:0:0:0:
448,192,172603,1,0,0:0:0:0:
192,192,172672,1,0,0:0:0:0:
320,192,172672,1,0,0:0:0:0:
192,192,172876,1,0,0:0:0:0:
320,192,172876,128,0,173217:0:0:0:0:
448,192,172876,128,0,173217:0:0:0:0:
64,192,172944,1,0,0:0:0:0:
64,192,173149,1,0,0:0:0:0:
192,192,173149,1,0,0:0:0:0:
64,192,173353,1,0,0:0:0:0:
192,192,173353,1,0,0:0:0:0:
320,192,173353,1,0,0:0:0:0:
448,192,173353,1,0,0:0:0:0:
64,192,173626,1,0,0:0:0:0:
192,192,173626,1,0,0:0:0:0:
320,192,173626,1,0,0:0:0:0:
448,192,173626,1,0,0:0:0:0:
64,192,173831,128,0,174308:0:0:0:0:
320,192,173899,128,0,174308:0:0:0:0:
448,192,173899,128,0,174308:0:0:0:0:
192,192,173899,128,0,174308:0:0:0:0:
64,192,174444,1,0,0:0:0:0:
192,192,174444,1,0,0:0:0:0:
320,192,174444,1,0,0:0:0:0:
448,192,174444,1,0,0:0:0:0:
320,192,174785,128,0,175126:0:0:0:0:
64,192,174785,128,0,175126:0:0:0:0:
192,192,174785,128,0,175126:0:0:0:0:
448,192,174785,128,0,175126:0:0:0:0:
64,192,175331,128,0,175672:0:0:0:0:
192,192,175331,128,0,175672:0:0:0:0:
320,192,175331,128,0,175672:0:0:0:0:
448,192,175331,128,0,175672:0:0:0:0:
64,192,175808,1,0,0:0:0:0:
192,192,175808,1,0,0:0:0:0:
320,192,175808,1,0,0:0:0:0:
448,192,175808,1,0,0:0:0:0:
64,192,176217,1,0,0:0:0:0:
192,192,176217,1,0,0:0:0:0:
320,192,176285,1,0,0:0:0:0:
448,192,176285,1,0,0:0:0:0:
192,192,176422,1,0,0:0:0:0:
320,192,176490,1,0,0:0:0:0:
64,192,176490,1,0,0:0:0:0:
448,192,176558,1,0,0:0:0:0:
192,192,176626,1,0,0:0:0:0:
320,192,176626,1,0,0:0:0:0:
64,192,176694,1,0,0:0:0:0:
448,192,176694,1,0,0:0:0:0:
192,192,176831,1,0,0:0:0:0:
320,192,176831,1,0,0:0:0:0:
64,192,176899,1,0,0:0:0:0:
448,192,176899,1,0,0:0:0:0:
192,192,177035,1,0,0:0:0:0:
320,192,177035,1,0,0:0:0:0:
64,192,177035,1,0,0:0:0:0:
448,192,177103,1,0,0:0:0:0:
320,192,177444,1,0,0:0:0:0:
192,192,177512,1,0,0:0:0:0:
448,192,177512,1,0,0:0:0:0:
64,192,177581,1,0,0:0:0:0:
320,192,177649,1,0,0:0:0:0:
192,192,177717,1,0,0:0:0:0:
448,192,177717,1,0,0:0:0:0:
64,192,177785,1,0,0:0:0:0:
320,192,177853,1,0,0:0:0:0:
192,192,177922,1,0,0:0:0:0:
448,192,177922,1,0,0:0:0:0:
320,192,178058,1,0,0:0:0:0:
64,192,178262,1,0,0:0:0:0:
448,192,178262,1,0,0:0:0:0:
448,192,178331,1,0,0:0:0:0:
192,192,178467,1,0,0:0:0:0:
320,192,178603,1,0,0:0:0:0:
192,192,178672,1,0,0:0:0:0:
64,192,178740,1,0,0:0:0:0:
448,192,178740,1,0,0:0:0:0:
320,192,178808,1,0,0:0:0:0:
192,192,178876,1,0,0:0:0:0:
64,192,178876,1,0,0:0:0:0:
448,192,178876,1,0,0:0:0:0:
192,192,179012,1,0,0:0:0:0:
320,192,179012,1,0,0:0:0:0:
64,192,179081,1,0,0:0:0:0:
448,192,179081,1,0,0:0:0:0:
192,192,179149,1,0,0:0:0:0:
320,192,179149,1,0,0:0:0:0:
64,192,179217,1,0,0:0:0:0:
448,192,179285,1,0,0:0:0:0:
192,192,179353,1,0,0:0:0:0:
64,192,179422,1,0,0:0:0:0:
320,192,179422,1,0,0:0:0:0:
448,192,179558,1,0,0:0:0:0:
320,192,179626,1,0,0:0:0:0:
64,192,179762,1,0,0:0:0:0:
448,192,179899,1,0,0:0:0:0:
448,192,180103,1,0,0:0:0:0:
448,192,180240,1,0,0:0:0:0:
192,192,180308,1,0,0:0:0:0:
448,192,180444,1,0,0:0:0:0:
192,192,180444,1,0,0:0:0:0:
448,192,180512,1,0,0:0:0:0:
192,192,180649,1,0,0:0:0:0:
448,192,180717,1,0,0:0:0:0:
320,192,180785,1,0,0:0:0:0:
192,192,180785,1,0,0:0:0:0:
448,192,180853,1,0,0:0:0:0:
64,192,180922,1,0,0:0:0:0:
192,192,180990,1,0,0:0:0:0:
320,192,180990,1,0,0:0:0:0:
64,192,181058,1,0,0:0:0:0:
448,192,181058,1,0,0:0:0:0:
192,192,181126,1,0,0:0:0:0:
320,192,181194,1,0,0:0:0:0:
64,192,181262,1,0,0:0:0:0:
448,192,181262,1,0,0:0:0:0:
192,192,181331,1,0,0:0:0:0:
64,192,181399,1,0,0:0:0:0:
320,192,181399,1,0,0:0:0:0:
448,192,181467,1,0,0:0:0:0:
192,192,181467,1,0,0:0:0:0:
64,192,181603,1,0,0:0:0:0:
320,192,181603,1,0,0:0:0:0:
192,192,181672,1,0,0:0:0:0:
448,192,181672,1,0,0:0:0:0:
64,192,181808,1,0,0:0:0:0:
320,192,181876,1,0,0:0:0:0:
192,192,181944,1,0,0:0:0:0:
448,192,181944,1,0,0:0:0:0:
64,192,182012,1,0,0:0:0:0:
320,192,182081,1,0,0:0:0:0:
192,192,182081,1,0,0:0:0:0:
448,192,182149,1,0,0:0:0:0:
64,192,182217,1,0,0:0:0:0:
320,192,182285,1,0,0:0:0:0:
192,192,182285,1,0,0:0:0:0:
448,192,182422,1,0,0:0:0:0:
64,192,182422,1,0,0:0:0:0:
320,192,182558,1,0,0:0:0:0:
192,192,182558,1,0,0:0:0:0:
64,192,182626,1,0,0:0:0:0:
320,192,182762,1,0,0:0:0:0:
192,192,182762,1,0,0:0:0:0:
448,192,182831,1,0,0:0:0:0:
64,192,182899,1,0,0:0:0:0:
320,192,182967,1,0,0:0:0:0:
192,192,183035,1,0,0:0:0:0:
64,192,183103,1,0,0:0:0:0:
448,192,183103,1,0,0:0:0:0:
192,192,183172,1,0,0:0:0:0:
320,192,183240,1,0,0:0:0:0:
64,192,183308,1,0,0:0:0:0:
448,192,183308,1,0,0:0:0:0:
192,192,183376,1,0,0:0:0:0:
320,192,183444,1,0,0:0:0:0:
320,192,183717,1,0,0:0:0:0:
64,192,183990,1,0,0:0:0:0:
448,192,184262,1,0,0:0:0:0:
448,192,184467,1,0,0:0:0:0:
192,192,184535,1,0,0:0:0:0:
448,192,184603,1,0,0:0:0:0:
192,192,184672,1,0,0:0:0:0:
448,192,184808,1,0,0:0:0:0:
192,192,184876,1,0,0:0:0:0:
448,192,184944,1,0,0:0:0:0:
192,192,185012,1,0,0:0:0:0:
448,192,185149,1,0,0:0:0:0:
192,192,185217,1,0,0:0:0:0:
64,192,185285,1,0,0:0:0:0:
448,192,185353,1,0,0:0:0:0:
192,192,185422,1,0,0:0:0:0:
320,192,185490,1,0,0:0:0:0:
64,192,185558,1,0,0:0:0:0:
448,192,185626,1,0,0:0:0:0:
192,192,185626,1,0,0:0:0:0:
64,192,185694,1,0,0:0:0:0:
320,192,185694,1,0,0:0:0:0:
448,192,185831,1,0,0:0:0:0:
192,192,185831,128,0,186172:0:0:0:0:
320,192,185899,1,0,0:0:0:0:
64,192,185967,1,0,0:0:0:0:
448,192,186035,1,0,0:0:0:0:
64,192,186103,1,0,0:0:0:0:
320,192,186172,1,0,0:0:0:0:
192,192,186308,1,0,0:0:0:0:
64,192,186376,1,0,0:0:0:0:
448,192,186376,1,0,0:0:0:0:
320,192,186444,1,0,0:0:0:0:
192,192,186512,1,0,0:0:0:0:
64,192,186512,1,0,0:0:0:0:
448,192,186581,1,0,0:0:0:0:
192,192,186649,1,0,0:0:0:0:
320,192,186649,1,0,0:0:0:0:
64,192,186785,1,0,0:0:0:0:
448,192,186785,1,0,0:0:0:0:
192,192,186853,1,0,0:0:0:0:
320,192,186853,1,0,0:0:0:0:
64,192,186922,1,0,0:0:0:0:
448,192,186990,128,0,187535:0:0:0:0:
320,192,187194,1,0,0:0:0:0:
192,192,187194,1,0,0:0:0:0:
192,192,187399,1,0,0:0:0:0:
64,192,187535,1,0,0:0:0:0:
192,192,187603,1,0,0:0:0:0:
320,192,187603,1,0,0:0:0:0:
64,192,187672,1,0,0:0:0:0:
448,192,187672,1,0,0:0:0:0:
192,192,187808,1,0,0:0:0:0:
320,192,187876,1,0,0:0:0:0:
64,192,187876,1,0,0:0:0:0:
448,192,188012,1,0,0:0:0:0:
192,192,188012,1,0,0:0:0:0:
320,192,188081,1,0,0:0:0:0:
64,192,188149,1,0,0:0:0:0:
448,192,188149,1,0,0:0:0:0:
192,192,188217,1,0,0:0:0:0:
320,192,188285,1,0,0:0:0:0:
64,192,188353,1,0,0:0:0:0:
448,192,188353,1,0,0:0:0:0:
192,192,188490,1,0,0:0:0:0:
320,192,188490,1,0,0:0:0:0:
64,192,188558,1,0,0:0:0:0:
448,192,188626,1,0,0:0:0:0:
192,192,188694,1,0,0:0:0:0:
320,192,188762,1,0,0:0:0:0:
64,192,188831,1,0,0:0:0:0:
192,192,188967,1,0,0:0:0:0:
320,192,188967,1,0,0:0:0:0:
64,192,189035,1,0,0:0:0:0:
448,192,189103,1,0,0:0:0:0:
192,192,189172,1,0,0:0:0:0:
320,192,189240,1,0,0:0:0:0:
64,192,189240,1,0,0:0:0:0:
320,192,189444,1,0,0:0:0:0:
320,192,189581,1,0,0:0:0:0:
64,192,189717,1,0,0:0:0:0:
448,192,189853,1,0,0:0:0:0:
448,192,190058,1,0,0:0:0:0:
192,192,190126,1,0,0:0:0:0:
320,192,190331,1,0,0:0:0:0:
64,192,190467,1,0,0:0:0:0:
448,192,190603,1,0,0:0:0:0:
192,192,190740,1,0,0:0:0:0:
320,192,190876,1,0,0:0:0:0:
192,192,190944,1,0,0:0:0:0:
448,192,190944,1,0,0:0:0:0:
64,192,191081,1,0,0:0:0:0:
320,192,191081,1,0,0:0:0:0:
192,192,191149,1,0,0:0:0:0:
64,192,191285,1,0,0:0:0:0:
320,192,191285,1,0,0:0:0:0:
192,192,191353,1,0,0:0:0:0:
448,192,191353,1,0,0:0:0:0:
64,192,191490,1,0,0:0:0:0:
320,192,191490,1,0,0:0:0:0:
192,192,191626,1,0,0:0:0:0:
448,192,191626,1,0,0:0:0:0:
64,192,191694,1,0,0:0:0:0:
320,192,191694,1,0,0:0:0:0:
192,192,191831,1,0,0:0:0:0:
64,192,191899,1,0,0:0:0:0:
320,192,191967,1,0,0:0:0:0:
192,192,191967,1,0,0:0:0:0:
448,192,192035,1,0,0:0:0:0:
64,192,192035,1,0,0:0:0:0:
192,192,192172,1,0,0:0:0:0:
320,192,192172,1,0,0:0:0:0:
448,192,192240,1,0,0:0:0:0:
64,192,192240,1,0,0:0:0:0:
