osu file format v14

[General]
AudioFilename: audio.mp3
AudioLeadIn: 0
PreviewTime: 58
Countdown: 1
SampleSet: None
StackLeniency: 0.7
Mode: 1
LetterboxInBreaks: 0
WidescreenStoryboard: 0

[Editor]
Bookmarks: 1976,154468
DistanceSpacing: 1.4
BeatDivisor: 4
GridSize: 4
TimelineZoom: 1.9

[Metadata]
Title:Seidenkiningen
TitleUnicode:セイデンキニンゲン
Artist:Kairiki Bear ft. Hatsune Miku
ArtistUnicode:かいりきベア feat.初音ミク
Creator:TecGamer_Brazil
Version:Mind Breath
Source:
Tags:rock hatsune miku Kairiki Bear
BeatmapID:1504369
BeatmapSetID:711582

[Difficulty]
HPDrainRate:10
CircleSize:2
OverallDifficulty:10
ApproachRate:0
SliderMultiplier:1.63
SliderTickRate:1

[Events]
//Background and Video events
0,0,"かいりきベア_-_セイデンキニンゲン.png",0,0
//Break Periods
//Storyboard Layer 0 (Background)
//Storyboard Layer 1 (Fail)
//Storyboard Layer 2 (Pass)
//Storyboard Layer 3 (Foreground)
//Storyboard Sound Samples

[TimingPoints]
2181,272.727272727273,4,1,0,100,1,0
10635,-111.111111111111,4,1,0,100,0,0
12355,272.727272727273,4,1,0,100,1,0
13065,272.727272727273,4,1,0,100,1,0
58567,-66.6666666666667,4,1,0,100,0,0
58585,-111.111111111111,4,1,0,100,0,1
75252,272.727272727273,4,1,0,100,1,8
110706,-100,4,1,0,100,0,9
110774,-111.111111111111,4,1,0,100,0,9
110911,-50,4,1,0,100,0,9
111047,-100,4,1,0,100,0,9
127138,272.727272727273,3,1,0,100,1,8
128849,272.727272727273,4,1,0,100,1,8
131634,606.060606060606,4,1,0,100,1,8
132240,272.727272727273,4,1,0,100,1,8
133681,606.060606060606,4,1,0,100,1,8
134218,272.727272727273,4,1,0,100,1,8
154468,689.655172413793,4,1,0,14,1,8
159922,272.727272727273,4,1,0,100,1,8
161012,-100,4,1,0,100,0,9
175566,-100,4,1,0,100,0,8

[HitObjects]
256,192,2249,5,0,0:0:0:0:
256,192,2385,1,8,0:0:0:0:
256,192,2658,1,8,0:0:0:0:
256,192,2931,1,8,0:0:0:0:
256,192,3067,1,8,0:0:0:0:
256,192,3271,1,0,0:0:0:0:
256,192,3476,1,0,0:0:0:0:
256,192,3612,1,0,0:0:0:0:
256,192,3749,1,0,0:0:0:0:
256,192,3817,1,8,0:0:0:0:
256,192,4090,1,8,0:0:0:0:
256,192,4294,1,8,0:0:0:0:
256,192,4499,1,0,0:0:0:0:
256,192,4840,1,0,0:0:0:0:
256,192,5044,1,0,0:0:0:0:
256,192,5181,1,8,0:0:0:0:
256,192,5453,1,8,0:0:0:0:
256,192,5590,1,0,0:0:0:0:
256,192,5658,1,8,0:0:0:0:
256,192,5726,1,0,0:0:0:0:
256,192,5794,1,8,0:0:0:0:
256,192,5862,1,0,0:0:0:0:
256,192,5931,1,8,0:0:0:0:
256,192,6271,1,0,0:0:0:0:
256,192,6408,1,8,0:0:0:0:
256,192,6681,1,8,0:0:0:0:
256,192,6885,1,8,0:0:0:0:
256,192,7090,1,0,0:0:0:0:
256,192,7226,1,8,0:0:0:0:
256,192,7362,1,8,0:0:0:0:
256,192,7499,1,0,0:0:0:0:
256,192,7635,1,8,0:0:0:0:
256,192,7771,1,8,0:0:0:0:
256,192,8112,1,0,0:0:0:0:
256,192,8317,1,8,0:0:0:0:
256,192,8521,1,8,0:0:0:0:
256,192,8726,1,8,0:0:0:0:
256,192,8931,1,0,0:0:0:0:
256,192,9203,1,8,0:0:0:0:
256,192,9340,1,8,0:0:0:0:
256,192,9544,1,8,0:0:0:0:
256,192,9749,1,0,0:0:0:0:
256,192,9885,1,0,0:0:0:0:
256,192,10021,1,0,0:0:0:0:
256,192,10226,1,8,0:0:0:0:
256,192,10567,1,8,0:0:0:0:
256,192,10771,1,0,0:0:0:0:
256,192,11044,1,0,0:0:0:0:
256,192,11249,1,8,0:0:0:0:
256,192,11521,1,8,0:0:0:0:
256,192,11794,1,8,0:0:0:0:
256,192,12067,1,0,0:0:0:0:
256,192,12340,1,0,0:0:0:0:
256,192,12681,1,8,0:0:0:0:
256,192,12953,1,0,0:0:0:0:
256,192,13226,1,8,0:0:0:0:
256,192,13431,1,8,0:0:0:0:
256,192,13703,1,8,0:0:0:0:
256,192,13908,1,0,0:0:0:0:
256,192,14044,1,8,0:0:0:0:
256,192,14249,1,0,0:0:0:0:
256,192,14317,1,8,0:0:0:0:
256,192,14590,1,8,0:0:0:0:
256,192,14794,1,8,0:0:0:0:
256,192,14931,1,8,0:0:0:0:
256,192,15067,1,0,0:0:0:0:
256,192,15271,1,0,0:0:0:0:
256,192,15408,1,0,0:0:0:0:
256,192,15544,1,8,0:0:0:0:
256,192,15612,1,8,0:0:0:0:
256,192,15817,1,8,0:0:0:0:
256,192,15885,1,8,0:0:0:0:
256,192,16090,1,0,0:0:0:0:
256,192,16226,1,0,0:0:0:0:
256,192,16362,1,0,0:0:0:0:
256,192,16499,1,0,0:0:0:0:
256,192,16703,1,8,0:0:0:0:
256,192,16840,1,8,0:0:0:0:
256,192,17044,1,8,0:0:0:0:
256,192,17317,1,8,0:0:0:0:
256,192,17590,1,8,0:0:0:0:
256,192,17794,1,0,0:0:0:0:
256,192,17999,1,0,0:0:0:0:
256,192,18135,1,0,0:0:0:0:
256,192,18271,1,8,0:0:0:0:
256,192,18408,1,8,0:0:0:0:
256,192,18612,1,8,0:0:0:0:
256,192,18817,1,8,0:0:0:0:
256,192,19021,1,0,0:0:0:0:
256,192,19226,1,8,0:0:0:0:
256,192,19431,1,8,0:0:0:0:
256,192,19703,1,8,0:0:0:0:
256,192,19908,1,0,0:0:0:0:
256,192,20181,1,0,0:0:0:0:
256,192,20453,1,0,0:0:0:0:
256,192,20726,1,0,0:0:0:0:
256,192,20862,1,8,0:0:0:0:
256,192,21135,1,8,0:0:0:0:
256,192,21340,1,8,0:0:0:0:
256,192,21681,1,0,0:0:0:0:
256,192,21817,1,8,0:0:0:0:
256,192,21953,1,8,0:0:0:0:
256,192,22090,1,8,0:0:0:0:
256,192,22226,1,8,0:0:0:0:
256,192,22362,1,8,0:0:0:0:
256,192,22499,1,0,0:0:0:0:
256,192,22635,1,0,0:0:0:0:
256,192,22771,1,0,0:0:0:0:
256,192,22908,1,8,0:0:0:0:
256,192,23044,1,8,0:0:0:0:
256,192,23249,1,8,0:0:0:0:
256,192,23385,1,8,0:0:0:0:
256,192,23521,1,0,0:0:0:0:
256,192,23590,1,0,0:0:0:0:
256,192,23726,1,0,0:0:0:0:
256,192,23931,1,8,0:0:0:0:
256,192,24067,1,0,0:0:0:0:
256,192,24203,1,8,0:0:0:0:
256,192,24271,1,0,0:0:0:0:
256,192,24340,1,8,0:0:0:0:
256,192,24476,1,0,0:0:0:0:
256,192,24544,1,8,0:0:0:0:
256,192,24612,1,0,0:0:0:0:
256,192,24681,1,8,0:0:0:0:
256,192,25090,1,0,0:0:0:0:
256,192,25362,1,0,0:0:0:0:
256,192,25567,1,8,0:0:0:0:
256,192,25840,1,8,0:0:0:0:
256,192,25976,1,8,0:0:0:0:
256,192,26112,1,8,0:0:0:0:
256,192,26317,1,8,0:0:0:0:
256,192,26453,1,8,0:0:0:0:
232,240,26794,1,0,0:0:0:0:
232,240,26931,1,0,0:0:0:0:
232,240,27135,1,8,0:0:0:0:
232,240,27271,1,8,0:0:0:0:
232,240,27476,1,8,0:0:0:0:
232,240,27681,1,8,0:0:0:0:
232,240,27885,1,0,0:0:0:0:
232,240,28021,1,0,0:0:0:0:
232,240,28158,1,0,0:0:0:0:
232,240,28294,1,0,0:0:0:0:
232,240,28499,1,8,0:0:0:0:
232,240,28635,1,8,0:0:0:0:
232,240,28771,1,8,0:0:0:0:
232,240,28908,1,8,0:0:0:0:
232,240,29181,1,0,0:0:0:0:
232,240,29385,1,0,0:0:0:0:
232,240,29658,1,0,0:0:0:0:
232,240,29862,1,8,0:0:0:0:
232,240,30067,1,8,0:0:0:0:
232,240,30203,1,8,0:0:0:0:
232,240,30340,1,8,0:0:0:0:
232,240,30544,1,0,0:0:0:0:
232,240,30681,1,0,0:0:0:0:
232,240,30817,1,0,0:0:0:0:
232,240,30953,1,0,0:0:0:0:
232,240,31090,1,8,0:0:0:0:
232,240,31362,1,8,0:0:0:0:
232,240,31703,1,8,0:0:0:0:
232,240,31908,1,8,0:0:0:0:
232,240,32181,1,0,0:0:0:0:
232,240,32317,1,0,0:0:0:0:
232,240,32453,1,0,0:0:0:0:
232,240,32658,1,8,0:0:0:0:
232,240,32794,1,0,0:0:0:0:
232,240,32931,1,0,0:0:0:0:
232,240,33067,1,8,0:0:0:0:
232,240,33271,1,8,0:0:0:0:
232,240,33408,1,8,0:0:0:0:
232,240,33544,1,8,0:0:0:0:
232,240,33749,1,0,0:0:0:0:
232,240,33885,1,0,0:0:0:0:
232,240,34021,1,0,0:0:0:0:
232,240,34226,1,8,0:0:0:0:
232,240,34362,1,8,0:0:0:0:
232,240,34567,1,0,0:0:0:0:
232,240,34703,1,8,0:0:0:0:
232,240,34840,1,0,0:0:0:0:
232,240,35044,1,8,0:0:0:0:
232,240,35590,1,0,0:0:0:0:
232,240,35794,1,8,0:0:0:0:
232,240,36067,1,8,0:0:0:0:
232,240,36408,1,8,0:0:0:0:
232,240,36612,1,0,0:0:0:0:
232,240,36885,1,0,0:0:0:0:
232,240,37158,1,0,0:0:0:0:
232,240,37294,1,8,0:0:0:0:
232,240,37499,1,0,0:0:0:0:
232,240,37567,1,8,0:0:0:0:
232,240,37703,1,0,0:0:0:0:
232,240,37771,1,8,0:0:0:0:
232,240,37908,1,0,0:0:0:0:
232,240,37976,1,8,0:0:0:0:
232,240,38112,1,0,0:0:0:0:
232,240,38181,1,8,0:0:0:0:
232,240,38317,1,0,0:0:0:0:
232,240,38453,1,8,0:0:0:0:
232,240,38521,1,0,0:0:0:0:
232,240,38590,1,8,0:0:0:0:
232,240,38999,1,0,0:0:0:0:
232,240,39135,1,0,0:0:0:0:
232,240,39203,1,8,0:0:0:0:
232,240,39340,1,8,0:0:0:0:
232,240,39476,1,8,0:0:0:0:
232,240,39817,1,0,0:0:0:0:
232,240,40021,1,0,0:0:0:0:
232,240,40158,1,8,0:0:0:0:
232,240,40294,1,8,0:0:0:0:
232,240,40431,1,8,0:0:0:0:
232,240,40567,1,0,0:0:0:0:
232,240,40635,1,8,0:0:0:0:
232,240,40771,1,0,0:0:0:0:
232,240,40840,1,8,0:0:0:0:
232,240,40976,1,0,0:0:0:0:
232,240,41044,1,8,0:0:0:0:
232,240,41112,1,0,0:0:0:0:
232,240,41181,1,8,0:0:0:0:
232,240,41317,1,0,0:0:0:0:
232,240,41385,1,8,0:0:0:0:
232,240,41453,1,8,0:0:0:0:
232,240,41590,1,0,0:0:0:0:
232,240,41931,1,8,0:0:0:0:
232,240,42135,1,8,0:0:0:0:
232,240,42408,1,8,0:0:0:0:
232,240,42612,1,0,0:0:0:0:
232,240,42749,1,8,0:0:0:0:
232,240,42953,1,8,0:0:0:0:
232,240,43158,1,0,0:0:0:0:
232,240,43362,1,0,0:0:0:0:
232,240,43499,1,0,0:0:0:0:
232,240,43635,1,0,0:0:0:0:
232,240,43771,1,8,0:0:0:0:
232,240,43908,1,8,0:0:0:0:
232,240,44044,1,8,0:0:0:0:
232,240,44181,1,8,0:0:0:0:
232,240,44385,1,0,0:0:0:0:
232,240,44521,1,0,0:0:0:0:
232,240,44658,1,0,0:0:0:0:
232,240,44931,1,8,0:0:0:0:
232,240,45067,1,8,0:0:0:0:
232,240,45271,1,8,0:0:0:0:
232,240,45408,1,0,0:0:0:0:
232,240,45544,1,8,0:0:0:0:
232,240,45749,1,0,0:0:0:0:
232,240,45885,1,8,0:0:0:0:
232,240,46090,1,0,0:0:0:0:
232,240,46226,1,8,0:0:0:0:
232,240,46362,1,0,0:0:0:0:
232,240,46567,1,8,0:0:0:0:
232,240,46703,1,0,0:0:0:0:
232,240,46908,1,8,0:0:0:0:
232,240,47044,1,0,0:0:0:0:
232,240,47181,1,8,0:0:0:0:
232,240,47317,1,8,0:0:0:0:
232,240,47385,1,0,0:0:0:0:
232,240,47590,1,0,0:0:0:0:
232,240,47862,1,8,0:0:0:0:
232,240,47931,1,8,0:0:0:0:
232,240,47999,1,8,0:0:0:0:
232,240,48067,1,8,0:0:0:0:
232,240,48135,1,8,0:0:0:0:
232,240,48203,1,8,0:0:0:0:
232,240,48476,1,0,0:0:0:0:
232,240,48612,1,0,0:0:0:0:
232,240,48817,1,8,0:0:0:0:
232,240,48885,1,8,0:0:0:0:
232,240,49021,1,8,0:0:0:0:
232,240,49158,1,8,0:0:0:0:
232,240,49226,1,8,0:0:0:0:
232,240,49294,1,8,0:0:0:0:
232,240,49431,1,8,0:0:0:0:
232,240,49567,1,8,0:0:0:0:
232,240,49908,1,8,0:0:0:0:
232,240,50181,1,8,0:0:0:0:
232,240,50453,1,8,0:0:0:0:
232,240,50726,1,8,0:0:0:0:
232,240,50931,1,8,0:0:0:0:
232,240,51203,1,0,0:0:0:0:
232,240,51408,1,0,0:0:0:0:
232,240,51681,1,0,0:0:0:0:
232,240,51953,1,0,0:0:0:0:
232,240,52158,1,8,0:0:0:0:
232,240,52431,1,8,0:0:0:0:
232,240,52703,1,8,0:0:0:0:
232,240,52908,1,8,0:0:0:0:
232,240,53112,1,0,0:0:0:0:
232,240,53181,1,8,0:0:0:0:
232,240,53317,1,8,0:0:0:0:
232,240,53453,1,8,0:0:0:0:
232,240,53658,1,8,0:0:0:0:
232,240,53794,1,0,0:0:0:0:
232,240,54135,1,0,0:0:0:0:
232,240,54340,1,0,0:0:0:0:
232,240,54612,1,8,0:0:0:0:
232,240,54885,1,8,0:0:0:0:
232,240,55158,1,8,0:0:0:0:
232,240,55431,1,8,0:0:0:0:
232,240,55635,1,0,0:0:0:0:
232,240,55976,1,0,0:0:0:0:
232,240,56249,1,0,0:0:0:0:
232,240,56385,1,8,0:0:0:0:
232,240,56590,1,0,0:0:0:0:
232,240,56862,1,0,0:0:0:0:
232,240,57067,1,0,0:0:0:0:
232,240,57271,1,0,0:0:0:0:
232,240,57476,1,0,0:0:0:0:
232,240,58567,1,8,0:0:0:0:
232,240,58771,1,0,0:0:0:0:
232,240,59044,1,0,0:0:0:0:
232,240,59317,1,0,0:0:0:0:
232,240,59590,1,8,0:0:0:0:
232,240,59794,1,8,0:0:0:0:
232,240,60067,1,8,0:0:0:0:
232,240,60340,1,0,0:0:0:0:
232,240,60544,1,0,0:0:0:0:
360,136,60749,1,0,0:0:0:0:
360,136,60885,1,8,0:0:0:0:
360,136,61158,1,8,0:0:0:0:
360,136,61431,1,8,0:0:0:0:
360,136,61703,1,0,0:0:0:0:
360,136,61840,1,0,0:0:0:0:
360,136,61976,1,0,0:0:0:0:
360,136,62112,1,0,0:0:0:0:
360,136,62249,1,8,0:0:0:0:
360,136,62521,1,8,0:0:0:0:
360,136,62658,1,0,0:0:0:0:
360,136,62862,1,8,0:0:0:0:
360,136,62999,1,8,0:0:0:0:
360,136,63067,1,8,0:0:0:0:
360,136,63135,1,8,0:0:0:0:
360,136,63203,1,8,0:0:0:0:
360,136,63271,1,8,0:0:0:0:
360,136,63408,1,8,0:0:0:0:
360,136,63476,1,8,0:0:0:0:
360,136,63612,1,8,0:0:0:0:
360,136,63681,1,8,0:0:0:0:
360,136,63817,1,0,0:0:0:0:
360,136,63885,1,8,0:0:0:0:
360,136,64021,1,8,0:0:0:0:
360,136,64158,1,0,0:0:0:0:
360,136,64226,1,8,0:0:0:0:
360,136,64294,1,0,0:0:0:0:
360,136,64431,1,0,0:0:0:0:
360,136,64567,1,8,0:0:0:0:
256,232,64703,1,0,0:0:0:0:
360,136,64840,1,8,0:0:0:0:
360,136,65044,1,8,0:0:0:0:
360,136,65181,1,0,0:0:0:0:
360,136,65385,1,0,0:0:0:0:
360,136,65521,1,0,0:0:0:0:
360,136,65658,1,8,0:0:0:0:
360,136,65862,1,8,0:0:0:0:
360,136,66067,1,8,0:0:0:0:
360,136,66135,1,8,0:0:0:0:
360,136,66271,1,8,0:0:0:0:
360,136,66340,1,8,0:0:0:0:
360,136,66408,1,8,0:0:0:0:
360,136,66476,1,8,0:0:0:0:
360,136,66817,1,0,0:0:0:0:
360,136,66953,1,0,0:0:0:0:
360,136,67158,1,8,0:0:0:0:
360,136,67226,1,0,0:0:0:0:
360,136,67362,1,8,0:0:0:0:
360,136,67703,1,0,0:0:0:0:
360,136,67771,1,0,0:0:0:0:
360,136,67840,1,0,0:0:0:0:
360,136,67976,1,0,0:0:0:0:
360,136,68044,1,0,0:0:0:0:
360,136,68317,1,0,0:0:0:0:
360,136,68590,1,0,0:0:0:0:
360,136,68862,1,8,0:0:0:0:
360,136,69067,1,8,0:0:0:0:
360,136,69203,1,8,0:0:0:0:
360,136,69340,1,0,0:0:0:0:
360,136,69544,1,0,0:0:0:0:
360,136,69817,1,0,0:0:0:0:
360,136,69953,1,8,0:0:0:0:
360,136,70090,1,8,0:0:0:0:
360,136,70294,1,8,0:0:0:0:
360,136,70362,1,8,0:0:0:0:
360,136,70567,1,0,0:0:0:0:
360,136,70840,1,0,0:0:0:0:
360,136,71112,1,0,0:0:0:0:
360,136,71317,1,8,0:0:0:0:
360,136,71590,1,8,0:0:0:0:
360,136,71862,1,8,0:0:0:0:
360,136,72135,1,0,0:0:0:0:
360,136,72340,1,8,0:0:0:0:
360,136,72612,1,8,0:0:0:0:
360,136,72885,1,0,0:0:0:0:
360,136,73158,1,0,0:0:0:0:
360,136,73431,1,0,0:0:0:0:
360,136,73703,1,8,0:0:0:0:
360,136,73908,1,0,0:0:0:0:
360,136,74044,1,0,0:0:0:0:
360,136,74181,1,0,0:0:0:0:
360,136,74385,1,8,0:0:0:0:
360,136,74521,1,8,0:0:0:0:
360,136,74658,1,8,0:0:0:0:
360,136,74794,1,8,0:0:0:0:
360,136,75271,1,8,0:0:0:0:
360,136,75524,1,0,0:0:0:0:
360,136,75729,1,8,0:0:0:0:
360,136,76002,1,0,0:0:0:0:
360,136,76138,1,0,0:0:0:0:
360,136,76206,1,0,0:0:0:0:
360,136,76479,1,8,0:0:0:0:
360,136,76615,1,8,0:0:0:0:
360,136,76752,1,0,0:0:0:0:
360,136,76820,1,8,0:0:0:0:
360,136,76956,1,0,0:0:0:0:
360,136,77024,1,8,0:0:0:0:
360,136,77092,1,0,0:0:0:0:
360,136,77161,1,8,0:0:0:0:
360,136,77365,1,0,0:0:0:0:
360,136,77638,1,0,0:0:0:0:
360,136,77842,1,8,0:0:0:0:
360,136,78115,1,8,0:0:0:0:
360,136,78252,1,8,0:0:0:0:
360,136,78456,1,0,0:0:0:0:
360,136,78592,1,0,0:0:0:0:
360,136,78797,1,0,0:0:0:0:
360,136,78865,1,0,0:0:0:0:
360,136,78933,1,8,0:0:0:0:
360,136,79342,1,8,0:0:0:0:
360,136,79615,1,8,0:0:0:0:
360,136,79888,1,0,0:0:0:0:
360,136,80161,1,0,0:0:0:0:
360,136,80297,1,0,0:0:0:0:
360,136,80433,1,0,0:0:0:0:
360,136,80570,1,8,0:0:0:0:
360,136,80774,1,8,0:0:0:0:
360,136,80979,1,8,0:0:0:0:
360,136,81252,1,0,0:0:0:0:
360,136,81388,1,0,0:0:0:0:
360,136,81592,1,8,0:0:0:0:
360,136,81797,1,8,0:0:0:0:
360,136,81933,1,8,0:0:0:0:
360,136,82138,1,8,0:0:0:0:
360,136,82342,1,0,0:0:0:0:
360,136,82479,1,8,0:0:0:0:
360,136,82683,1,8,0:0:0:0:
360,136,82888,1,8,0:0:0:0:
360,136,83092,1,0,0:0:0:0:
360,136,83229,1,0,0:0:0:0:
360,136,83570,1,0,0:0:0:0:
360,136,83979,1,0,0:0:0:0:
360,136,84320,1,8,0:0:0:0:
360,136,84456,1,8,0:0:0:0:
360,136,84797,1,8,0:0:0:0:
360,136,85002,1,8,0:0:0:0:
360,136,85138,1,0,0:0:0:0:
360,136,85547,1,0,0:0:0:0:
360,136,85820,1,0,0:0:0:0:
360,136,86092,1,8,0:0:0:0:
360,136,86365,1,0,0:0:0:0:
360,136,86570,1,8,0:0:0:0:
360,136,86706,1,0,0:0:0:0:
360,136,86979,1,0,0:0:0:0:
360,136,87183,1,0,0:0:0:0:
360,136,87320,1,8,0:0:0:0:
360,136,87456,1,8,0:0:0:0:
360,136,87661,1,8,0:0:0:0:
360,136,87797,1,8,0:0:0:0:
360,136,87933,1,8,0:0:0:0:
360,136,88002,1,0,0:0:0:0:
360,136,88206,1,0,0:0:0:0:
360,136,88342,1,0,0:0:0:0:
360,136,88479,1,0,0:0:0:0:
360,136,88615,1,8,0:0:0:0:
360,136,88752,1,8,0:0:0:0:
360,136,89024,1,8,0:0:0:0:
360,136,89365,1,0,0:0:0:0:
360,136,89638,1,0,0:0:0:0:
360,136,89842,1,0,0:0:0:0:
360,136,90115,1,0,0:0:0:0:
360,136,90456,1,8,0:0:0:0:
360,136,90661,1,8,0:0:0:0:
360,136,90865,1,8,0:0:0:0:
360,136,91002,1,8,0:0:0:0:
360,136,91138,1,8,0:0:0:0:
360,136,91274,1,8,0:0:0:0:
360,136,91411,1,8,0:0:0:0:
360,136,91752,1,8,0:0:0:0:
360,136,92024,1,0,0:0:0:0:
360,136,92161,1,0,0:0:0:0:
360,136,92502,1,0,0:0:0:0:
360,136,92774,1,8,0:0:0:0:
360,136,93047,1,0,0:0:0:0:
360,136,93252,1,8,0:0:0:0:
360,136,93592,1,8,0:0:0:0:
360,136,93797,1,8,0:0:0:0:
360,136,94070,1,8,0:0:0:0:
360,136,94274,1,8,0:0:0:0:
360,136,94547,1,0,0:0:0:0:
360,136,94752,1,8,0:0:0:0:
360,136,94956,1,8,0:0:0:0:
360,136,95161,1,8,0:0:0:0:
360,136,95297,1,0,0:0:0:0:
360,136,95433,1,8,0:0:0:0:
360,136,95638,1,0,0:0:0:0:
360,136,95842,1,0,0:0:0:0:
360,136,96047,1,0,0:0:0:0:
360,136,96320,1,8,0:0:0:0:
360,136,96592,1,8,0:0:0:0:
360,136,96729,1,0,0:0:0:0:
360,136,97002,1,0,0:0:0:0:
360,136,97138,1,8,0:0:0:0:
360,136,97342,1,0,0:0:0:0:
360,136,97479,1,8,0:0:0:0:
360,136,97752,1,8,0:0:0:0:
360,136,97956,1,8,0:0:0:0:
360,136,98161,1,8,0:0:0:0:
360,136,98433,1,8,0:0:0:0:
360,136,98502,1,0,0:0:0:0:
360,136,98774,1,8,0:0:0:0:
360,136,98911,1,8,0:0:0:0:
360,136,99047,1,8,0:0:0:0:
360,136,99252,1,0,0:0:0:0:
360,136,99388,1,0,0:0:0:0:
360,136,99592,1,0,0:0:0:0:
360,136,99729,1,8,0:0:0:0:
360,136,100274,1,8,0:0:0:0:
360,136,100411,1,8,0:0:0:0:
360,136,100615,1,8,0:0:0:0:
360,136,100683,1,0,0:0:0:0:
360,136,100888,1,8,0:0:0:0:
360,136,101092,1,8,0:0:0:0:
360,136,101297,1,0,0:0:0:0:
360,136,101502,1,0,0:0:0:0:
360,136,101638,1,0,0:0:0:0:
360,136,101774,1,8,0:0:0:0:
360,136,101911,1,8,0:0:0:0:
360,136,102047,1,0,0:0:0:0:
360,136,102388,1,8,0:0:0:0:
360,136,102592,1,8,0:0:0:0:
360,136,102865,1,8,0:0:0:0:
360,136,103070,1,0,0:0:0:0:
360,136,103206,1,0,0:0:0:0:
360,136,103411,1,0,0:0:0:0:
360,136,103547,1,0,0:0:0:0:
360,136,103683,1,8,0:0:0:0:
360,136,103820,1,8,0:0:0:0:
360,136,104024,1,8,0:0:0:0:
360,136,104297,1,0,0:0:0:0:
360,136,104502,1,0,0:0:0:0:
360,136,104706,1,0,0:0:0:0:
360,136,104979,1,8,0:0:0:0:
360,136,105252,1,8,0:0:0:0:
360,136,105388,1,8,0:0:0:0:
360,136,105592,1,0,0:0:0:0:
360,136,105729,1,0,0:0:0:0:
360,136,105933,1,0,0:0:0:0:
360,136,106070,1,0,0:0:0:0:
360,136,106342,1,8,0:0:0:0:
360,136,106547,1,8,0:0:0:0:
360,136,106820,1,8,0:0:0:0:
360,136,107024,1,0,0:0:0:0:
360,136,107297,1,0,0:0:0:0:
360,136,107570,1,0,0:0:0:0:
360,136,107774,1,8,0:0:0:0:
360,136,108047,1,8,0:0:0:0:
360,136,108252,1,8,0:0:0:0:
360,136,108388,1,8,0:0:0:0:
360,136,108661,1,0,0:0:0:0:
360,136,108865,1,0,0:0:0:0:
360,136,109070,1,8,0:0:0:0:
360,136,109342,1,8,0:0:0:0:
360,136,109615,1,8,0:0:0:0:
360,136,110706,1,0,0:0:0:0:
264,168,111115,1,0,0:0:0:0:
264,168,111252,1,0,0:0:0:0:
264,168,111388,1,8,0:0:0:0:
264,168,111524,1,8,0:0:0:0:
264,168,111661,1,8,0:0:0:0:
264,168,111797,1,8,0:0:0:0:
264,168,111933,1,0,0:0:0:0:
264,168,112070,1,0,0:0:0:0:
264,168,112342,1,0,0:0:0:0:
264,168,112547,1,8,0:0:0:0:
264,168,112820,1,8,0:0:0:0:
264,168,112956,1,8,0:0:0:0:
264,168,113092,1,8,0:0:0:0:
264,168,113297,1,0,0:0:0:0:
264,168,113433,1,0,0:0:0:0:
264,168,113570,1,0,0:0:0:0:
264,168,113706,1,0,0:0:0:0:
264,168,113842,1,8,0:0:0:0:
264,168,113979,1,8,0:0:0:0:
264,168,114047,1,0,0:0:0:0:
264,168,114183,1,8,0:0:0:0:
264,168,114252,1,0,0:0:0:0:
264,168,114320,1,8,0:0:0:0:
264,168,114456,1,0,0:0:0:0:
264,168,114524,1,8,0:0:0:0:
264,168,114933,1,0,0:0:0:0:
264,168,115206,1,0,0:0:0:0:
264,168,115411,1,8,0:0:0:0:
264,168,115683,1,8,0:0:0:0:
264,168,115820,1,8,0:0:0:0:
264,168,115956,1,8,0:0:0:0:
264,168,116161,1,8,0:0:0:0:
264,168,116365,1,8,0:0:0:0:
264,168,116502,1,0,0:0:0:0:
264,168,116774,1,0,0:0:0:0:
264,168,116979,1,0,0:0:0:0:
264,168,117252,1,8,0:0:0:0:
264,168,117524,1,8,0:0:0:0:
264,168,117729,1,0,0:0:0:0:
264,168,118002,1,0,0:0:0:0:
264,168,118138,1,0,0:0:0:0:
264,168,118274,1,0,0:0:0:0:
264,168,118411,1,0,0:0:0:0:
264,168,118547,1,8,0:0:0:0:
264,168,118615,1,0,0:0:0:0:
264,168,118683,1,8,0:0:0:0:
264,168,118820,1,0,0:0:0:0:
264,168,119024,1,0,0:0:0:0:
264,168,119092,1,8,0:0:0:0:
264,168,119229,1,0,0:0:0:0:
264,168,119433,1,0,0:0:0:0:
264,168,119638,1,0,0:0:0:0:
264,168,119842,1,8,0:0:0:0:
264,168,119911,1,8,0:0:0:0:
264,168,120115,1,8,0:0:0:0:
264,168,120252,1,8,0:0:0:0:
264,168,120320,1,8,0:0:0:0:
264,168,120456,1,0,0:0:0:0:
264,168,120661,1,0,0:0:0:0:
264,168,120865,1,0,0:0:0:0:
264,168,121138,1,8,0:0:0:0:
264,168,121411,1,8,0:0:0:0:
264,168,121683,1,0,0:0:0:0:
264,168,121888,1,0,0:0:0:0:
264,168,122024,1,0,0:0:0:0:
264,168,122161,1,0,0:0:0:0:
264,168,122297,1,0,0:0:0:0:
264,168,122433,1,0,0:0:0:0:
264,168,122570,1,8,0:0:0:0:
264,168,122842,1,8,0:0:0:0:
264,168,122979,1,8,0:0:0:0:
264,168,123183,1,0,0:0:0:0:
264,168,123252,1,8,0:0:0:0:
264,168,123320,1,0,0:0:0:0:
264,168,123388,1,8,0:0:0:0:
264,168,123524,1,0,0:0:0:0:
264,168,123592,1,8,0:0:0:0:
264,168,123661,1,0,0:0:0:0:
264,168,123797,1,8,0:0:0:0:
264,168,124002,1,0,0:0:0:0:
264,168,124070,1,8,0:0:0:0:
264,168,124206,1,0,0:0:0:0:
264,168,124274,1,8,0:0:0:0:
264,168,124411,1,0,0:0:0:0:
264,168,124479,1,8,0:0:0:0:
264,168,124615,1,8,0:0:0:0:
264,168,124752,1,8,0:0:0:0:
264,168,124820,1,0,0:0:0:0:
264,168,124888,1,8,0:0:0:0:
264,168,124956,1,0,0:0:0:0:
264,168,125024,1,8,0:0:0:0:
264,168,125092,1,0,0:0:0:0:
264,168,125161,1,8,0:0:0:0:
264,168,125229,1,0,0:0:0:0:
264,168,125433,1,0,0:0:0:0:
264,168,125638,1,0,0:0:0:0:
264,168,125774,1,8,0:0:0:0:
264,168,125911,1,8,0:0:0:0:
264,168,126047,1,8,0:0:0:0:
264,168,126183,1,0,0:0:0:0:
264,168,126320,1,0,0:0:0:0:
264,168,126524,1,0,0:0:0:0:
264,168,126592,1,0,0:0:0:0:
264,168,126729,1,8,0:0:0:0:
264,168,126865,1,8,0:0:0:0:
264,168,127002,1,8,0:0:0:0:
264,168,127138,1,0,0:0:0:0:
264,168,127410,1,0,0:0:0:0:
264,168,127683,1,0,0:0:0:0:
264,168,127956,1,8,0:0:0:0:
264,168,128501,1,8,0:0:0:0:
264,168,129053,1,0,0:0:0:0:
264,168,129599,1,8,0:0:0:0:
264,168,130008,1,8,0:0:0:0:
264,168,131576,1,8,0:0:0:0:
264,168,133603,1,8,0:0:0:0:
264,168,134135,1,0,0:0:0:0:
264,168,134490,1,8,0:0:0:0:
264,168,134831,1,8,0:0:0:0:
264,168,134968,1,8,0:0:0:0:
264,168,135104,1,8,0:0:0:0:
264,168,135240,1,8,0:0:0:0:
264,168,135377,1,8,0:0:0:0:
264,168,135513,1,0,0:0:0:0:
264,168,135649,1,8,0:0:0:0:
264,168,135718,1,0,0:0:0:0:
264,168,135786,1,8,0:0:0:0:
264,168,136058,1,0,0:0:0:0:
264,168,136263,1,0,0:0:0:0:
264,168,136399,1,8,0:0:0:0:
264,168,136468,1,8,0:0:0:0:
264,168,136672,1,8,0:0:0:0:
264,168,136740,1,8,0:0:0:0:
264,168,136945,1,0,0:0:0:0:
264,168,137081,1,0,0:0:0:0:
264,168,137286,1,0,0:0:0:0:
264,168,137354,1,0,0:0:0:0:
264,168,137558,1,8,0:0:0:0:
264,168,137831,1,8,0:0:0:0:
264,168,138104,1,8,0:0:0:0:
264,168,138377,1,0,0:0:0:0:
264,168,138581,1,0,0:0:0:0:
264,168,138718,1,0,0:0:0:0:
264,168,138854,1,0,0:0:0:0:
264,168,138990,1,8,0:0:0:0:
264,168,139127,1,8,0:0:0:0:
264,168,139263,1,0,0:0:0:0:
264,168,139331,1,8,0:0:0:0:
264,168,139468,1,0,0:0:0:0:
264,168,139536,1,8,0:0:0:0:
264,168,139604,1,0,0:0:0:0:
264,168,139740,1,8,0:0:0:0:
264,168,139808,1,0,0:0:0:0:
264,168,140081,1,0,0:0:0:0:
264,168,140286,1,8,0:0:0:0:
264,168,140422,1,8,0:0:0:0:
264,168,140558,1,8,0:0:0:0:
264,168,140695,1,8,0:0:0:0:
264,168,140831,1,0,0:0:0:0:
264,168,140968,1,0,0:0:0:0:
264,168,141104,1,0,0:0:0:0:
264,168,141240,1,0,0:0:0:0:
264,168,141445,1,8,0:0:0:0:
264,168,141513,1,8,0:0:0:0:
264,168,141649,1,8,0:0:0:0:
264,168,141786,1,8,0:0:0:0:
264,168,141990,1,0,0:0:0:0:
264,168,142127,1,0,0:0:0:0:
264,168,142399,1,0,0:0:0:0:
264,168,142604,1,8,0:0:0:0:
264,168,142877,1,8,0:0:0:0:
264,168,143013,1,8,0:0:0:0:
264,168,143081,1,0,0:0:0:0:
264,168,143149,1,8,0:0:0:0:
264,168,143286,1,0,0:0:0:0:
264,168,143354,1,8,0:0:0:0:
264,168,143490,1,0,0:0:0:0:
264,168,143627,1,8,0:0:0:0:
264,168,143695,1,0,0:0:0:0:
264,168,143763,1,8,0:0:0:0:
264,168,143831,1,0,0:0:0:0:
264,168,143968,1,8,0:0:0:0:
264,168,144240,1,0,0:0:0:0:
264,168,144445,1,8,0:0:0:0:
264,168,144922,1,8,0:0:0:0:
264,168,145195,1,0,0:0:0:0:
264,168,145468,1,0,0:0:0:0:
264,168,145672,1,8,0:0:0:0:
264,168,145945,1,8,0:0:0:0:
264,168,146149,1,8,0:0:0:0:
264,168,146422,1,0,0:0:0:0:
264,168,146695,1,0,0:0:0:0:
264,168,146899,1,0,0:0:0:0:
264,168,147104,1,8,0:0:0:0:
264,168,147445,1,8,0:0:0:0:
264,168,147649,1,8,0:0:0:0:
264,168,147786,1,0,0:0:0:0:
264,168,148058,1,0,0:0:0:0:
264,168,148331,1,0,0:0:0:0:
264,168,148536,1,0,0:0:0:0:
264,168,148604,1,0,0:0:0:0:
264,168,148740,1,8,0:0:0:0:
264,168,148877,1,8,0:0:0:0:
264,168,149013,1,8,0:0:0:0:
264,168,149149,1,8,0:0:0:0:
264,168,149286,1,0,0:0:0:0:
264,168,149422,1,0,0:0:0:0:
264,168,149558,1,0,0:0:0:0:
264,168,149695,1,0,0:0:0:0:
264,168,149831,1,8,0:0:0:0:
264,168,149968,1,8,0:0:0:0:
264,168,150104,1,8,0:0:0:0:
264,168,150240,1,8,0:0:0:0:
264,168,150377,1,0,0:0:0:0:
264,168,150513,1,0,0:0:0:0:
264,168,150649,1,0,0:0:0:0:
264,168,150786,1,0,0:0:0:0:
264,168,150854,1,8,0:0:0:0:
264,168,150990,1,8,0:0:0:0:
264,168,151195,1,8,0:0:0:0:
264,168,151263,1,8,0:0:0:0:
264,168,151331,1,0,0:0:0:0:
264,168,151468,1,0,0:0:0:0:
264,168,152013,1,0,0:0:0:0:
264,168,152218,1,0,0:0:0:0:
264,168,152354,1,0,0:0:0:0:
308,168,152490,1,0,0:0:0:0:
308,168,152695,1,0,0:0:0:0:
308,168,154468,1,0,0:0:0:0:
308,168,154922,1,8,0:0:0:0:
308,168,155377,1,8,0:0:0:0:
308,168,155831,1,8,0:0:0:0:
308,168,156134,1,0,0:0:0:0:
144,204,156364,1,0,0:0:0:0:
144,204,156536,1,0,0:0:0:0:
144,204,156709,1,8,0:0:0:0:
144,204,156881,1,8,0:0:0:0:
144,204,157054,1,8,0:0:0:0:
144,204,157226,1,8,0:0:0:0:
144,204,157399,1,0,0:0:0:0:
144,204,157571,1,0,0:0:0:0:
144,204,157916,1,0,0:0:0:0:
144,204,158261,1,0,0:0:0:0:
144,204,158778,1,8,0:0:0:0:
144,204,158950,1,8,0:0:0:0:
144,204,159123,1,0,0:0:0:0:
144,204,159295,1,8,0:0:0:0:
144,204,159468,1,8,0:0:0:0:
144,204,159640,1,8,0:0:0:0:
144,204,159812,1,8,0:0:0:0:
144,204,160126,1,0,0:0:0:0:
144,204,160331,1,0,0:0:0:0:
144,204,160535,1,0,0:0:0:0:
144,204,160603,1,8,0:0:0:0:
144,204,160876,1,8,0:0:0:0:
144,204,161081,1,8,0:0:0:0:
144,204,161285,1,0,0:0:0:0:
144,204,161353,1,0,0:0:0:0:
144,204,161422,1,8,0:0:0:0:
144,204,161490,1,0,0:0:0:0:
144,204,161626,1,8,0:0:0:0:
144,204,161694,1,0,0:0:0:0:
144,204,161831,1,8,0:0:0:0:
144,204,161899,1,0,0:0:0:0:
144,204,161967,1,8,0:0:0:0:
144,204,162103,1,0,0:0:0:0:
144,204,162172,1,8,0:0:0:0:
144,204,162308,1,8,0:0:0:0:
144,204,162444,1,8,0:0:0:0:
144,204,162512,1,0,0:0:0:0:
144,204,162649,1,0,0:0:0:0:
144,204,162717,1,8,0:0:0:0:
144,204,162990,1,0,0:0:0:0:
144,204,163058,1,0,0:0:0:0:
144,204,163194,1,0,0:0:0:0:
144,204,163262,1,8,0:0:0:0:
144,204,163467,1,8,0:0:0:0:
144,204,163603,1,8,0:0:0:0:
144,204,163740,1,0,0:0:0:0:
144,204,163876,1,0,0:0:0:0:
144,204,164012,1,0,0:0:0:0:
144,204,164217,1,0,0:0:0:0:
144,204,164353,1,8,0:0:0:0:
144,204,164558,1,8,0:0:0:0:
144,204,164967,1,8,0:0:0:0:
144,204,165103,1,8,0:0:0:0:
144,204,165376,1,0,0:0:0:0:
144,204,165512,1,0,0:0:0:0:
144,204,165649,1,0,0:0:0:0:
144,204,165785,1,0,0:0:0:0:
144,204,165853,1,0,0:0:0:0:
144,204,165990,1,8,0:0:0:0:
144,204,166126,1,0,0:0:0:0:
144,204,166194,1,8,0:0:0:0:
144,204,166262,1,0,0:0:0:0:
144,204,166399,1,8,0:0:0:0:
144,204,166467,1,0,0:0:0:0:
144,204,166535,1,8,0:0:0:0:
144,204,166672,1,0,0:0:0:0:
144,204,167012,1,0,0:0:0:0:
144,204,167217,1,8,0:0:0:0:
144,204,167490,1,8,0:0:0:0:
144,204,167626,1,8,0:0:0:0:
144,204,167762,1,8,0:0:0:0:
144,204,167899,1,0,0:0:0:0:
144,204,168035,1,0,0:0:0:0:
144,204,168172,1,0,0:0:0:0:
144,204,168308,1,0,0:0:0:0:
144,204,168512,1,8,0:0:0:0:
144,204,168649,1,8,0:0:0:0:
144,204,168922,1,8,0:0:0:0:
144,204,169194,1,0,0:0:0:0:
144,204,169262,1,8,0:0:0:0:
144,204,169399,1,0,0:0:0:0:
144,204,169467,1,8,0:0:0:0:
144,204,169535,1,0,0:0:0:0:
144,204,169672,1,8,0:0:0:0:
144,204,169740,1,0,0:0:0:0:
144,204,169876,1,8,0:0:0:0:
144,204,169944,1,0,0:0:0:0:
144,204,170012,1,8,0:0:0:0:
144,204,170081,1,0,0:0:0:0:
144,204,170217,1,8,0:0:0:0:
144,204,170285,1,0,0:0:0:0:
144,204,170422,1,8,0:0:0:0:
144,204,170490,1,0,0:0:0:0:
144,204,170558,1,8,0:0:0:0:
144,204,170694,1,0,0:0:0:0:
144,204,170762,1,8,0:0:0:0:
144,204,170831,1,0,0:0:0:0:
144,204,170899,1,0,0:0:0:0:
144,204,170967,1,8,0:0:0:0:
144,204,171035,1,0,0:0:0:0:
144,204,171103,1,8,0:0:0:0:
144,204,171172,1,8,0:0:0:0:
144,204,171240,1,8,0:0:0:0:
144,204,171376,1,0,0:0:0:0:
144,204,171512,1,0,0:0:0:0:
144,204,171649,1,8,0:0:0:0:
144,204,171785,1,8,0:0:0:0:
144,204,171922,1,8,0:0:0:0:
144,204,172058,1,8,0:0:0:0:
144,204,172194,1,0,0:0:0:0:
144,204,172331,1,0,0:0:0:0:
144,204,172467,1,0,0:0:0:0:
144,204,172603,1,0,0:0:0:0:
144,204,172672,1,8,0:0:0:0:
144,204,172808,1,8,0:0:0:0:
144,204,173081,1,8,0:0:0:0:
144,204,173353,1,0,0:0:0:0:
144,204,173490,1,0,0:0:0:0:
144,204,173626,1,0,0:0:0:0:
144,204,173762,1,0,0:0:0:0:
144,204,173899,1,0,0:0:0:0:
144,204,173967,1,8,0:0:0:0:
144,204,174172,1,8,0:0:0:0:
144,204,174308,1,8,0:0:0:0:
144,204,174444,1,0,0:0:0:0:
144,204,174512,1,0,0:0:0:0:
144,204,174717,1,0,0:0:0:0:
144,204,174853,1,0,0:0:0:0:
144,204,174990,1,8,0:0:0:0:
144,204,175058,1,8,0:0:0:0:
144,204,175194,1,8,0:0:0:0:
144,204,175331,1,8,0:0:0:0:
144,204,175535,1,8,0:0:0:0:
144,204,175876,1,0,0:0:0:0:
144,204,176149,1,0,0:0:0:0:
144,204,176285,1,0,0:0:0:0:
144,204,176490,1,8,0:0:0:0:
144,204,176694,1,8,0:0:0:0:
144,204,176899,1,0,0:0:0:0:
144,204,176967,1,8,0:0:0:0:
144,204,177103,1,0,0:0:0:0:
144,204,177172,1,8,0:0:0:0:
144,204,177308,1,0,0:0:0:0:
144,204,177512,1,0,0:0:0:0:
144,204,177717,1,8,0:0:0:0:
144,204,178058,1,8,0:0:0:0:
144,204,178331,1,8,0:0:0:0:
144,204,178467,1,8,0:0:0:0:
144,204,178672,1,0,0:0:0:0:
144,204,179012,1,0,0:0:0:0:
144,204,179149,1,0,0:0:0:0:
144,204,179217,1,0,0:0:0:0:
144,204,179490,1,8,0:0:0:0:
144,204,179831,1,8,0:0:0:0:
144,204,180035,1,0,0:0:0:0:
144,204,180308,1,8,0:0:0:0:
144,204,180444,1,8,0:0:0:0:
144,204,180581,1,8,0:0:0:0:
144,204,180717,1,8,0:0:0:0:
144,204,180990,1,0,0:0:0:0:
144,204,181194,1,0,0:0:0:0:
144,204,181331,1,8,0:0:0:0:
144,204,181603,1,8,0:0:0:0:
144,204,181876,1,0,0:0:0:0:
144,204,182149,1,8,0:0:0:0:
144,204,182422,1,8,0:0:0:0:
144,204,182626,1,8,0:0:0:0:
144,204,182762,1,8,0:0:0:0:
144,204,182967,1,8,0:0:0:0:
144,204,183172,1,0,0:0:0:0:
144,204,183581,1,0,0:0:0:0:
144,204,183785,1,0,0:0:0:0:
144,204,183990,1,8,0:0:0:0:
144,204,184262,1,8,0:0:0:0:
144,204,184672,1,8,0:0:0:0:
144,204,184808,1,8,0:0:0:0:
144,204,184944,1,8,0:0:0:0:
144,204,185285,1,8,0:0:0:0:
144,204,185626,1,0,0:0:0:0:
144,204,185899,1,0,0:0:0:0:
144,204,186103,1,0,0:0:0:0:
144,204,186376,1,8,0:0:0:0:
144,204,186649,1,0,0:0:0:0:
144,204,186717,1,8,0:0:0:0:
144,204,186785,1,0,0:0:0:0:
144,204,186922,1,8,0:0:0:0:
144,204,187058,1,0,0:0:0:0:
144,204,187126,1,8,0:0:0:0:
144,204,187331,1,0,0:0:0:0:
144,204,187535,1,0,0:0:0:0:
316,252,187944,1,0,0:0:0:0:
316,252,188149,1,8,0:0:0:0:
316,252,188422,1,8,0:0:0:0:
316,252,188694,1,8,0:0:0:0:
316,252,188831,1,8,0:0:0:0:
316,252,188899,1,8,0:0:0:0:
316,252,189103,1,0,0:0:0:0:
316,252,189376,1,0,0:0:0:0:
316,252,189512,1,0,0:0:0:0:
316,252,189853,1,8,0:0:0:0:
316,252,190058,1,8,0:0:0:0:
316,252,190262,1,8,0:0:0:0:
316,252,190808,1,8,0:0:0:0:
316,252,190944,1,8,0:0:0:0:
316,252,191012,1,8,0:0:0:0:
316,252,191217,1,8,0:0:0:0:
304,236,191285,1,8,0:0:0:0:
316,252,191558,1,2,0:0:0:0:
316,252,191831,1,2,0:0:0:0:
256,192,192103,12,0,192785,0:0:0:0:
