osu file format v14

[General]
AudioFilename: audio.mp3
AudioLeadIn: 0
PreviewTime: 45202
Countdown: 0
SampleSet: Soft
StackLeniency: 0.7
Mode: 3
LetterboxInBreaks: 0
SpecialStyle: 0
WidescreenStoryboard: 1

[Editor]
Bookmarks: 10570,14099,17628,21158,24687,31746,38805,45864,52922,59981,63511,67040,70569,74099,81158,88217,95275,102334,109393,116452,123290,130569,133217,138511,140717,147334,150864,154393,157922,161452,164981
DistanceSpacing: 1.9
BeatDivisor: 4
GridSize: 8
TimelineZoom: 2.599999

[Metadata]
Title:Shippaisaku Shoujo [inabakumori Remix]
TitleUnicode:失敗作少女 [稲葉曇 Remix]
Artist:Kairiki Bear
ArtistUnicode:かいりきベア
Creator:Ballistic
Version:Forlorn
Source:
Tags:MichouP 視長P 因幡プカリ Inaba Pukari きゐな kiwina Inaba Cumori Kaai Yuki 歌愛ユキ Failure Girl ベノマ Venomer Benoma SCGA-00093 ENCORE ALBUM Subcul-rise Record 株式会社サブカライズレコード Japanese Vocaloid jpop j-pop jrock j-rock electronic ln long notes releases Mirsaaa FAMoss
BeatmapID:3334514
BeatmapSetID:1604016

[Difficulty]
HPDrainRate:8.2
CircleSize:4
OverallDifficulty:7.5
ApproachRate:5
SliderMultiplier:1.4
SliderTickRate:1

[Events]
//Background and Video events
0,0,"background24.jpg",0,0
//Break Periods
//Storyboard Layer 0 (Background)
//Storyboard Layer 1 (Fail)
//Storyboard Layer 2 (Pass)
//Storyboard Layer 3 (Foreground)
//Storyboard Layer 4 (Overlay)
//Storyboard Sound Samples
Sample,37040,0,"ride00.wav",70
Sample,86452,0,"ride00.wav",70
Sample,123069,0,"ride00.wav",70

[TimingPoints]
10570,441.176470588235,4,2,1,60,1,0
45864,-100,4,2,1,60,0,1
59981,-100,4,2,1,60,0,0
95275,-100,4,2,1,60,0,1
109393,-100,4,2,1,60,0,0
140717,-100,4,2,1,60,0,1
147334,-100,4,2,1,60,0,0
149099,-100,4,2,1,60,0,1
150422,-100,4,2,1,60,0,0

[HitObjects]
192,192,10349,128,0,10459:0:0:0:0:
64,192,10459,128,0,10570:0:0:0:0:
320,192,10570,128,2,10790:0:0:0:0:
448,192,10570,128,4,10680:0:0:0:0:
192,192,10680,128,0,10790:0:0:0:0:
448,192,10790,128,0,10900:0:0:0:0:
64,192,10900,128,0,11121:0:0:0:0:
192,192,11011,128,8,11121:0:0:0:0:
448,192,11011,1,2,0:0:0:0:
320,192,11121,128,0,11231:0:0:0:0:
192,192,11231,128,0,11342:0:0:0:0:
64,192,11342,128,0,11452:0:0:0:0:
320,192,11342,1,0,0:0:0:0:
192,192,11452,1,2,0:0:0:0:
448,192,11452,1,0,0:0:0:0:
320,192,11562,128,0,11672:0:0:0:0:
64,192,11672,128,0,11820:0:0:0:0:
192,192,11672,128,0,11893:0:0:0:0:
448,192,11783,128,0,11893:0:0:0:0:
64,192,11893,128,8,12003:0:0:0:0:
320,192,11893,1,2,0:0:0:0:
192,192,12003,128,0,12114:0:0:0:0:
448,192,12003,128,0,12224:0:0:0:0:
320,192,12114,128,0,12224:0:0:0:0:
64,192,12224,128,0,12334:0:0:0:0:
320,192,12334,128,2,12555:0:0:0:0:
448,192,12334,128,0,12555:0:0:0:0:
64,192,12555,128,0,12665:0:0:0:0:
320,192,12665,128,0,12775:0:0:0:0:
64,192,12775,1,8,0:0:0:0:
448,192,12775,1,2,0:0:0:0:
192,192,12886,128,0,12996:0:0:0:0:
320,192,12996,128,0,13106:0:0:0:0:
448,192,12996,1,0,0:0:0:0:
64,192,13106,128,0,13217:0:0:0:0:
192,192,13106,1,0,0:0:0:0:
320,192,13217,128,2,13327:0:0:0:0:
448,192,13217,128,0,13327:0:0:0:0:
192,192,13327,1,0,0:0:0:0:
320,192,13437,128,0,13658:0:0:0:0:
448,192,13437,128,0,13547:0:0:0:0:
64,192,13547,128,0,13658:0:0:0:0:
192,192,13658,128,8,13768:0:0:0:0:
448,192,13658,128,2,13768:0:0:0:0:
64,192,13768,128,0,13878:0:0:0:0:
192,192,13878,128,0,14099:0:0:0:0:
64,192,13989,128,0,14099:0:0:0:0:
320,192,14099,128,2,14320:0:0:0:0:
448,192,14099,128,0,14209:0:0:0:0:
192,192,14209,128,0,14320:0:0:0:0:
448,192,14320,128,0,14430:0:0:0:0:
64,192,14430,128,0,14650:0:0:0:0:
192,192,14540,128,8,14650:0:0:0:0:
448,192,14540,1,2,0:0:0:0:
320,192,14650,128,0,14761:0:0:0:0:
192,192,14761,128,0,14871:0:0:0:0:
64,192,14871,128,0,14981:0:0:0:0:
320,192,14871,1,0,0:0:0:0:
192,192,14981,1,2,0:0:0:0:
448,192,14981,1,0,0:0:0:0:
320,192,15092,128,0,15202:0:0:0:0:
64,192,15202,128,0,15349:0:0:0:0:
192,192,15202,128,0,15422:0:0:0:0:
448,192,15312,128,0,15422:0:0:0:0:
64,192,15422,128,8,15533:0:0:0:0:
320,192,15422,1,2,0:0:0:0:
192,192,15533,128,0,15643:0:0:0:0:
448,192,15533,128,0,15753:0:0:0:0:
320,192,15643,128,0,15753:0:0:0:0:
64,192,15753,128,0,15864:0:0:0:0:
320,192,15864,128,2,16084:0:0:0:0:
448,192,15864,128,0,16084:0:0:0:0:
64,192,16084,128,0,16195:0:0:0:0:
192,192,16195,128,0,16305:0:0:0:0:
64,192,16305,1,2,0:0:0:0:
448,192,16305,1,8,0:0:0:0:
320,192,16415,128,0,16525:0:0:0:0:
64,192,16525,1,0,0:0:0:0:
192,192,16525,128,0,16636:0:0:0:0:
320,192,16636,1,8,0:0:0:0:
448,192,16636,128,0,16746:0:0:0:0:
64,192,16746,128,2,16856:0:0:0:0:
192,192,16746,128,0,17077:0:0:0:0:
448,192,16856,128,0,17077:0:0:0:0:
64,192,16967,128,0,17297:0:0:0:0:
320,192,16967,128,0,17187:0:0:0:0:
192,192,17187,128,8,17297:0:0:0:0:
448,192,17187,128,2,17408:0:0:0:0:
192,192,17408,128,8,17518:0:0:0:0:
320,192,17408,128,0,17628:0:0:0:0:
64,192,17518,1,8,0:0:0:0:
192,192,17628,128,4,17849:0:0:0:0:
448,192,17628,128,2,17739:0:0:0:0:
64,192,17739,128,0,17849:0:0:0:0:
448,192,17849,128,0,17959:0:0:0:0:
64,192,17959,128,0,18180:0:0:0:0:
320,192,18069,1,8,0:0:0:0:
448,192,18069,128,2,18180:0:0:0:0:
192,192,18180,128,0,18290:0:0:0:0:
320,192,18290,128,0,18400:0:0:0:0:
192,192,18400,1,0,0:0:0:0:
448,192,18400,128,0,18511:0:0:0:0:
64,192,18511,1,2,0:0:0:0:
320,192,18511,1,0,0:0:0:0:
192,192,18621,128,0,18731:0:0:0:0:
320,192,18731,128,0,18952:0:0:0:0:
448,192,18731,128,0,18878:0:0:0:0:
64,192,18842,128,0,18952:0:0:0:0:
192,192,18952,1,8,0:0:0:0:
448,192,18952,128,2,19062:0:0:0:0:
64,192,19062,128,0,19283:0:0:0:0:
320,192,19062,128,0,19172:0:0:0:0:
192,192,19172,128,0,19283:0:0:0:0:
448,192,19283,128,0,19393:0:0:0:0:
64,192,19393,128,2,19614:0:0:0:0:
192,192,19393,128,0,19614:0:0:0:0:
448,192,19614,128,0,19724:0:0:0:0:
320,192,19724,128,0,19834:0:0:0:0:
64,192,19834,1,8,0:0:0:0:
448,192,19834,1,2,0:0:0:0:
192,192,19944,128,0,20055:0:0:0:0:
320,192,20055,128,0,20165:0:0:0:0:
448,192,20055,1,0,0:0:0:0:
64,192,20165,128,0,20275:0:0:0:0:
192,192,20165,1,0,0:0:0:0:
320,192,20275,128,2,20386:0:0:0:0:
448,192,20275,128,0,20386:0:0:0:0:
192,192,20386,1,0,0:0:0:0:
320,192,20496,128,0,20717:0:0:0:0:
448,192,20496,128,0,20606:0:0:0:0:
64,192,20606,128,0,20717:0:0:0:0:
192,192,20717,128,8,20827:0:0:0:0:
448,192,20717,128,2,20827:0:0:0:0:
64,192,20827,128,0,20937:0:0:0:0:
192,192,20937,128,0,21158:0:0:0:0:
64,192,21047,128,0,21158:0:0:0:0:
320,192,21158,128,2,21378:0:0:0:0:
448,192,21158,128,0,21268:0:0:0:0:
192,192,21268,128,0,21378:0:0:0:0:
448,192,21378,128,0,21489:0:0:0:0:
64,192,21489,128,0,21709:0:0:0:0:
320,192,21599,1,8,0:0:0:0:
448,192,21599,128,2,21709:0:0:0:0:
192,192,21709,128,0,21819:0:0:0:0:
320,192,21819,128,0,21930:0:0:0:0:
192,192,21930,1,0,0:0:0:0:
448,192,21930,128,0,22040:0:0:0:0:
64,192,22040,1,2,0:0:0:0:
320,192,22040,1,0,0:0:0:0:
192,192,22150,128,0,22261:0:0:0:0:
320,192,22261,128,0,22481:0:0:0:0:
448,192,22261,128,0,22408:0:0:0:0:
64,192,22371,128,0,22481:0:0:0:0:
192,192,22481,1,8,0:0:0:0:
448,192,22481,128,2,22592:0:0:0:0:
64,192,22592,128,0,22812:0:0:0:0:
320,192,22592,128,0,22702:0:0:0:0:
192,192,22702,128,0,22812:0:0:0:0:
448,192,22812,128,0,22922:0:0:0:0:
64,192,22922,128,2,23143:0:0:0:0:
192,192,22922,128,0,23143:0:0:0:70:ride00.wav
448,192,23143,128,0,23253:0:0:0:0:
192,192,23253,128,0,23364:0:0:0:0:
64,192,23364,1,8,0:0:0:0:
448,192,23364,1,0,0:0:0:0:
320,192,23474,128,0,23584:0:0:0:0:
64,192,23584,1,0,0:0:0:0:
192,192,23584,128,0,23694:0:0:0:0:
320,192,23694,1,8,0:0:0:0:
448,192,23694,128,0,23805:0:0:0:0:
64,192,23805,128,2,23915:0:0:0:0:
192,192,23805,128,0,23915:0:0:0:0:
320,192,23915,1,8,0:0:0:0:
448,192,23915,1,0,0:0:0:0:
64,192,24025,128,8,24136:0:0:0:0:
192,192,24025,128,0,24136:0:0:0:0:
192,192,24246,128,8,24356:0:0:0:0:
448,192,24246,128,2,24356:0:0:0:0:
64,192,24467,1,8,0:0:0:0:
320,192,24467,1,0,0:0:0:0:
448,192,24577,1,8,0:0:0:0:
64,192,24687,128,4,24908:0:0:0:0:
192,192,24687,128,2,24797:0:0:0:0:
320,192,24687,1,0,0:0:0:0:
448,192,24908,128,0,25018:0:0:0:0:
320,192,25018,128,0,25128:0:0:0:0:
64,192,25128,1,8,0:0:0:0:
448,192,25128,1,0,0:0:0:0:
320,192,25349,128,0,25459:0:0:0:0:
64,192,25459,128,2,25569:0:0:0:0:
192,192,25459,1,0,0:0:0:0:
448,192,25569,128,0,25680:0:0:0:0:
192,192,25680,128,0,25790:0:0:0:0:
320,192,25790,128,2,26011:0:0:0:0:
448,192,25790,128,0,25900:0:0:0:0:
64,192,25900,128,0,26121:0:0:0:0:
192,192,26011,1,8,0:0:0:0:
448,192,26011,1,0,0:0:0:0:
320,192,26231,128,0,26342:0:0:0:0:
64,192,26452,128,2,26672:0:0:0:0:
192,192,26452,128,0,26562:0:0:0:0:
448,192,26562,128,0,26783:0:0:0:0:
64,192,26783,128,0,26893:0:0:0:0:
320,192,26893,128,8,27114:0:0:0:0:
448,192,26893,1,0,0:0:0:0:
192,192,27003,128,0,27114:0:0:0:0:
64,192,27114,128,0,27224:0:0:0:0:
192,192,27224,1,2,0:0:0:0:
320,192,27224,1,0,0:0:0:0:
448,192,27334,128,0,27555:0:0:0:0:
320,192,27444,128,0,27555:0:0:0:0:
64,192,27555,1,2,0:0:0:0:
192,192,27555,128,0,27665:0:0:0:0:
448,192,27665,128,0,27775:0:0:0:0:
64,192,27775,1,8,0:0:0:0:
320,192,27775,1,0,0:0:0:0:
192,192,27996,128,0,28217:0:0:0:0:
448,192,27996,128,0,28106:0:0:0:0:
64,192,28106,128,0,28217:0:0:0:0:
320,192,28217,128,2,28327:0:0:0:0:
448,192,28217,128,0,28437:0:0:0:0:
64,192,28327,1,0,0:0:0:0:
192,192,28437,128,0,28547:0:0:0:0:
64,192,28547,128,0,28658:0:0:0:0:
192,192,28658,1,8,0:0:0:0:
448,192,28658,1,0,0:0:0:0:
64,192,28878,128,0,29099:0:0:0:0:
192,192,28989,128,2,29099:0:0:0:0:
320,192,28989,1,0,0:0:0:0:
448,192,29099,128,0,29319:0:0:0:0:
320,192,29209,128,0,29319:0:0:0:0:
64,192,29319,128,2,29430:0:0:0:0:
192,192,29319,128,0,29540:0:0:0:0:
448,192,29430,128,0,29540:0:0:0:0:
64,192,29540,1,8,0:0:0:0:
320,192,29540,1,0,0:0:0:0:
64,192,29761,128,0,29981:0:0:0:0:
192,192,29761,128,0,29871:0:0:0:0:
448,192,29871,128,0,29981:0:0:0:0:
192,192,29981,128,2,30092:0:0:0:0:
320,192,29981,128,0,30092:0:0:0:0:
64,192,30202,128,0,30312:0:0:0:0:
320,192,30312,128,0,30422:0:0:0:0:
192,192,30422,128,8,30533:0:0:0:0:
448,192,30422,1,0,0:0:0:0:
320,192,30533,128,0,30643:0:0:0:0:
64,192,30643,128,0,30753:0:0:0:0:
320,192,30753,128,2,30864:0:0:0:0:
448,192,30753,128,0,30864:0:0:0:0:
64,192,30864,128,2,30974:0:0:0:0:
192,192,30864,128,0,30974:0:0:0:0:
448,192,30974,128,0,31084:0:0:0:0:
64,192,31084,128,2,31194:0:0:0:0:
320,192,31084,128,0,31194:0:0:0:0:
192,192,31194,128,0,31305:0:0:0:0:
320,192,31305,128,2,31415:0:0:0:0:
448,192,31305,128,0,31415:0:0:0:0:
64,192,31415,128,2,31636:0:0:0:0:
192,192,31415,128,0,31525:0:0:0:0:
320,192,31636,128,2,31746:0:0:0:0:
448,192,31636,128,0,31746:0:0:0:0:
64,192,31746,128,2,31967:0:0:0:0:
192,192,31746,128,4,31967:0:0:0:0:
448,192,31967,128,0,32077:0:0:0:0:
64,192,32077,128,0,32187:0:0:0:0:
192,192,32187,128,2,32297:0:0:0:0:
448,192,32187,128,8,32408:0:0:0:0:
64,192,32408,128,0,32518:0:0:0:0:
320,192,32518,128,0,32628:0:0:0:0:
448,192,32518,128,0,32739:0:0:0:0:
64,192,32628,128,2,32739:0:0:0:0:
192,192,32628,1,0,0:0:0:0:
320,192,32739,128,0,32849:0:0:0:0:
192,192,32849,128,0,32959:0:0:0:0:
448,192,32849,128,0,33069:0:0:0:0:
320,192,32959,128,0,33069:0:0:0:0:
64,192,33069,1,2,0:0:0:0:
192,192,33069,1,8,0:0:0:0:
320,192,33290,128,0,33400:0:0:0:0:
448,192,33290,128,0,33511:0:0:0:0:
64,192,33400,128,0,33511:0:0:0:0:
192,192,33511,128,2,33621:0:0:0:0:
320,192,33511,128,0,33731:0:0:0:0:
448,192,33621,128,0,33731:0:0:0:0:
64,192,33842,128,0,33952:0:0:0:0:
192,192,33952,128,2,34062:0:0:0:0:
448,192,33952,128,8,34172:0:0:0:0:
192,192,34172,128,0,34283:0:0:0:0:
320,192,34283,128,0,34503:0:0:0:0:
448,192,34283,128,0,34393:0:0:0:0:
64,192,34393,128,2,34503:0:0:0:0:
192,192,34503,128,0,34614:0:0:0:0:
320,192,34614,128,0,34834:0:0:0:0:
448,192,34614,128,0,34724:0:0:0:0:
64,192,34724,128,0,34834:0:0:0:0:
192,192,34834,1,2,0:0:0:0:
448,192,34834,1,8,0:0:0:0:
64,192,35055,128,0,35275:0:0:0:0:
192,192,35055,128,0,35165:0:0:0:0:
448,192,35165,128,0,35275:0:0:0:0:
320,192,35275,128,2,35496:0:0:0:0:
64,192,35386,128,0,35496:0:0:0:0:
192,192,35496,128,0,35606:0:0:0:0:
448,192,35606,128,0,35717:0:0:0:0:
64,192,35717,128,2,35937:0:0:0:0:
320,192,35717,128,8,35827:0:0:0:0:
448,192,35937,128,0,36047:0:0:0:0:
64,192,36047,128,0,36158:0:0:0:0:
192,192,36047,128,0,36268:0:0:0:0:
320,192,36158,128,2,36268:0:0:0:0:
448,192,36158,1,0,0:0:0:0:
64,192,36268,128,0,36378:0:0:0:0:
192,192,36378,128,0,36599:0:0:0:0:
320,192,36378,128,0,36489:0:0:0:0:
448,192,36489,128,0,36599:0:0:0:0:
64,192,36599,1,2,0:0:0:0:
320,192,36599,1,8,0:0:0:0:
64,192,36819,128,0,37040:0:0:0:0:
192,192,36819,128,0,36930:0:0:0:0:
320,192,36930,128,0,37040:0:0:0:0:
448,192,37040,128,2,37261:0:0:0:0:
192,192,37150,128,0,37371:0:0:0:0:
320,192,37261,128,0,37371:0:0:0:0:
64,192,37371,128,0,37481:0:0:0:0:
192,192,37481,128,8,37592:0:0:0:0:
448,192,37481,128,2,37702:0:0:0:0:
320,192,37592,128,0,37702:0:0:0:0:
64,192,37702,128,0,37812:0:0:0:0:
192,192,37812,128,8,37922:0:0:0:0:
448,192,37812,128,0,38033:0:0:0:0:
64,192,37922,128,8,38033:0:0:0:0:
320,192,37922,128,2,38033:0:0:0:0:
192,192,38033,128,0,38143:0:0:0:70:tom01.wav
320,192,38143,128,2,38253:0:0:0:0:
448,192,38143,128,0,38364:0:0:0:0:
64,192,38253,128,2,38364:0:0:0:0:
192,192,38364,128,2,38584:0:0:0:0:
320,192,38364,128,0,38694:0:0:0:0:
448,192,38474,128,0,38694:0:0:0:0:
64,192,38584,128,2,38805:0:0:0:0:
192,192,38694,128,0,38805:0:0:0:0:
320,192,38805,128,2,38915:0:0:0:0:
448,192,38805,128,4,39025:0:0:0:0:
64,192,39025,128,0,39136:0:0:0:0:
192,192,39025,128,0,39136:0:0:0:0:
320,192,39136,128,2,39246:0:0:0:0:
448,192,39136,128,0,39356:0:0:0:0:
64,192,39246,1,8,0:0:0:0:
192,192,39246,1,0,0:0:0:0:
320,192,39356,128,0,39467:0:0:0:0:
64,192,39467,128,2,39687:0:0:0:0:
192,192,39467,128,0,39577:0:0:0:0:
448,192,39577,128,0,39797:0:0:0:0:
192,192,39687,1,0,0:0:0:70:tom01.wav
320,192,39687,128,0,39797:0:0:0:0:
64,192,39797,128,0,40018:0:0:0:70:tom02.wav
192,192,39908,128,0,40018:0:0:0:0:
320,192,40018,128,0,40128:0:0:0:70:tom01.wav
448,192,40018,1,0,0:0:0:0:
64,192,40128,128,0,40349:0:0:0:70:tom02.wav
192,192,40239,128,0,40349:0:0:0:0:
320,192,40349,1,2,0:0:0:0:
448,192,40349,1,0,0:0:0:0:
64,192,40459,1,0,0:0:0:0:
192,192,40569,128,2,40680:0:0:0:0:
448,192,40569,128,0,40680:0:0:0:70:ride00.wav
64,192,40790,128,0,40900:0:0:0:0:
320,192,40900,128,2,41011:0:0:0:0:
448,192,40900,1,0,0:0:0:0:
64,192,41011,128,8,41231:0:0:0:0:
192,192,41011,128,0,41231:0:0:0:0:
448,192,41231,128,2,41452:0:0:0:0:
192,192,41342,128,0,41452:0:0:0:0:
64,192,41452,128,8,41562:0:0:0:0:
320,192,41452,128,2,41672:0:0:0:0:
192,192,41562,1,2,0:0:0:0:
448,192,41562,128,8,41783:0:0:0:0:
64,192,41672,128,0,41783:0:0:0:0:
192,192,41783,128,2,41893:0:0:0:0:
320,192,41783,128,8,42003:0:0:0:0:
64,192,41893,1,2,0:0:0:0:
448,192,41893,128,8,42114:0:0:0:0:
192,192,42003,128,0,42114:0:0:0:0:
64,192,42114,1,2,0:0:0:0:
320,192,42114,1,0,0:0:0:0:
192,192,42334,1,2,0:0:0:0:
448,192,42334,128,4,42444:0:0:0:0:
64,192,42444,128,0,42555:0:0:0:0:
320,192,42555,128,2,42665:0:0:0:0:
448,192,42555,128,0,42665:0:0:0:0:
64,192,42665,128,2,42775:0:0:0:0:
192,192,42665,128,0,42775:0:0:0:0:
320,192,42775,128,8,42996:0:0:0:0:
448,192,42775,128,0,42996:0:0:0:0:
64,192,42996,128,2,43106:0:0:0:0:
192,192,42996,128,0,43217:0:0:0:0:
448,192,43106,128,0,43217:0:0:0:0:
64,192,43217,128,0,43327:0:0:0:70:tom01.wav
320,192,43217,128,0,43327:0:0:0:0:
192,192,43327,128,0,43547:0:0:0:70:tom02.wav
448,192,43327,128,0,43437:0:0:0:0:
64,192,43437,128,0,43547:0:0:0:0:
320,192,43547,128,0,43658:0:0:0:70:tom01.wav
448,192,43547,128,0,43658:0:0:0:0:
64,192,43658,128,0,43768:0:0:0:70:tom02.wav
192,192,43658,128,0,43878:0:0:0:0:
320,192,43768,128,0,43878:0:0:0:0:
64,192,43878,128,8,44099:0:0:0:0:
448,192,43878,128,0,43989:0:0:0:0:
192,192,44099,1,10,0:0:0:0:
448,192,44099,1,4,0:0:0:0:
320,192,44319,1,0,0:0:0:0:
320,192,44430,1,0,0:0:0:0:
64,192,44650,1,0,0:0:0:0:
64,192,44761,1,0,0:0:0:0:
320,192,44981,128,2,45202:0:0:0:0:
448,192,44981,128,8,45202:0:0:0:0:
64,192,45202,128,0,45312:0:0:0:0:
320,192,45312,128,0,45422:0:0:0:0:
192,192,45422,128,0,45533:0:0:0:0:
320,192,45643,128,0,45864:0:0:0:0:
64,192,45864,128,2,46194:0:0:0:0:
192,192,45864,128,4,46084:0:0:0:0:
448,192,45864,1,0,0:0:0:0:
448,192,46084,128,0,46305:0:0:0:0:
192,192,46194,128,0,46305:0:0:0:0:
64,192,46305,128,2,46415:0:0:0:0:
320,192,46305,128,8,46525:0:0:0:0:
448,192,46415,128,0,46636:0:0:0:0:
192,192,46525,128,0,46636:0:0:0:0:
64,192,46636,128,0,46746:0:0:0:0:
320,192,46636,128,0,46746:0:0:0:0:
448,192,46746,128,2,46856:0:0:0:0:
64,192,46856,128,0,47077:0:0:0:0:
320,192,46856,128,0,46967:0:0:0:0:
192,192,46967,128,0,47077:0:0:0:0:
448,192,46967,128,0,47187:0:0:0:0:
320,192,47077,128,0,47187:0:0:0:0:
64,192,47187,128,2,47297:0:0:0:0:
192,192,47187,128,8,47297:0:0:0:0:
448,192,47297,128,0,47408:0:0:0:0:
64,192,47408,128,0,47628:0:0:0:0:
320,192,47408,128,0,47628:0:0:0:0:
192,192,47628,128,2,47849:0:0:0:0:
448,192,47628,128,0,47739:0:0:0:0:
64,192,47739,128,0,47849:0:0:0:0:
320,192,47849,128,0,48069:0:0:0:0:
448,192,47959,128,0,48069:0:0:0:0:
64,192,48069,128,2,48290:0:0:0:0:
192,192,48069,128,8,48290:0:0:0:0:
320,192,48290,128,0,48400:0:0:0:0:
448,192,48290,128,0,48511:0:0:0:0:
64,192,48400,128,0,48621:0:0:0:0:
192,192,48511,128,2,48621:0:0:0:0:
320,192,48511,1,0,0:0:0:0:
320,192,48621,128,0,48731:0:0:0:0:
192,192,48731,128,0,48952:0:0:0:0:
448,192,48731,128,0,48842:0:0:0:0:
64,192,48842,128,0,48952:0:0:0:0:
320,192,48952,128,2,49062:0:0:0:0:
448,192,48952,128,8,49172:0:0:0:0:
192,192,49172,128,0,49393:0:0:0:0:
320,192,49172,128,0,49283:0:0:0:0:
64,192,49283,128,0,49393:0:0:0:0:
320,192,49393,128,2,49503:0:0:0:0:
448,192,49393,128,0,49614:0:0:0:0:
192,192,49503,128,0,49614:0:0:0:0:
64,192,49614,128,0,49834:0:0:0:0:
320,192,49614,128,0,49724:0:0:0:0:
192,192,49834,128,2,49944:0:0:0:0:
448,192,49834,128,8,50055:0:0:0:0:
320,192,49944,128,0,50165:0:0:0:0:
64,192,50055,128,0,50165:0:0:0:0:
192,192,50165,128,0,50275:0:0:0:0:
448,192,50165,128,0,50386:0:0:0:0:
64,192,50275,128,2,50496:0:0:0:0:
320,192,50386,128,0,50496:0:0:0:0:
192,192,50496,128,0,50717:0:0:0:0:
448,192,50496,128,0,50606:0:0:0:0:
64,192,50606,128,0,50717:0:0:0:0:
320,192,50717,128,2,50937:0:0:0:0:
448,192,50717,128,8,51047:0:0:0:0:
64,192,50937,128,0,51158:0:0:0:0:
192,192,50937,128,0,51047:0:0:0:0:
320,192,51047,128,0,51158:0:0:0:0:
192,192,51158,128,2,51489:0:0:0:0:
448,192,51158,128,0,51378:0:0:0:70:ride00.wav
320,192,51378,128,0,51599:0:0:0:0:
64,192,51489,128,0,51599:0:0:0:0:
192,192,51599,128,2,51709:0:0:0:0:
448,192,51599,128,8,51819:0:0:0:0:
192,192,51819,128,0,51930:0:0:0:0:
320,192,51819,128,0,52040:0:0:0:0:
64,192,51930,128,0,52040:0:0:0:0:
192,192,52040,128,2,52371:0:0:0:0:
448,192,52040,128,0,52150:0:0:0:0:
64,192,52150,128,8,52261:0:0:0:0:
448,192,52261,128,8,52481:0:0:0:0:
64,192,52371,128,0,52592:0:0:0:0:
320,192,52371,128,0,52481:0:0:0:0:
192,192,52481,128,10,52702:0:0:0:0:
448,192,52592,128,0,52702:0:0:0:0:
64,192,52702,1,8,0:0:0:0:
320,192,52702,128,2,52812:0:0:0:0:
192,192,52812,128,8,52922:0:0:0:0:
448,192,52812,1,2,0:0:0:0:
64,192,52922,128,4,53033:0:0:0:0:
320,192,52922,128,2,53143:0:0:0:0:
448,192,53033,128,0,53143:0:0:0:0:
64,192,53143,128,0,53253:0:0:0:0:
448,192,53253,128,0,53364:0:0:0:0:
64,192,53364,128,8,53474:0:0:0:0:
192,192,53364,128,2,53584:0:0:0:0:
448,192,53474,128,0,53584:0:0:0:0:
320,192,53584,128,0,53694:0:0:0:0:
64,192,53694,128,0,53915:0:0:0:0:
192,192,53694,128,0,53805:0:0:0:0:
320,192,53805,1,2,0:0:0:0:
448,192,53805,128,0,53915:0:0:0:0:
192,192,53915,128,0,54025:0:0:0:0:
320,192,54025,128,0,54246:0:0:0:0:
448,192,54025,128,0,54136:0:0:0:0:
64,192,54136,128,0,54246:0:0:0:0:
192,192,54246,128,8,54356:0:0:0:0:
448,192,54246,128,2,54467:0:0:0:0:
320,192,54356,128,0,54467:0:0:0:0:
64,192,54467,128,0,54687:0:0:0:0:
192,192,54467,128,0,54687:0:0:0:0:
320,192,54687,128,2,54797:0:0:0:0:
448,192,54687,128,0,54908:0:0:0:0:
64,192,54797,128,0,54908:0:0:0:0:
320,192,54908,128,0,55128:0:0:0:0:
64,192,55128,128,8,55349:0:0:0:0:
192,192,55128,128,2,55349:0:0:0:0:
448,192,55239,128,0,55459:0:0:0:0:
320,192,55349,128,0,55459:0:0:0:0:
192,192,55459,128,0,55680:0:0:0:0:
320,192,55569,128,2,55790:0:0:0:0:
448,192,55569,128,0,55680:0:0:0:0:
64,192,55680,128,0,55790:0:0:0:0:
192,192,55790,128,0,55900:0:0:0:0:
448,192,55790,128,0,56011:0:0:0:0:
320,192,55900,128,0,56011:0:0:0:0:
64,192,56011,128,8,56121:0:0:0:0:
192,192,56011,128,2,56231:0:0:0:0:
448,192,56121,128,0,56231:0:0:0:0:
64,192,56231,128,0,56452:0:0:0:0:
320,192,56231,128,0,56342:0:0:0:0:
192,192,56342,128,0,56452:0:0:0:0:
320,192,56452,128,2,56672:0:0:0:0:
448,192,56452,128,0,56562:0:0:0:0:
192,192,56562,128,0,56672:0:0:0:0:
64,192,56672,128,0,56893:0:0:0:0:
192,192,56783,128,0,56893:0:0:0:0:
320,192,56893,128,8,57114:0:0:0:0:
448,192,56893,128,2,57003:0:0:0:0:
192,192,57003,128,0,57114:0:0:0:0:
64,192,57114,128,0,57334:0:0:0:0:
448,192,57114,128,0,57224:0:0:0:0:
192,192,57224,128,0,57444:0:0:0:0:
320,192,57334,128,2,57555:0:0:0:0:
448,192,57334,128,0,57444:0:0:0:0:
64,192,57444,128,0,57555:0:0:0:0:
192,192,57555,128,0,57665:0:0:0:0:
448,192,57555,128,0,57775:0:0:0:0:
320,192,57665,128,0,57775:0:0:0:0:
64,192,57775,128,8,57886:0:0:0:0:
192,192,57775,128,2,57996:0:0:0:0:
448,192,57886,128,0,57996:0:0:0:0:
64,192,57996,128,0,58106:0:0:0:0:
320,192,57996,128,0,58217:0:0:0:0:
192,192,58106,128,0,58217:0:0:0:0:
448,192,58217,128,2,58437:0:0:0:0:
192,192,58437,128,0,58658:0:0:0:0:
320,192,58658,128,8,58878:0:0:0:0:
448,192,58658,128,0,58805:0:0:0:0:
64,192,58805,128,2,58952:0:0:0:0:
192,192,58805,128,0,58952:0:0:0:0:
320,192,58952,128,2,59099:0:0:0:0:
448,192,58952,128,0,59099:0:0:0:0:
64,192,59099,128,2,59319:0:0:0:0:
192,192,59099,128,0,59246:0:0:0:0:
192,192,59319,1,2,0:0:0:0:
320,192,59319,1,4,0:0:0:0:
448,192,59319,1,8,0:0:0:0:
64,192,59540,1,8,0:0:0:0:
320,192,59540,1,2,0:0:0:0:
448,192,59540,1,4,0:0:0:0:
64,192,59761,1,8,0:0:0:0:
192,192,59761,1,0,0:0:0:0:
320,192,59871,1,8,0:0:0:0:
448,192,59871,1,0,0:0:0:0:
64,192,59981,128,6,60092:0:0:0:0:
192,192,59981,128,8,60202:0:0:0:0:
320,192,60092,128,0,60202:0:0:0:0:
64,192,60202,128,0,60312:0:0:0:0:
448,192,60312,128,0,60533:0:0:0:0:
64,192,60422,1,8,0:0:0:0:
320,192,60422,128,2,60533:0:0:0:0:
192,192,60533,128,0,60643:0:0:0:0:
320,192,60643,128,0,60753:0:0:0:0:
192,192,60753,1,0,0:0:0:0:
448,192,60753,128,0,60864:0:0:0:0:
64,192,60864,1,2,0:0:0:0:
320,192,60864,1,0,0:0:0:0:
192,192,60974,128,0,61084:0:0:0:0:
320,192,61084,128,0,61305:0:0:0:0:
448,192,61084,128,0,61231:0:0:0:0:
64,192,61194,128,0,61305:0:0:0:0:
192,192,61305,1,8,0:0:0:0:
448,192,61305,128,2,61415:0:0:0:0:
64,192,61415,128,0,61636:0:0:0:0:
320,192,61415,128,0,61525:0:0:0:0:
192,192,61525,128,0,61636:0:0:0:0:
448,192,61636,128,0,61746:0:0:0:0:
64,192,61746,128,2,61967:0:0:0:0:
192,192,61746,128,0,61967:0:0:0:0:
448,192,61967,128,0,62077:0:0:0:0:
192,192,62077,128,0,62187:0:0:0:0:
64,192,62187,1,8,0:0:0:0:
448,192,62187,1,2,0:0:0:0:
320,192,62297,128,0,62408:0:0:0:0:
64,192,62408,1,0,0:0:0:0:
192,192,62408,128,0,62518:0:0:0:0:
320,192,62518,1,0,0:0:0:0:
448,192,62518,128,0,62628:0:0:0:0:
64,192,62628,128,2,62739:0:0:0:0:
192,192,62628,128,0,62739:0:0:0:0:
320,192,62739,1,0,0:0:0:0:
64,192,62849,128,0,62959:0:0:0:0:
192,192,62849,128,0,63069:0:0:0:0:
448,192,62959,128,0,63069:0:0:0:0:
64,192,63069,128,8,63180:0:0:0:0:
320,192,63069,128,2,63180:0:0:0:0:
448,192,63180,128,0,63290:0:0:0:0:
320,192,63290,128,0,63511:0:0:0:0:
448,192,63400,128,0,63511:0:0:0:0:
64,192,63511,128,2,63621:0:0:0:0:
192,192,63511,128,0,63731:0:0:0:0:
320,192,63621,128,0,63731:0:0:0:0:
64,192,63731,128,0,63842:0:0:0:0:
448,192,63842,128,0,64062:0:0:0:0:
64,192,63952,1,8,0:0:0:0:
320,192,63952,128,2,64062:0:0:0:0:
192,192,64062,128,0,64172:0:0:0:0:
320,192,64172,128,0,64283:0:0:0:0:
192,192,64283,1,0,0:0:0:0:
448,192,64283,128,0,64393:0:0:0:0:
64,192,64393,1,2,0:0:0:0:
320,192,64393,1,0,0:0:0:0:
192,192,64503,128,0,64614:0:0:0:0:
320,192,64614,128,0,64834:0:0:0:0:
448,192,64614,128,0,64761:0:0:0:0:
64,192,64724,128,0,64834:0:0:0:0:
192,192,64834,1,8,0:0:0:0:
448,192,64834,128,2,64944:0:0:0:0:
64,192,64944,128,0,65165:0:0:0:0:
320,192,64944,128,0,65055:0:0:0:0:
192,192,65055,128,0,65165:0:0:0:0:
448,192,65165,128,0,65275:0:0:0:0:
64,192,65275,128,2,65496:0:0:0:0:
192,192,65275,128,0,65496:0:0:0:0:
448,192,65496,128,0,65606:0:0:0:0:
320,192,65606,128,0,65717:0:0:0:0:
64,192,65717,1,8,0:0:0:0:
448,192,65717,1,2,0:0:0:0:
192,192,65827,128,0,65937:0:0:0:0:
320,192,65937,128,0,66047:0:0:0:0:
448,192,65937,1,0,0:0:0:0:
64,192,66047,128,0,66158:0:0:0:0:
192,192,66047,1,0,0:0:0:0:
320,192,66158,128,0,66268:0:0:0:0:
448,192,66158,128,0,66599:0:0:0:0:
192,192,66378,128,0,66489:0:0:0:0:
320,192,66378,128,0,66819:0:0:0:0:
64,192,66599,128,0,66709:0:0:0:0:
192,192,66599,128,0,66930:0:0:0:0:
448,192,66709,128,0,66930:0:0:0:0:
64,192,66819,128,0,67040:0:0:0:0:
320,192,66930,128,0,67040:0:0:0:0:
192,192,67040,128,2,67261:0:0:0:0:
448,192,67040,128,4,67150:0:0:0:0:
64,192,67150,128,0,67261:0:0:0:0:
320,192,67261,128,0,67371:0:0:0:0:
64,192,67371,128,0,67592:0:0:0:0:
320,192,67481,1,8,0:0:0:0:
448,192,67481,128,2,67592:0:0:0:0:
192,192,67592,128,0,67702:0:0:0:0:
320,192,67702,128,0,67812:0:0:0:0:
192,192,67812,1,0,0:0:0:0:
448,192,67812,128,0,67922:0:0:0:0:
64,192,67922,1,2,0:0:0:0:
320,192,67922,1,0,0:0:0:0:
192,192,68033,128,0,68143:0:0:0:0:
320,192,68143,128,0,68364:0:0:0:0:
448,192,68143,128,0,68290:0:0:0:0:
64,192,68253,128,0,68364:0:0:0:0:
192,192,68364,1,8,0:0:0:0:
448,192,68364,128,2,68474:0:0:0:0:
64,192,68474,128,0,68694:0:0:0:0:
320,192,68474,128,0,68584:0:0:0:0:
192,192,68584,128,0,68694:0:0:0:0:
448,192,68694,128,0,68805:0:0:0:0:
64,192,68805,128,2,69025:0:0:0:0:
192,192,68805,128,0,69025:0:0:0:0:
448,192,69025,128,0,69136:0:0:0:0:
192,192,69136,128,0,69246:0:0:0:0:
64,192,69246,1,8,0:0:0:0:
448,192,69246,1,2,0:0:0:0:
320,192,69356,128,0,69467:0:0:0:0:
64,192,69467,1,0,0:0:0:0:
192,192,69467,128,0,69577:0:0:0:0:
320,192,69577,1,0,0:0:0:0:
448,192,69577,128,0,69687:0:0:0:0:
64,192,69687,128,2,69797:0:0:0:0:
192,192,69687,128,0,69797:0:0:0:0:
320,192,69797,1,0,0:0:0:0:
64,192,69908,128,0,70018:0:0:0:0:
192,192,69908,128,0,70128:0:0:0:0:
448,192,70018,128,0,70128:0:0:0:0:
64,192,70128,128,8,70239:0:0:0:0:
320,192,70128,128,2,70239:0:0:0:0:
448,192,70239,128,0,70349:0:0:0:0:
320,192,70349,128,0,70569:0:0:0:0:
448,192,70459,128,0,70569:0:0:0:0:
64,192,70569,128,2,70680:0:0:0:0:
192,192,70569,128,0,70790:0:0:0:0:
320,192,70680,128,0,70790:0:0:0:0:
64,192,70790,128,0,70900:0:0:0:0:
448,192,70900,128,0,71121:0:0:0:0:
64,192,71011,128,8,71121:0:0:0:0:
192,192,71011,1,2,0:0:0:0:
320,192,71121,128,0,71231:0:0:0:0:
192,192,71231,128,0,71342:0:0:0:0:
64,192,71342,128,0,71452:0:0:0:0:
320,192,71342,1,0,0:0:0:0:
192,192,71452,1,2,0:0:0:0:
448,192,71452,1,0,0:0:0:0:
320,192,71562,128,0,71672:0:0:0:0:
64,192,71672,128,0,71819:0:0:0:0:
192,192,71672,128,0,71893:0:0:0:0:
448,192,71783,128,0,71893:0:0:0:0:
64,192,71893,128,8,72003:0:0:0:0:
320,192,71893,1,2,0:0:0:0:
192,192,72003,128,0,72114:0:0:0:0:
448,192,72003,128,0,72224:0:0:0:0:
320,192,72114,128,0,72224:0:0:0:0:
64,192,72224,128,0,72334:0:0:0:0:
320,192,72334,128,2,72555:0:0:0:0:
448,192,72334,128,0,72555:0:0:0:70:ride00.wav
64,192,72555,128,0,72665:0:0:0:0:
320,192,72665,128,0,72775:0:0:0:0:
64,192,72775,1,8,0:0:0:0:
448,192,72775,1,2,0:0:0:0:
192,192,72886,128,0,72996:0:0:0:0:
320,192,72996,128,0,73106:0:0:0:0:
448,192,72996,1,0,0:0:0:0:
64,192,73106,128,8,73217:0:0:0:0:
192,192,73106,1,0,0:0:0:0:
320,192,73217,128,2,73327:0:0:0:0:
448,192,73217,128,8,73327:0:0:0:0:
320,192,73437,128,2,73547:0:0:0:0:
448,192,73437,128,0,73547:0:0:0:0:
320,192,73658,128,2,73878:0:0:0:0:
448,192,73658,128,0,73878:0:0:0:0:
192,192,74099,1,2,0:0:0:0:
320,192,74099,128,0,74319:0:0:0:70:ride00.wav
448,192,74099,128,0,74319:0:0:0:0:
64,192,74319,128,0,74430:0:0:0:0:
192,192,74430,128,0,74540:0:0:0:0:
320,192,74540,1,2,0:0:0:0:
448,192,74540,128,0,74761:0:0:0:0:
192,192,74761,128,0,74871:0:0:0:0:
448,192,74871,128,0,75092:0:0:0:0:
64,192,74981,128,2,75092:0:0:0:0:
192,192,74981,1,0,0:0:0:0:
320,192,75092,128,0,75202:0:0:0:0:
64,192,75202,128,0,75312:0:0:0:0:
192,192,75202,128,0,75422:0:0:0:0:
448,192,75312,128,0,75533:0:0:0:0:
64,192,75422,1,2,0:0:0:0:
320,192,75422,1,0,0:0:0:0:
192,192,75643,128,0,75753:0:0:0:0:
64,192,75753,128,0,75864:0:0:0:0:
320,192,75864,128,2,75974:0:0:0:0:
448,192,75864,128,0,76084:0:0:0:0:
64,192,75974,128,0,76194:0:0:0:0:
448,192,76194,128,0,76305:0:0:0:0:
192,192,76305,1,2,0:0:0:0:
320,192,76305,128,0,76525:0:0:0:0:
192,192,76525,128,0,76636:0:0:0:0:
448,192,76636,128,0,76856:0:0:0:0:
64,192,76746,128,2,76967:0:0:0:0:
320,192,76746,1,0,0:0:0:0:
192,192,76856,128,0,76967:0:0:0:0:
320,192,76967,128,0,77187:0:0:0:0:
64,192,77077,128,0,77187:0:0:0:0:
192,192,77187,1,2,0:0:0:0:
448,192,77187,1,0,0:0:0:0:
64,192,77408,128,0,77518:0:0:0:0:
320,192,77408,128,0,77628:0:0:0:0:
448,192,77518,128,0,77628:0:0:0:0:
64,192,77628,128,2,77959:0:0:0:0:
192,192,77628,128,0,77849:0:0:0:0:
448,192,77739,1,0,0:0:0:0:
320,192,77849,128,0,77959:0:0:0:0:
448,192,77959,128,0,78069:0:0:0:0:
64,192,78069,128,2,78290:0:0:0:0:
192,192,78069,128,0,78400:0:0:0:0:
448,192,78290,128,0,78511:0:0:0:0:
320,192,78400,128,0,78511:0:0:0:0:
64,192,78511,128,2,78731:0:0:0:0:
192,192,78511,128,0,78621:0:0:0:0:
448,192,78621,128,0,78842:0:0:0:0:
192,192,78731,128,0,78842:0:0:0:0:
320,192,78731,128,0,78952:0:0:0:0:
64,192,78842,128,0,79062:0:0:0:0:
192,192,78952,128,2,79172:0:0:0:0:
448,192,78952,128,0,79062:0:0:0:0:
320,192,79062,128,0,79172:0:0:0:0:
64,192,79172,128,0,79283:0:0:0:0:
448,192,79172,128,0,79393:0:0:0:0:
320,192,79283,128,0,79503:0:0:0:0:
64,192,79393,128,2,79503:0:0:0:0:
192,192,79393,128,0,79614:0:0:0:0:
448,192,79503,128,0,79724:0:0:0:0:
64,192,79614,128,0,79834:0:0:0:0:
192,192,79724,128,0,79944:0:0:0:0:
320,192,79834,128,2,80055:0:0:0:0:
448,192,79834,128,0,79944:0:0:0:0:
64,192,79944,128,0,80165:0:0:0:0:
448,192,80055,128,0,80275:0:0:0:0:
320,192,80165,128,0,80275:0:0:0:0:
64,192,80275,1,2,0:0:0:0:
192,192,80275,1,8,0:0:0:0:
320,192,80386,1,2,0:0:0:0:
448,192,80386,1,8,0:0:0:0:
64,192,80496,1,2,0:0:0:0:
192,192,80496,1,8,0:0:0:0:
320,192,80606,1,8,0:0:0:0:
448,192,80606,1,2,0:0:0:0:
320,192,81158,128,2,81378:0:0:0:0:
448,192,81158,128,4,81378:0:0:0:0:
64,192,81378,128,0,81489:0:0:0:0:
448,192,81489,128,0,81599:0:0:0:0:
64,192,81599,1,2,0:0:0:0:
320,192,81599,1,8,0:0:0:0:
192,192,81709,1,0,0:0:0:0:
448,192,81819,128,0,81930:0:0:0:0:
64,192,81930,128,0,82150:0:0:0:0:
192,192,81930,128,0,82040:0:0:0:0:
320,192,82040,1,2,0:0:0:0:
448,192,82040,128,0,82261:0:0:0:0:
192,192,82150,128,0,82261:0:0:0:0:
64,192,82261,128,0,82481:0:0:0:0:
320,192,82261,128,0,82371:0:0:0:0:
192,192,82371,128,0,82481:0:0:0:0:
320,192,82481,1,2,0:0:0:0:
448,192,82481,1,8,0:0:0:0:
64,192,82702,128,0,82922:0:0:0:0:
192,192,82702,128,0,82812:0:0:0:0:
448,192,82812,128,0,82922:0:0:0:0:
192,192,82922,128,2,83143:0:0:0:0:
320,192,82922,128,0,83033:0:0:0:0:
64,192,83033,128,0,83143:0:0:0:0:
320,192,83143,1,0,0:0:0:0:
192,192,83253,128,0,83364:0:0:0:0:
64,192,83364,128,2,83584:0:0:0:0:
448,192,83364,128,8,83474:0:0:0:0:
192,192,83474,1,0,0:0:0:0:
320,192,83584,128,0,83694:0:0:0:0:
64,192,83694,128,0,83805:0:0:0:0:
192,192,83694,128,0,83915:0:0:0:0:
448,192,83805,128,2,83915:0:0:0:0:
320,192,83915,128,0,84025:0:0:0:0:
64,192,84025,128,0,84136:0:0:0:0:
192,192,84025,128,0,84246:0:0:0:0:
448,192,84136,128,0,84246:0:0:0:0:
64,192,84246,1,2,0:0:0:0:
320,192,84246,1,8,0:0:0:0:
320,192,84467,128,0,84577:0:0:0:0:
448,192,84467,128,0,84687:0:0:0:0:
64,192,84577,128,0,84687:0:0:0:0:
192,192,84687,128,2,84908:0:0:0:0:
448,192,84797,128,0,84908:0:0:0:0:
320,192,84908,128,0,85018:0:0:0:0:
64,192,85018,128,0,85128:0:0:0:0:
192,192,85128,1,2,0:0:0:0:
448,192,85128,1,8,0:0:0:0:
320,192,85239,1,0,0:0:0:0:
64,192,85349,128,0,85459:0:0:0:0:
320,192,85459,128,0,85680:0:0:0:0:
448,192,85459,128,0,85569:0:0:0:0:
64,192,85569,1,2,0:0:0:0:
192,192,85569,128,0,85680:0:0:0:0:
448,192,85680,128,0,85900:0:0:0:0:
320,192,85790,128,0,85900:0:0:0:0:
64,192,85900,128,0,86011:0:0:0:0:
192,192,86011,1,2,0:0:0:0:
448,192,86011,1,8,0:0:0:0:
320,192,86231,128,0,86342:0:0:0:0:
448,192,86231,128,0,86452:0:0:0:0:
192,192,86342,128,0,86452:0:0:0:0:
64,192,86452,128,2,86672:0:0:0:0:
320,192,86562,128,0,86783:0:0:0:0:
192,192,86672,128,0,86783:0:0:0:0:
448,192,86783,128,0,86893:0:0:0:0:
64,192,86893,128,2,87114:0:0:0:0:
320,192,86893,128,8,87003:0:0:0:0:
192,192,87003,128,0,87114:0:0:0:0:
320,192,87114,128,0,87334:0:0:0:0:
448,192,87114,128,0,87224:0:0:0:0:
64,192,87224,128,10,87444:0:0:0:0:
192,192,87334,128,8,87444:0:0:0:0:
448,192,87334,128,2,87555:0:0:0:0:
320,192,87444,128,2,87555:0:0:0:0:
64,192,87555,128,8,87775:0:0:0:0:
192,192,87555,128,2,87665:0:0:0:0:
320,192,87665,128,2,87886:0:0:0:0:
448,192,87665,128,8,87996:0:0:0:0:
192,192,87886,128,0,87996:0:0:0:0:
64,192,87996,128,2,88106:0:0:0:0:
320,192,87996,128,8,88217:0:0:0:0:
448,192,88106,128,0,88217:0:0:0:0:
64,192,88217,128,4,88437:0:0:0:0:
192,192,88217,128,2,88327:0:0:0:0:
320,192,88437,128,0,88547:0:0:0:0:
448,192,88437,128,0,88547:0:0:0:0:
64,192,88547,128,2,88658:0:0:0:0:
192,192,88658,128,8,88878:0:0:0:0:
448,192,88658,128,0,88768:0:0:0:0:
64,192,88768,128,0,88878:0:0:0:0:
320,192,88878,128,2,88989:0:0:0:0:
448,192,88878,128,0,88989:0:0:0:0:
64,192,89099,128,0,89209:0:0:0:70:tom01.wav
192,192,89099,128,0,89209:0:0:0:0:
448,192,89209,128,0,89430:0:0:0:70:tom02.wav
320,192,89319,128,0,89430:0:0:0:0:
64,192,89430,128,0,89540:0:0:0:70:tom01.wav
192,192,89430,128,0,89540:0:0:0:0:
448,192,89540,128,0,89761:0:0:0:70:tom02.wav
320,192,89650,128,0,89761:0:0:0:0:
64,192,89761,128,2,89871:0:0:0:0:
192,192,89761,128,0,89981:0:0:0:0:
448,192,89871,128,0,89981:0:0:0:0:
64,192,89981,128,2,90092:0:0:0:0:
320,192,89981,128,0,90092:0:0:0:0:
448,192,90202,128,2,90312:0:0:0:0:
64,192,90312,128,2,90422:0:0:0:0:
192,192,90312,128,0,90422:0:0:0:0:
320,192,90422,128,8,90533:0:0:0:0:
448,192,90422,128,0,90643:0:0:0:0:
64,192,90533,128,0,90643:0:0:0:70:tom01.wav
192,192,90643,128,2,90753:0:0:0:0:
320,192,90753,128,0,90864:0:0:0:0:
192,192,90864,128,2,91084:0:0:0:0:
448,192,90864,128,8,90974:0:0:0:0:
64,192,90974,128,8,91194:0:0:0:0:
320,192,90974,1,2,0:0:0:0:
448,192,91084,128,0,91194:0:0:0:0:
192,192,91194,128,8,91415:0:0:0:0:
320,192,91194,128,2,91305:0:0:0:0:
64,192,91305,128,8,91415:0:0:0:0:
448,192,91305,1,2,0:0:0:0:
320,192,91415,128,0,91525:0:0:0:0:
64,192,91525,128,0,91636:0:0:0:0:
320,192,91636,128,0,91746:0:0:0:0:
192,192,91746,128,4,91856:0:0:0:0:
448,192,91746,128,2,91967:0:0:0:0:
64,192,91856,128,2,91967:0:0:0:0:
320,192,91856,128,0,92077:0:0:0:0:
192,192,91967,128,2,92187:0:0:0:0:
64,192,92077,128,2,92297:0:0:0:0:
320,192,92187,1,8,0:0:0:0:
448,192,92187,128,0,92297:0:0:0:0:
320,192,92408,128,2,92628:0:0:0:0:
448,192,92408,128,0,92518:0:0:0:0:
64,192,92518,128,0,92628:0:0:0:0:
192,192,92628,128,0,92739:0:0:0:70:tom01.wav
448,192,92628,128,0,92739:0:0:0:0:
64,192,92739,128,0,92849:0:0:0:70:tom02.wav
320,192,92739,128,0,92959:0:0:0:0:
64,192,92959,128,0,93069:0:0:0:70:tom01.wav
192,192,92959,128,0,93069:0:0:0:0:
320,192,93069,128,0,93290:0:0:0:70:tom02.wav
448,192,93069,128,0,93180:0:0:0:0:
192,192,93180,128,0,93290:0:0:0:0:
64,192,93290,128,2,93400:0:0:0:0:
448,192,93290,128,0,93511:0:0:0:0:
64,192,93511,1,2,0:0:0:0:
320,192,93511,1,4,0:0:0:0:
192,192,93731,128,0,93952:0:0:0:0:
64,192,93842,128,0,94062:0:0:0:0:
448,192,93952,128,0,94062:0:0:0:0:
320,192,94062,128,0,94172:0:0:0:0:
192,192,94172,128,0,94283:0:0:0:0:
448,192,94283,128,0,94393:0:0:0:0:
64,192,94393,128,8,94614:0:0:0:0:
192,192,94393,128,2,94614:0:0:0:0:
320,192,94614,1,2,0:0:0:0:
448,192,94614,128,8,94724:0:0:0:0:
192,192,94724,128,0,94834:0:0:0:0:
320,192,94834,128,0,94944:0:0:0:0:
192,192,95055,128,0,95275:0:0:0:0:
64,192,95275,1,4,0:0:0:0:
320,192,95275,128,2,95496:0:0:0:0:
448,192,95275,128,0,95606:0:0:0:0:
64,192,95496,128,0,95717:0:0:0:0:
320,192,95606,128,0,95717:0:0:0:0:
192,192,95717,128,8,95937:0:0:0:0:
448,192,95717,128,2,95827:0:0:0:0:
64,192,95827,128,0,96047:0:0:0:0:
320,192,95937,128,0,96047:0:0:0:0:
192,192,96047,128,0,96158:0:0:0:0:
448,192,96047,128,0,96158:0:0:0:0:
64,192,96158,128,2,96268:0:0:0:0:
192,192,96268,128,0,96378:0:0:0:0:
448,192,96268,128,0,96489:0:0:0:0:
64,192,96378,128,0,96599:0:0:0:0:
320,192,96378,128,0,96489:0:0:0:0:
192,192,96489,128,0,96599:0:0:0:0:
320,192,96599,128,8,96709:0:0:0:0:
448,192,96599,128,2,96709:0:0:0:0:
64,192,96709,128,0,96819:0:0:0:0:
192,192,96819,128,0,97040:0:0:0:0:
448,192,96819,128,0,97040:0:0:0:0:
64,192,97040,128,2,97150:0:0:0:0:
320,192,97040,128,0,97261:0:0:0:0:
448,192,97150,128,0,97261:0:0:0:0:
192,192,97261,128,0,97481:0:0:0:0:
64,192,97371,128,0,97481:0:0:0:0:
320,192,97481,128,8,97702:0:0:0:0:
448,192,97481,128,2,97702:0:0:0:0:
64,192,97702,128,0,97922:0:0:0:0:
192,192,97702,128,0,97812:0:0:0:0:
448,192,97812,128,0,98033:0:0:0:0:
192,192,97922,1,2,0:0:0:0:
320,192,97922,128,0,98033:0:0:0:0:
192,192,98033,128,0,98143:0:0:0:0:
64,192,98143,128,0,98253:0:0:0:0:
320,192,98143,128,0,98364:0:0:0:0:
448,192,98253,128,0,98364:0:0:0:0:
64,192,98364,128,8,98584:0:0:0:0:
192,192,98364,128,2,98474:0:0:0:0:
192,192,98584,128,0,98694:0:0:0:0:
320,192,98584,128,0,98805:0:0:0:0:
448,192,98694,128,0,98805:0:0:0:0:
64,192,98805,128,2,99025:0:0:0:0:
192,192,98805,128,0,98915:0:0:0:0:
320,192,98915,128,0,99025:0:0:0:0:
192,192,99025,128,0,99136:0:0:0:0:
448,192,99025,128,0,99246:0:0:0:0:
64,192,99246,128,8,99467:0:0:0:0:
320,192,99246,128,2,99356:0:0:0:0:
448,192,99356,128,0,99577:0:0:0:0:
192,192,99467,128,0,99577:0:0:0:0:
64,192,99577,128,0,99797:0:0:0:0:
320,192,99577,128,0,99687:0:0:0:0:
192,192,99687,128,2,99908:0:0:0:0:
448,192,99797,128,0,99908:0:0:0:0:
64,192,99908,128,0,100018:0:0:0:0:
320,192,99908,128,0,100128:0:0:0:0:
448,192,100018,128,0,100128:0:0:0:0:
64,192,100128,128,8,100459:0:0:0:0:
192,192,100128,128,2,100349:0:0:0:0:
320,192,100349,128,0,100459:0:0:0:0:
448,192,100349,128,0,100569:0:0:0:0:
192,192,100459,128,0,100569:0:0:0:0:
64,192,100569,128,2,100790:0:0:0:0:
320,192,100569,128,0,100680:0:0:0:70:ride00.wav
448,192,100680,128,0,100790:0:0:0:0:
192,192,100790,128,0,101011:0:0:0:0:
320,192,100790,128,0,100900:0:0:0:0:
64,192,100900,128,0,101011:0:0:0:0:
320,192,101011,128,8,101231:0:0:0:0:
448,192,101011,128,2,101231:0:0:0:0:
64,192,101231,128,0,101452:0:0:0:70:ride00.wav
192,192,101231,128,0,101342:0:0:0:0:
448,192,101342,128,0,101452:0:0:0:0:
192,192,101452,128,2,101672:0:0:0:0:
320,192,101452,128,0,101562:0:0:0:0:
64,192,101562,128,8,101783:0:0:0:0:
320,192,101672,128,8,101783:0:0:0:0:
448,192,101672,128,0,101893:0:0:0:0:
192,192,101783,128,0,102003:0:0:0:0:
64,192,101893,128,8,102003:0:0:0:0:
320,192,101893,128,2,102114:0:0:0:0:
448,192,102003,128,0,102114:0:0:0:0:
64,192,102114,1,8,0:0:0:0:
192,192,102114,128,2,102224:0:0:0:0:
320,192,102224,1,8,0:0:0:0:
448,192,102224,128,2,102334:0:0:0:0:
64,192,102334,128,2,102444:0:0:0:0:
192,192,102334,128,4,102555:0:0:0:0:
320,192,102444,128,0,102555:0:0:0:0:
448,192,102555,128,0,102775:0:0:0:0:
192,192,102665,128,0,102775:0:0:0:0:
64,192,102775,128,2,102996:0:0:0:0:
320,192,102775,128,8,102886:0:0:0:0:
448,192,102886,128,0,103106:0:0:0:0:
192,192,102996,128,0,103217:0:0:0:0:
64,192,103106,128,0,103327:0:0:0:0:
320,192,103217,128,2,103437:0:0:0:0:
448,192,103217,128,0,103327:0:0:0:0:
192,192,103327,128,0,103437:0:0:0:0:
448,192,103437,128,0,103658:0:0:0:0:
320,192,103547,128,0,103658:0:0:0:0:
64,192,103658,128,2,103768:0:0:0:0:
192,192,103658,128,8,103878:0:0:0:0:
448,192,103768,128,0,103878:0:0:0:0:
64,192,103878,128,0,104099:0:0:0:0:
320,192,103878,128,0,103989:0:0:0:0:
192,192,103989,128,0,104099:0:0:0:0:
320,192,104099,128,2,104319:0:0:0:0:
448,192,104099,128,0,104209:0:0:0:0:
64,192,104209,128,0,104319:0:0:0:0:
448,192,104319,128,0,104540:0:0:0:0:
320,192,104430,128,0,104540:0:0:0:0:
64,192,104540,128,2,104650:0:0:0:0:
192,192,104540,128,8,104761:0:0:0:0:
448,192,104650,128,0,104871:0:0:0:0:
320,192,104761,128,0,104871:0:0:0:0:
64,192,104871,128,0,104981:0:0:0:0:
192,192,104871,128,0,105092:0:0:0:0:
320,192,104981,128,2,105202:0:0:0:0:
448,192,104981,128,0,105092:0:0:0:0:
64,192,105092,128,0,105202:0:0:0:0:
192,192,105202,128,0,105312:0:0:0:0:
448,192,105202,128,0,105422:0:0:0:0:
320,192,105312,128,0,105422:0:0:0:0:
64,192,105422,128,2,105533:0:0:0:0:
192,192,105422,128,8,105643:0:0:0:0:
448,192,105533,128,0,105643:0:0:0:0:
320,192,105643,128,0,105864:0:0:0:0:
448,192,105753,128,0,105864:0:0:0:0:
64,192,105864,128,2,105974:0:0:0:0:
192,192,105864,128,0,106084:0:0:0:0:
320,192,105974,128,0,106084:0:0:0:0:
448,192,106084,128,0,106305:0:0:0:0:
320,192,106194,128,0,106305:0:0:0:0:
64,192,106305,128,2,106415:0:0:0:0:
192,192,106305,128,8,106525:0:0:0:0:
320,192,106415,128,0,106525:0:0:0:0:
64,192,106525,128,0,106636:0:0:0:0:
448,192,106525,128,0,106746:0:0:0:0:
320,192,106636,128,0,106746:0:0:0:0:
64,192,106746,128,2,106856:0:0:0:0:
192,192,106746,128,0,106967:0:0:0:0:
448,192,106856,128,0,107077:0:0:0:0:
64,192,106967,128,0,107187:0:0:0:0:
320,192,106967,128,0,107077:0:0:0:0:
192,192,107077,128,0,107297:0:0:0:0:
320,192,107187,128,2,107297:0:0:0:0:
448,192,107187,128,8,107408:0:0:0:0:
64,192,107297,128,0,107408:0:0:0:0:
192,192,107408,128,0,107628:0:0:0:0:
320,192,107408,128,0,107518:0:0:0:0:
64,192,107518,128,0,107628:0:0:0:0:
320,192,107628,128,2,107849:0:0:0:0:
448,192,107628,128,0,107739:0:0:0:70:ride00.wav
64,192,107739,128,0,107849:0:0:0:0:
192,192,107849,128,0,108069:0:0:0:0:
448,192,107849,128,0,107959:0:0:0:0:
320,192,108069,128,2,108180:0:0:0:0:
448,192,108069,128,8,108290:0:0:0:0:
64,192,108180,128,0,108290:0:0:0:0:
192,192,108290,128,0,108511:0:0:0:70:tom01.wav
320,192,108290,128,0,108400:0:0:0:0:
64,192,108400,128,0,108511:0:0:0:0:
320,192,108511,128,2,108731:0:0:0:0:
448,192,108511,128,4,108842:0:0:0:0:
64,192,108731,128,2,108842:0:0:0:0:
192,192,108731,128,8,108952:0:0:0:0:
320,192,108842,128,0,109062:0:0:0:0:
448,192,108952,128,10,109062:0:0:0:0:
64,192,109062,128,8,109172:0:0:0:0:
192,192,109062,128,0,109172:0:0:0:0:
448,192,109172,128,10,109283:0:0:0:0:
64,192,109283,128,8,109393:0:0:0:0:
192,192,109283,128,0,109393:0:0:0:0:
320,192,109393,128,4,109614:0:0:0:0:
448,192,109393,128,2,109503:0:0:0:0:
64,192,109614,128,2,109834:0:0:0:0:
192,192,109614,128,4,109834:0:0:0:0:
448,192,109834,128,0,110055:0:0:0:0:
64,192,110055,128,0,110165:0:0:0:0:
192,192,110165,128,0,110386:0:0:0:0:
320,192,110165,128,0,110496:0:0:0:0:
448,192,110275,128,0,110496:0:0:0:0:
64,192,110496,128,0,111047:0:0:0:0:
192,192,110496,128,0,110717:0:0:0:0:
448,192,110717,128,0,110937:0:0:0:0:
320,192,110937,128,0,111158:0:0:0:0:
64,192,111158,128,10,111268:0:0:0:0:
192,192,111158,128,4,111378:0:0:0:0:
320,192,111378,128,2,111599:0:0:0:0:
448,192,111378,128,4,111489:0:0:0:0:
64,192,111489,128,0,111599:0:0:0:0:
192,192,111599,128,0,111819:0:0:0:0:
448,192,111819,128,0,111930:0:0:0:0:
64,192,111930,128,0,112150:0:0:0:0:
320,192,111930,128,0,112040:0:0:0:0:
192,192,112040,128,0,112261:0:0:0:0:
320,192,112261,128,0,112592:0:0:0:0:
448,192,112261,128,0,112481:0:0:0:0:
64,192,112481,128,8,112812:0:0:0:0:
192,192,112481,128,0,112702:0:0:0:0:
448,192,112702,128,0,113364:0:0:0:0:
64,192,112922,128,2,113143:0:0:0:0:
320,192,112922,128,0,113033:0:0:0:70:ride00.wav
192,192,113033,128,0,113143:0:0:0:0:
64,192,113364,128,8,113584:0:0:0:0:
192,192,113364,128,0,113584:0:0:0:0:
320,192,113694,128,2,113805:0:0:0:0:
448,192,113694,128,0,113805:0:0:0:0:
320,192,113915,1,2,0:0:0:0:
448,192,113915,1,0,0:0:0:0:
320,192,114025,1,2,0:0:0:0:
448,192,114025,1,0,0:0:0:0:
64,192,114246,128,8,114356:0:0:0:0:
320,192,114246,128,0,114467:0:0:0:0:
448,192,114356,128,0,114467:0:0:0:0:
64,192,114467,128,2,114687:0:0:0:0:
192,192,114467,128,0,114577:0:0:0:0:
448,192,114577,1,0,0:0:0:0:
192,192,114687,128,2,114797:0:0:0:0:
320,192,114687,128,8,114908:0:0:0:0:
448,192,114797,128,0,114908:0:0:0:0:
64,192,114908,128,8,115128:0:0:0:0:
192,192,114908,128,2,115018:0:0:0:0:
448,192,114963,1,0,0:0:0:0:
320,192,115018,128,8,115128:0:0:0:0:
192,192,115128,128,2,115239:0:0:0:0:
448,192,115128,128,0,115349:0:0:0:0:
64,192,115239,128,0,115349:0:0:0:0:
192,192,115349,1,8,0:0:0:0:
320,192,115349,1,0,0:0:0:0:
448,192,115422,1,8,0:0:0:0:
64,192,115496,1,8,0:0:0:0:
320,192,115496,1,0,0:0:0:0:
192,192,115569,128,2,115680:0:0:0:0:
448,192,115569,128,4,115790:0:0:0:0:
320,192,115680,128,0,115790:0:0:0:0:
64,192,115790,128,2,116011:0:0:0:0:
192,192,115790,128,4,115900:0:0:0:0:
448,192,115900,128,0,116011:0:0:0:0:
192,192,116011,128,2,116121:0:0:0:0:
320,192,116011,128,4,116231:0:0:0:0:
64,192,116121,128,0,116231:0:0:0:0:
192,192,116231,128,2,116452:0:0:0:0:
448,192,116231,128,0,116452:0:0:0:0:
64,192,116342,128,0,116452:0:0:0:0:
320,192,116452,128,0,116562:0:0:0:0:
64,192,116562,1,0,0:0:0:0:
320,192,116672,1,0,0:0:0:0:
64,192,116783,1,0,0:0:0:0:
320,192,116893,1,12,0:0:0:0:
448,192,116893,128,2,117114:0:0:0:0:
192,192,117003,128,0,117114:0:0:0:0:
64,192,117114,1,0,0:0:0:0:
320,192,117224,128,8,117444:0:0:0:0:
64,192,117334,128,2,117555:0:0:0:0:
192,192,117334,1,0,0:0:0:0:
448,192,117444,128,8,117555:0:0:0:0:
192,192,117555,128,0,117665:0:0:0:0:
320,192,117555,128,0,117775:0:0:0:0:
448,192,117665,128,0,117775:0:0:0:0:
64,192,117775,128,8,117996:0:0:0:0:
192,192,117775,128,2,117886:0:0:0:0:
320,192,117996,128,0,118106:0:0:0:0:
448,192,117996,128,0,118217:0:0:0:0:
64,192,118106,128,0,118217:0:0:0:0:
192,192,118217,128,2,118327:0:0:0:0:
320,192,118217,1,0,0:0:0:0:
448,192,118327,1,0,0:0:0:0:
192,192,118437,1,0,0:0:0:0:
448,192,118547,1,0,0:0:0:0:
64,192,118658,128,8,118878:0:0:0:0:
192,192,118658,1,2,0:0:0:0:
320,192,118768,128,0,118878:0:0:0:0:
448,192,118878,1,0,0:0:0:0:
64,192,118989,1,8,0:0:0:0:
320,192,118989,128,0,119209:0:0:0:0:
192,192,119099,1,2,0:0:0:0:
448,192,119099,128,0,119319:0:0:0:0:
64,192,119209,128,8,119540:0:0:0:0:
320,192,119319,128,0,119430:0:0:0:0:
192,192,119430,128,0,119540:0:0:0:0:
320,192,119540,128,8,119761:0:0:0:0:
448,192,119540,128,2,119761:0:0:0:0:
64,192,119761,128,0,119981:0:0:0:0:
192,192,119761,128,0,119871:0:0:0:0:
192,192,119981,128,2,120092:0:0:0:0:
320,192,119981,128,0,120202:0:0:0:0:
448,192,120092,128,0,120202:0:0:0:0:
192,192,120202,1,0,0:0:0:0:
448,192,120312,1,0,0:0:0:0:
64,192,120422,128,8,120643:0:0:0:0:
192,192,120422,1,2,0:0:0:0:
320,192,120533,128,0,120643:0:0:0:0:
448,192,120643,1,0,0:0:0:0:
192,192,120753,128,8,120974:0:0:0:0:
320,192,120864,1,2,0:0:0:0:
448,192,120864,128,0,121084:0:0:0:0:
64,192,120974,128,8,121084:0:0:0:0:
192,192,121084,128,0,121305:0:0:0:0:
320,192,121084,128,0,121194:0:0:0:0:
64,192,121194,128,0,121305:0:0:0:0:
320,192,121305,128,8,121415:0:0:0:0:
448,192,121305,128,2,121415:0:0:0:0:
192,192,121525,128,0,121636:0:0:0:0:
320,192,121525,128,0,121746:0:0:0:0:
448,192,121636,128,0,121746:0:0:0:0:
64,192,121746,128,2,122077:0:0:0:0:
192,192,121746,128,0,121967:0:0:0:0:
448,192,121967,128,0,122187:0:0:0:0:
320,192,122077,128,0,122187:0:0:0:0:
64,192,122187,1,8,0:0:0:0:
192,192,122187,1,2,0:0:0:0:
448,192,122297,1,0,0:0:0:70:tom01.wav
64,192,122408,128,0,122518:0:0:0:70:tom02.wav
192,192,122408,1,0,0:0:0:0:
448,192,122518,1,8,0:0:0:0:
64,192,122628,128,2,122739:0:0:0:0:
320,192,122628,128,0,123069:0:0:0:0:
192,192,122739,128,0,122959:0:0:0:0:
64,192,122959,1,2,0:0:0:0:
192,192,123014,1,2,0:0:0:0:
448,192,123069,128,10,123290:0:0:0:0:
192,192,123180,128,0,123290:0:0:0:0:
64,192,123290,128,2,123400:0:0:0:0:
320,192,123290,1,8,0:0:0:0:
192,192,123400,128,8,123511:0:0:0:0:
448,192,123400,1,2,0:0:0:0:
64,192,123511,1,4,0:0:0:0:
320,192,123511,1,2,0:0:0:0:
448,192,123584,1,0,0:0:0:0:
192,192,123658,1,0,0:0:0:0:
64,192,123731,1,0,0:0:0:0:
320,192,123805,1,0,0:0:0:0:
448,192,123878,1,0,0:0:0:0:
64,192,123952,1,8,0:0:0:0:
192,192,123952,1,2,0:0:0:0:
448,192,124025,1,0,0:0:0:0:
320,192,124099,1,0,0:0:0:0:
64,192,124172,1,0,0:0:0:0:
448,192,124246,1,0,0:0:0:0:
320,192,124319,1,0,0:0:0:0:
64,192,124393,1,2,0:0:0:0:
192,192,124393,1,0,0:0:0:0:
448,192,124467,1,0,0:0:0:0:
64,192,124540,1,0,0:0:0:0:
192,192,124614,1,0,0:0:0:0:
320,192,124614,1,0,0:0:0:0:
448,192,124687,1,0,0:0:0:0:
192,192,124761,1,0,0:0:0:0:
64,192,124834,1,8,0:0:0:0:
320,192,124834,1,2,0:0:0:0:
448,192,124908,1,0,0:0:0:0:
192,192,124981,1,0,0:0:0:0:
320,192,125055,1,0,0:0:0:0:
448,192,125055,1,0,0:0:0:0:
64,192,125128,1,0,0:0:0:0:
320,192,125275,128,2,125386:0:0:0:0:
448,192,125275,128,0,125386:0:0:0:0:
64,192,125386,128,0,125496:0:0:0:0:
320,192,125496,128,0,125606:0:0:0:0:
64,192,125606,128,0,125717:0:0:0:0:
192,192,125717,128,8,125827:0:0:0:0:
448,192,125717,128,2,125937:0:0:0:0:
64,192,125827,128,0,125937:0:0:0:0:
320,192,125937,128,0,126047:0:0:0:0:
192,192,126047,128,8,126268:0:0:0:0:
448,192,126047,1,0,0:0:0:0:
64,192,126158,128,2,126489:0:0:0:0:
320,192,126268,1,8,0:0:0:0:
448,192,126268,128,0,126489:0:0:0:0:
192,192,126378,128,0,126599:0:0:0:0:
320,192,126489,128,0,126599:0:0:0:0:
64,192,126599,128,8,126709:0:0:0:0:
448,192,126599,1,2,0:0:0:0:
192,192,126819,1,0,0:0:0:0:
448,192,126819,128,0,126930:0:0:0:0:
64,192,126930,128,0,127040:0:0:0:0:
320,192,127040,128,2,127261:0:0:0:0:
448,192,127040,128,0,127150:0:0:0:0:
192,192,127150,128,0,127261:0:0:0:0:
64,192,127261,128,0,127371:0:0:0:0:
448,192,127371,128,0,127592:0:0:0:0:
64,192,127481,128,8,127592:0:0:0:0:
320,192,127481,1,2,0:0:0:0:
192,192,127592,128,0,127702:0:0:0:0:
448,192,127702,128,0,127922:0:0:0:0:
320,192,127812,128,8,127922:0:0:0:0:
64,192,127922,128,2,128143:0:0:0:0:
192,192,127922,1,0,0:0:0:0:
448,192,128033,128,8,128253:0:0:0:0:
320,192,128143,1,0,0:0:0:0:
64,192,128217,1,0,0:0:0:0:
192,192,128290,1,0,0:0:0:0:
320,192,128364,128,8,128584:0:0:0:0:
448,192,128364,128,2,128584:0:0:0:0:
64,192,128584,128,0,128805:0:0:0:0:
192,192,128584,128,0,128694:0:0:0:0:
448,192,128694,128,0,128805:0:0:0:0:
192,192,128805,128,2,128915:0:0:0:0:
320,192,128805,128,0,129246:0:0:0:0:
448,192,128915,128,0,129136:0:0:0:0:
192,192,129025,1,0,0:0:0:0:
64,192,129136,128,0,129246:0:0:0:0:
192,192,129246,1,8,0:0:0:0:
448,192,129246,1,2,0:0:0:0:
64,192,129467,128,0,129687:0:0:0:0:
448,192,129467,128,0,129577:0:0:0:0:
192,192,129577,128,8,129687:0:0:0:0:
320,192,129687,128,2,129797:0:0:0:0:
448,192,129687,128,0,130349:0:0:0:0:
64,192,129797,1,8,0:0:0:0:
192,192,129908,128,0,130128:0:0:0:0:
320,192,129908,128,0,130018:0:0:0:0:
64,192,130018,128,0,130128:0:0:0:0:
320,192,130128,128,10,130459:0:0:0:0:
64,192,130239,128,0,130349:0:0:0:0:
192,192,130349,128,10,130569:0:0:0:0:
64,192,130459,128,10,130569:0:0:0:0:
320,192,130569,1,4,0:0:0:0:
448,192,130569,1,2,0:0:0:0:
64,192,130680,1,8,0:0:0:0:
192,192,130680,1,2,0:0:0:0:
320,192,130790,128,8,130900:0:0:0:0:
448,192,130790,128,2,130900:0:0:0:0:
320,192,131011,128,8,131121:0:0:0:0:
448,192,131011,128,2,131121:0:0:0:0:
64,192,131231,128,2,131452:0:0:0:0:
192,192,131231,128,8,131452:0:0:0:0:
448,192,131231,128,0,131342:0:0:0:70:ride00.wav
64,192,132555,128,0,132665:0:0:0:0:
192,192,132665,128,0,132775:0:0:0:0:
64,192,132775,128,0,132996:0:0:0:0:
192,192,132996,128,0,133217:0:0:0:0:
64,192,133217,128,2,133327:0:0:0:0:
320,192,133217,128,4,133327:0:0:0:0:
448,192,133217,128,0,133989:0:0:0:0:
320,192,133437,128,0,133658:0:0:0:0:
192,192,133658,128,0,133768:0:0:0:0:
64,192,133878,128,0,133989:0:0:0:0:
192,192,133989,128,0,134319:0:0:0:0:
448,192,134319,128,0,134430:0:0:0:0:
192,192,134540,128,0,134761:0:0:0:0:
448,192,134761,128,0,134981:0:0:0:0:
64,192,134981,128,0,135092:0:0:0:0:
320,192,135202,128,0,135312:0:0:0:0:
192,192,135422,128,0,135643:0:0:0:0:
448,192,135643,128,0,135753:0:0:0:0:
192,192,135753,128,0,135864:0:0:0:0:
320,192,135974,1,0,0:0:0:0:
192,192,136084,128,0,136305:0:0:0:0:
64,192,136305,128,0,136525:0:0:0:0:
192,192,136746,128,0,136856:0:0:0:0:
448,192,137187,128,0,137408:0:0:0:0:
320,192,137408,128,0,137518:0:0:0:0:
448,192,137518,128,0,137628:0:0:0:0:
448,192,137849,128,0,138069:0:0:0:0:
192,192,138069,128,0,138180:0:0:0:0:
192,192,138290,128,0,138731:0:0:0:0:
64,192,138511,128,2,138842:0:0:0:0:
320,192,138511,128,4,138731:0:0:0:0:
448,192,138511,128,0,138731:0:0:0:0:
192,192,138842,128,4,139062:0:0:0:0:
320,192,138842,128,2,139062:0:0:0:0:
448,192,138842,128,0,139172:0:0:0:0:
64,192,139172,128,2,139283:0:0:0:0:
192,192,139172,128,4,139283:0:0:0:0:
320,192,139172,128,0,139393:0:0:0:0:
64,192,139393,128,4,139614:0:0:0:0:
192,192,139393,128,2,139724:0:0:0:0:
448,192,139393,128,0,139614:0:0:0:0:
64,192,139724,128,2,140275:0:0:0:0:
320,192,139724,128,4,139944:0:0:0:0:
448,192,139724,128,0,139944:0:0:0:0:
320,192,140275,128,0,140386:0:0:0:0:
448,192,140496,128,0,140717:0:0:0:0:
64,192,140717,128,6,140937:0:0:0:0:
320,192,140717,128,8,140827:0:0:0:0:
192,192,140827,128,0,141047:0:0:0:0:
448,192,140937,128,0,141158:0:0:0:0:
64,192,141047,128,0,141158:0:0:0:0:
320,192,141047,128,0,141268:0:0:0:0:
192,192,141158,128,2,141268:0:0:0:0:
64,192,141268,128,0,141378:0:0:0:0:
192,192,141378,128,0,141599:0:0:0:0:
448,192,141378,128,0,141489:0:0:0:0:
64,192,141489,128,0,141599:0:0:0:0:
320,192,141599,128,8,141709:0:0:0:0:
448,192,141599,128,2,141819:0:0:0:0:
192,192,141709,128,0,141819:0:0:0:0:
64,192,141819,128,0,142040:0:0:0:0:
320,192,141819,128,0,141930:0:0:0:0:
192,192,142040,128,2,142150:0:0:0:0:
320,192,142040,128,0,142261:0:0:0:0:
448,192,142150,128,0,142261:0:0:0:0:
64,192,142261,128,0,142481:0:0:0:0:
192,192,142261,128,0,142371:0:0:0:0:
320,192,142371,128,0,142481:0:0:0:0:
192,192,142481,128,8,142592:0:0:0:0:
448,192,142481,128,2,142702:0:0:0:0:
64,192,142592,128,0,142812:0:0:0:0:
320,192,142702,128,0,142922:0:0:0:0:
192,192,142812,128,0,143033:0:0:0:0:
64,192,142922,128,2,143033:0:0:0:0:
448,192,142922,128,0,143143:0:0:0:0:
320,192,143033,128,0,143143:0:0:0:0:
64,192,143143,128,0,143253:0:0:0:0:
192,192,143143,128,0,143364:0:0:0:0:
320,192,143253,128,0,143364:0:0:0:0:
64,192,143364,128,8,143474:0:0:0:0:
448,192,143364,128,2,143584:0:0:0:0:
320,192,143474,128,0,143584:0:0:0:0:
64,192,143584,128,0,143805:0:0:0:0:
192,192,143694,128,0,143805:0:0:0:0:
320,192,143805,128,2,144025:0:0:0:0:
448,192,143805,128,0,143915:0:0:0:0:
192,192,143915,128,0,144025:0:0:0:0:
64,192,144025,128,0,144246:0:0:0:0:
192,192,144136,128,0,144246:0:0:0:0:
320,192,144246,128,8,144467:0:0:0:0:
448,192,144246,128,2,144356:0:0:0:0:
192,192,144356,128,0,144467:0:0:0:0:
64,192,144467,128,0,144687:0:0:0:0:
448,192,144467,128,0,144577:0:0:0:0:
192,192,144577,128,0,144687:0:0:0:0:
320,192,144687,128,2,144908:0:0:0:0:
448,192,144687,128,0,144797:0:0:0:0:
64,192,144797,128,0,145018:0:0:0:0:
192,192,144908,128,0,145128:0:0:0:0:
448,192,145018,128,0,145128:0:0:0:0:
64,192,145128,128,8,145239:0:0:0:0:
320,192,145128,128,2,145349:0:0:0:0:
448,192,145239,128,0,145349:0:0:0:0:
64,192,145349,128,0,145459:0:0:0:0:
192,192,145349,128,0,145569:0:0:0:0:
320,192,145459,128,0,145569:0:0:0:0:
64,192,145569,128,2,145790:0:0:0:0:
448,192,145569,128,0,145680:0:0:0:70:ride00.wav
192,192,145680,128,0,145900:0:0:0:0:
448,192,145790,128,0,146011:0:0:0:0:
320,192,145900,128,0,146011:0:0:0:0:
64,192,146011,128,8,146231:0:0:0:0:
192,192,146011,128,2,146121:0:0:0:0:
320,192,146121,128,0,146231:0:0:0:0:
192,192,146231,128,0,146452:0:0:0:0:
448,192,146231,128,0,146342:0:0:0:0:
64,192,146342,128,8,146452:0:0:0:0:
320,192,146452,128,2,146562:0:0:0:0:
448,192,146452,128,4,146672:0:0:0:0:
64,192,146562,128,0,146672:0:0:0:0:
192,192,146672,128,8,146783:0:0:0:0:
320,192,146672,128,0,146893:0:0:0:0:
448,192,146783,128,0,146893:0:0:0:0:
64,192,146893,128,2,147003:0:0:0:0:
192,192,146893,128,8,147114:0:0:0:0:
320,192,147003,128,8,147114:0:0:0:0:
448,192,147003,128,0,147114:0:0:0:0:
64,192,147114,128,8,147224:0:0:0:0:
320,192,147224,128,8,147334:0:0:0:0:
448,192,147224,128,0,147334:0:0:0:0:
192,192,147334,128,0,147444:0:0:0:0:
448,192,147555,128,0,147775:0:0:0:0:
64,192,147775,128,0,147996:0:0:0:0:
192,192,147996,128,0,148217:0:0:0:0:
448,192,148217,128,0,148327:0:0:0:0:
320,192,148437,128,0,148658:0:0:0:0:
64,192,148658,128,0,148878:0:0:0:0:
192,192,148658,128,0,148989:0:0:0:0:
320,192,148878,128,0,149099:0:0:0:0:
448,192,148989,128,0,149099:0:0:0:0:
64,192,149099,128,6,149319:0:0:0:0:
192,192,149099,128,8,149209:0:0:0:0:
192,192,149319,128,2,149540:0:0:0:0:
320,192,149319,128,8,149430:0:0:0:0:
448,192,149319,128,0,149430:0:0:0:0:
64,192,149540,128,2,149650:0:0:0:0:
320,192,149540,128,8,149650:0:0:0:0:
448,192,149540,128,4,149761:0:0:0:0:
64,192,149761,128,2,149981:0:0:0:0:
192,192,149761,128,8,149871:0:0:0:0:
320,192,149871,128,0,149981:0:0:0:0:
192,192,149981,128,10,150202:0:0:0:0:
448,192,149981,128,4,150422:0:0:0:0:
64,192,150202,128,0,150312:0:0:0:0:
320,192,150202,128,0,150533:0:0:0:0:
192,192,150422,128,0,150533:0:0:0:0:
64,192,150864,128,2,151084:0:0:0:0:
192,192,150864,128,4,151084:0:0:0:0:
448,192,151084,128,0,151194:0:0:0:0:
64,192,151194,128,0,151415:0:0:0:0:
192,192,151305,128,8,151415:0:0:0:0:
448,192,151305,1,0,0:0:0:70:ride00.wav
320,192,151415,128,0,151525:0:0:0:0:
192,192,151525,128,0,151636:0:0:0:0:
64,192,151636,128,0,151746:0:0:0:0:
448,192,151746,1,0,0:0:0:70:ride00.wav
320,192,151856,128,0,151967:0:0:0:0:
64,192,151967,128,2,152077:0:0:0:0:
192,192,151967,128,0,152187:0:0:0:0:
64,192,152187,128,8,152297:0:0:0:0:
320,192,152187,1,0,0:0:0:70:ride00.wav
192,192,152297,128,2,152408:0:0:0:0:
448,192,152297,128,0,152518:0:0:0:0:
320,192,152408,128,0,152518:0:0:0:0:
64,192,152518,128,0,152628:0:0:0:0:
320,192,152628,128,2,152849:0:0:0:0:
448,192,152628,128,0,152849:0:0:0:70:ride00.wav
64,192,152849,128,0,152959:0:0:0:0:
192,192,152959,128,0,153069:0:0:0:0:
64,192,153069,1,8,0:0:0:0:
448,192,153069,1,0,0:0:0:70:ride00.wav
320,192,153180,128,0,153290:0:0:0:0:
192,192,153290,128,0,153400:0:0:0:0:
448,192,153400,128,0,153511:0:0:0:0:
64,192,153511,128,0,153621:0:0:0:70:ride00.wav
64,192,153731,128,2,153842:0:0:0:0:
192,192,153731,128,0,153952:0:0:0:0:
64,192,153952,128,8,154172:0:0:0:0:
320,192,153952,128,0,154062:0:0:0:70:ride00.wav
448,192,154172,128,0,154393:0:0:0:0:
64,192,154393,128,2,154503:0:0:0:0:
192,192,154393,128,0,154614:0:0:0:70:ride00.wav
64,192,154614,128,0,154724:0:0:0:0:
448,192,154724,128,0,154944:0:0:0:0:
64,192,154834,1,8,0:0:0:0:
320,192,154834,128,0,154944:0:0:0:70:ride00.wav
192,192,154944,128,0,155055:0:0:0:0:
320,192,155055,128,0,155165:0:0:0:0:
448,192,155165,128,0,155275:0:0:0:0:
64,192,155275,1,0,0:0:0:70:ride00.wav
192,192,155386,128,0,155496:0:0:0:0:
320,192,155496,128,2,155717:0:0:0:0:
448,192,155496,128,0,155606:0:0:0:0:
192,192,155717,1,8,0:0:0:0:
448,192,155717,128,0,155827:0:0:0:70:ride00.wav
64,192,155827,128,2,156047:0:0:0:0:
320,192,155827,128,0,155937:0:0:0:0:
192,192,155937,128,0,156047:0:0:0:0:
448,192,156047,128,0,156158:0:0:0:0:
64,192,156158,128,2,156378:0:0:0:0:
192,192,156158,128,0,156378:0:0:0:70:ride00.wav
448,192,156378,128,0,156489:0:0:0:0:
320,192,156489,128,0,156599:0:0:0:0:
64,192,156599,1,8,0:0:0:0:
448,192,156599,1,0,0:0:0:70:ride00.wav
192,192,156709,128,0,156819:0:0:0:0:
320,192,156819,128,0,156930:0:0:0:0:
64,192,156930,128,0,157040:0:0:0:0:
320,192,157040,128,2,157150:0:0:0:0:
448,192,157040,128,0,157150:0:0:0:70:ride00.wav
320,192,157261,128,2,157481:0:0:0:0:
448,192,157261,128,0,157371:0:0:0:0:
64,192,157481,128,8,157702:0:0:0:0:
448,192,157481,128,0,157592:0:0:0:70:ride00.wav
320,192,157592,128,0,157702:0:0:0:0:
192,192,157702,128,8,157812:0:0:0:0:
448,192,157702,1,0,0:0:0:0:
64,192,157812,128,8,157922:0:0:0:0:
320,192,157812,1,0,0:0:0:0:
192,192,157922,128,6,158143:0:0:0:0:
448,192,157922,128,8,158143:0:0:0:0:
64,192,158143,128,0,158253:0:0:0:0:
448,192,158253,128,0,158474:0:0:0:0:
64,192,158364,1,8,0:0:0:0:
320,192,158364,128,2,158474:0:0:0:0:
192,192,158474,128,0,158584:0:0:0:0:
320,192,158584,128,0,158694:0:0:0:0:
192,192,158694,1,0,0:0:0:0:
448,192,158694,128,0,158805:0:0:0:0:
64,192,158805,1,2,0:0:0:0:
320,192,158805,1,0,0:0:0:0:
192,192,158915,128,0,159025:0:0:0:0:
320,192,159025,128,0,159246:0:0:0:0:
448,192,159025,128,0,159172:0:0:0:0:
64,192,159136,128,0,159246:0:0:0:0:
192,192,159246,1,8,0:0:0:0:
448,192,159246,128,2,159356:0:0:0:0:
64,192,159356,128,0,159577:0:0:0:0:
320,192,159356,128,0,159467:0:0:0:0:
192,192,159467,128,0,159577:0:0:0:0:
448,192,159577,128,0,159687:0:0:0:0:
64,192,159687,128,2,159908:0:0:0:0:
192,192,159687,128,0,159908:0:0:0:0:
448,192,159908,128,0,160018:0:0:0:0:
320,192,160018,128,0,160128:0:0:0:0:
64,192,160128,1,8,0:0:0:0:
448,192,160128,1,2,0:0:0:0:
192,192,160239,128,0,160349:0:0:0:0:
320,192,160349,128,0,160459:0:0:0:0:
448,192,160349,1,0,0:0:0:0:
64,192,160459,128,0,160569:0:0:0:0:
192,192,160459,1,0,0:0:0:0:
320,192,160569,128,2,160680:0:0:0:0:
448,192,160569,128,0,160680:0:0:0:0:
192,192,160680,1,0,0:0:0:0:
320,192,160790,128,0,161011:0:0:0:0:
448,192,160790,128,0,160900:0:0:0:0:
64,192,160900,128,0,161011:0:0:0:0:
192,192,161011,128,8,161121:0:0:0:0:
448,192,161011,128,2,161231:0:0:0:0:
64,192,161121,128,0,161231:0:0:0:0:
192,192,161231,128,0,161452:0:0:0:0:
64,192,161342,128,0,161452:0:0:0:0:
320,192,161452,128,2,161672:0:0:0:0:
448,192,161452,128,0,161562:0:0:0:0:
64,192,161562,128,0,161672:0:0:0:0:
448,192,161672,128,0,161783:0:0:0:0:
64,192,161783,128,0,162003:0:0:0:0:
192,192,161893,128,8,162003:0:0:0:0:
448,192,161893,1,2,0:0:0:0:
320,192,162003,128,0,162114:0:0:0:0:
192,192,162114,128,0,162224:0:0:0:0:
64,192,162224,128,0,162334:0:0:0:0:
320,192,162224,1,0,0:0:0:0:
192,192,162334,1,2,0:0:0:0:
448,192,162334,1,0,0:0:0:0:
320,192,162444,128,0,162555:0:0:0:0:
64,192,162555,128,0,162702:0:0:0:0:
192,192,162555,128,0,162775:0:0:0:0:
448,192,162665,128,0,162775:0:0:0:0:
64,192,162775,128,8,162886:0:0:0:0:
320,192,162775,1,2,0:0:0:0:
192,192,162886,128,0,162996:0:0:0:0:
448,192,162886,128,0,163106:0:0:0:0:
320,192,162996,128,0,163106:0:0:0:0:
64,192,163106,128,0,163217:0:0:0:0:
320,192,163217,128,2,163437:0:0:0:0:
448,192,163217,128,0,163437:0:0:0:70:ride00.wav
64,192,163437,128,0,163547:0:0:0:0:
192,192,163547,128,0,163658:0:0:0:0:
64,192,163658,1,8,0:0:0:0:
448,192,163658,1,2,0:0:0:0:
320,192,163768,128,0,163878:0:0:0:0:
64,192,163878,1,0,0:0:0:0:
192,192,163878,128,0,163989:0:0:0:0:
320,192,163989,1,8,0:0:0:0:
448,192,163989,128,0,164099:0:0:0:0:
64,192,164099,128,2,164209:0:0:0:0:
192,192,164099,128,0,164209:0:0:0:0:
320,192,164209,1,0,0:0:0:0:
64,192,164319,128,2,164430:0:0:0:0:
192,192,164319,128,0,164540:0:0:0:0:
320,192,164430,128,0,164540:0:0:0:0:
64,192,164540,128,2,164650:0:0:0:0:
448,192,164540,128,8,164761:0:0:0:0:
192,192,164650,128,8,164761:0:0:0:0:
64,192,164761,1,8,0:0:0:0:
320,192,164761,128,0,164871:0:0:0:0:
448,192,164871,128,8,164981:0:0:0:0:
64,192,164981,128,2,165092:0:0:0:0:
192,192,164981,128,0,165092:0:0:0:0:
