osu file format v14

[General]
AudioFilename: WhatsApp Audio 2016-11-26 at 23.06.34.mp3
AudioLeadIn: 0
PreviewTime: 40146
Countdown: 0
SampleSet: Normal
StackLeniency: 0.3
Mode: 3
LetterboxInBreaks: 0
SpecialStyle: 0
WidescreenStoryboard: 1

[Editor]
DistanceSpacing: 1.6
BeatDivisor: 4
GridSize: 4
TimelineZoom: 3.199999

[Metadata]
Title:Crazy Piano! STAR VS THE FORCES OF EVIL THEME [Remix]
TitleUnicode:Crazy Piano! STAR VS THE FORCES OF EVIL THEME [Remix]
Artist:KaiHorstHD
ArtistUnicode:KaiHorstHD
Creator:Prancer
Version:Star
Source:
Tags:
BeatmapID:1295668
BeatmapSetID:538572

[Difficulty]
HPDrainRate:8.3
CircleSize:4
OverallDifficulty:8.8
ApproachRate:5
SliderMultiplier:1.4
SliderTickRate:1

[Events]
//Background and Video events
0,0,"star01.jpg",0,0
//Break Periods
//Storyboard Layer 0 (Background)
//Storyboard Layer 1 (Fail)
//Storyboard Layer 2 (Pass)
//Storyboard Layer 3 (Foreground)
//Storyboard Sound Samples

[TimingPoints]
531,360.144057623049,4,1,0,10,1,0

[HitObjects]
192,192,531,5,0,0:0:0:0:
448,192,531,1,0,0:0:0:0:
320,192,711,1,0,0:0:0:0:
192,192,891,1,0,0:0:0:0:
320,192,1071,1,0,0:0:0:0:
64,192,1251,1,0,0:0:0:0:
448,192,1251,1,0,0:0:0:0:
192,192,1431,1,0,0:0:0:0:
320,192,1611,1,0,0:0:0:0:
192,192,1791,1,0,0:0:0:0:
64,192,1971,1,0,0:0:0:0:
320,192,1971,1,0,0:0:0:0:
448,192,2151,1,0,0:0:0:0:
320,192,2331,1,0,0:0:0:0:
448,192,2511,1,0,0:0:0:0:
320,192,2691,1,0,0:0:0:0:
192,192,2691,1,0,0:0:0:0:
64,192,2871,1,0,0:0:0:0:
192,192,3052,1,0,0:0:0:0:
64,192,3232,1,0,0:0:0:0:
320,192,3412,1,0,0:0:0:0:
448,192,3412,1,0,0:0:0:0:
64,192,3592,1,0,0:0:0:0:
192,192,3772,1,0,0:0:0:0:
320,192,3952,1,0,0:0:0:0:
64,192,4132,1,0,0:0:0:0:
192,192,4132,1,0,0:0:0:0:
448,192,4312,1,0,0:0:0:0:
320,192,4492,1,0,0:0:0:0:
192,192,4672,1,0,0:0:0:0:
64,192,4852,1,0,0:0:0:0:
448,192,4852,1,0,0:0:0:0:
320,192,5032,1,0,0:0:0:0:
64,192,5212,1,0,0:0:0:0:
448,192,5392,1,0,0:0:0:0:
192,192,5573,1,0,0:0:0:0:
320,192,5573,1,0,0:0:0:0:
64,192,5753,1,0,0:0:0:0:
448,192,5933,1,0,0:0:0:0:
192,192,6113,1,0,0:0:0:0:
64,192,6293,1,0,0:0:0:0:
448,192,6293,1,0,0:0:0:0:
320,192,6473,1,0,0:0:0:0:
192,192,6653,1,0,0:0:0:0:
448,192,6653,1,0,0:0:0:0:
64,192,6833,1,0,0:0:0:0:
192,192,7013,1,0,0:0:0:0:
320,192,7013,1,0,0:0:0:0:
448,192,7193,1,0,0:0:0:0:
320,192,7373,1,0,0:0:0:0:
64,192,7373,1,0,0:0:0:0:
192,192,7553,1,0,0:0:0:0:
320,192,7733,1,0,0:0:0:0:
448,192,7733,1,0,0:0:0:0:
64,192,7913,1,0,0:0:0:0:
192,192,8094,1,0,0:0:0:0:
320,192,8094,1,0,0:0:0:0:
448,192,8274,1,0,0:0:0:0:
192,192,8454,1,0,0:0:0:0:
64,192,8454,1,0,0:0:0:0:
320,192,8634,1,0,0:0:0:0:
64,192,8814,1,0,0:0:0:0:
448,192,8814,1,0,0:0:0:0:
320,192,8994,1,0,0:0:0:0:
192,192,8994,1,0,0:0:0:0:
448,192,9174,1,0,0:0:0:0:
64,192,9174,1,0,0:0:0:0:
320,192,9354,1,0,0:0:0:0:
192,192,9534,1,0,0:0:0:0:
448,192,9534,1,0,0:0:0:0:
320,192,9714,1,0,0:0:0:0:
64,192,9894,1,0,0:0:0:0:
448,192,9894,1,0,0:0:0:0:
192,192,10074,1,0,0:0:0:0:
64,192,10254,1,0,0:0:0:0:
448,192,10254,1,0,0:0:0:0:
320,192,10344,1,0,0:0:0:0:
192,192,10434,1,0,0:0:0:0:
64,192,10524,1,0,0:0:0:0:
320,192,10615,1,0,0:0:0:0:
448,192,10615,1,0,0:0:0:0:
192,192,10795,1,0,0:0:0:0:
448,192,10975,1,0,0:0:0:0:
64,192,10975,1,0,0:0:0:0:
320,192,11155,1,0,0:0:0:0:
64,192,11335,1,0,0:0:0:0:
192,192,11335,1,0,0:0:0:0:
320,192,11515,1,0,0:0:0:0:
448,192,11515,1,0,0:0:0:0:
192,192,11695,1,0,0:0:0:0:
64,192,11695,1,0,0:0:0:0:
320,192,11875,1,0,0:0:0:0:
448,192,11875,1,0,0:0:0:0:
192,192,12055,1,0,0:0:0:0:
320,192,12055,1,0,0:0:0:0:
448,192,12055,1,0,0:0:0:0:
320,192,12235,1,0,0:0:0:0:
448,192,12235,1,0,0:0:0:0:
64,192,12415,1,0,0:0:0:0:
448,192,12595,1,0,0:0:0:0:
192,192,12595,1,0,0:0:0:0:
64,192,12775,1,0,0:0:0:0:
448,192,12775,1,0,0:0:0:0:
192,192,12955,1,0,0:0:0:0:
320,192,12955,1,0,0:0:0:0:
64,192,13136,1,0,0:0:0:0:
448,192,13136,1,0,0:0:0:0:
192,192,13316,1,0,0:0:0:0:
320,192,13316,1,0,0:0:0:0:
64,192,13496,128,0,14576:0:0:0:0:
192,192,14936,1,0,0:0:0:0:
448,192,15026,1,0,0:0:0:0:
320,192,15296,1,0,0:0:0:0:
64,192,15386,1,0,0:0:0:0:
448,192,15657,1,0,0:0:0:0:
192,192,15747,1,0,0:0:0:0:
64,192,16017,1,0,0:0:0:0:
320,192,16107,1,0,0:0:0:0:
320,192,16377,1,0,0:0:0:0:
448,192,16377,1,0,0:0:0:0:
192,192,16467,1,0,0:0:0:0:
320,192,16557,1,0,0:0:0:0:
448,192,16557,1,0,0:0:0:0:
64,192,16647,1,0,0:0:0:0:
192,192,16737,1,0,0:0:0:0:
320,192,16737,1,0,0:0:0:0:
448,192,16827,1,0,0:0:0:0:
192,192,16917,1,0,0:0:0:0:
320,192,16917,1,0,0:0:0:0:
448,192,17007,1,0,0:0:0:0:
320,192,17097,1,0,0:0:0:0:
192,192,17097,1,0,0:0:0:0:
64,192,17097,1,0,0:0:0:0:
448,192,17187,1,0,0:0:0:0:
320,192,17277,1,0,0:0:0:0:
192,192,17367,1,0,0:0:0:0:
64,192,17457,1,0,0:0:0:0:
448,192,17457,1,0,0:0:0:0:
192,192,17547,1,0,0:0:0:0:
320,192,17637,1,0,0:0:0:0:
192,192,17727,1,0,0:0:0:0:
64,192,17817,1,0,0:0:0:0:
320,192,17817,1,0,0:0:0:0:
192,192,17907,1,0,0:0:0:0:
320,192,17997,1,0,0:0:0:0:
448,192,18088,1,0,0:0:0:0:
64,192,18178,1,0,0:0:0:0:
192,192,18178,1,0,0:0:0:0:
320,192,18268,1,0,0:0:0:0:
64,192,18358,1,0,0:0:0:0:
192,192,18448,1,0,0:0:0:0:
320,192,18538,1,0,0:0:0:0:
448,192,18538,1,0,0:0:0:0:
192,192,18628,1,0,0:0:0:0:
64,192,18718,1,0,0:0:0:0:
320,192,18808,1,0,0:0:0:0:
64,192,18898,1,0,0:0:0:0:
448,192,18898,1,0,0:0:0:0:
192,192,18988,1,0,0:0:0:0:
320,192,19078,1,0,0:0:0:0:
64,192,19168,1,0,0:0:0:0:
192,192,19258,1,0,0:0:0:0:
448,192,19258,1,0,0:0:0:0:
320,192,19348,1,0,0:0:0:0:
192,192,19438,1,0,0:0:0:0:
64,192,19528,1,0,0:0:0:0:
320,192,19618,1,0,0:0:0:0:
448,192,19618,1,0,0:0:0:0:
192,192,19708,1,0,0:0:0:0:
320,192,19798,1,0,0:0:0:0:
448,192,19798,1,0,0:0:0:0:
64,192,19888,1,0,0:0:0:0:
192,192,19888,1,0,0:0:0:0:
448,192,19978,1,0,0:0:0:0:
320,192,19978,1,0,0:0:0:0:
192,192,20068,1,0,0:0:0:0:
64,192,20158,1,0,0:0:0:0:
320,192,20248,1,0,0:0:0:0:
192,192,20338,1,0,0:0:0:0:
448,192,20338,1,0,0:0:0:0:
64,192,20428,1,0,0:0:0:0:
192,192,20518,1,0,0:0:0:0:
320,192,20609,1,0,0:0:0:0:
64,192,20699,1,0,0:0:0:0:
448,192,20699,1,0,0:0:0:0:
320,192,20789,1,0,0:0:0:0:
192,192,20879,1,0,0:0:0:0:
64,192,20969,1,0,0:0:0:0:
320,192,21059,1,0,0:0:0:0:
448,192,21059,1,0,0:0:0:0:
64,192,21149,1,0,0:0:0:0:
192,192,21239,1,0,0:0:0:0:
320,192,21329,1,0,0:0:0:0:
64,192,21419,1,0,0:0:0:0:
448,192,21419,1,0,0:0:0:0:
192,192,21509,1,0,0:0:0:0:
320,192,21599,1,0,0:0:0:0:
64,192,21689,1,0,0:0:0:0:
320,192,21779,1,0,0:0:0:0:
448,192,21779,1,0,0:0:0:0:
192,192,21869,1,0,0:0:0:0:
64,192,21959,1,0,0:0:0:0:
448,192,22049,1,0,0:0:0:0:
192,192,22139,1,0,0:0:0:0:
320,192,22139,1,0,0:0:0:0:
64,192,22229,1,0,0:0:0:0:
192,192,22319,1,0,0:0:0:0:
64,192,22409,1,0,0:0:0:0:
320,192,22499,1,0,0:0:0:0:
448,192,22499,1,0,0:0:0:0:
192,192,22589,1,0,0:0:0:0:
448,192,22679,1,0,0:0:0:0:
64,192,22679,1,0,0:0:0:0:
320,192,22769,1,0,0:0:0:0:
192,192,22859,1,0,0:0:0:0:
64,192,22859,1,0,0:0:0:0:
320,192,22949,1,0,0:0:0:0:
64,192,23040,1,0,0:0:0:0:
192,192,23130,1,0,0:0:0:0:
320,192,23220,1,0,0:0:0:0:
448,192,23220,1,0,0:0:0:0:
64,192,23310,1,0,0:0:0:0:
320,192,23400,1,0,0:0:0:0:
192,192,23490,1,0,0:0:0:0:
64,192,23580,1,0,0:0:0:0:
448,192,23580,1,0,0:0:0:0:
320,192,23670,1,0,0:0:0:0:
192,192,23760,1,0,0:0:0:0:
320,192,23850,1,0,0:0:0:0:
64,192,23940,1,0,0:0:0:0:
448,192,23940,1,0,0:0:0:0:
192,192,24030,1,0,0:0:0:0:
320,192,24120,1,0,0:0:0:0:
192,192,24210,1,0,0:0:0:0:
64,192,24300,1,0,0:0:0:0:
320,192,24300,1,0,0:0:0:0:
192,192,24390,1,0,0:0:0:0:
320,192,24480,1,0,0:0:0:0:
64,192,24570,1,0,0:0:0:0:
192,192,24660,1,0,0:0:0:0:
448,192,24660,1,0,0:0:0:0:
320,192,24750,1,0,0:0:0:0:
192,192,24840,1,0,0:0:0:0:
448,192,24930,1,0,0:0:0:0:
192,192,25020,1,0,0:0:0:0:
64,192,25020,1,0,0:0:0:0:
192,192,25380,1,0,0:0:0:0:
64,192,25380,1,0,0:0:0:0:
320,192,25561,1,0,0:0:0:0:
448,192,25561,1,0,0:0:0:0:
192,192,25651,1,0,0:0:0:0:
64,192,25651,1,0,0:0:0:0:
448,192,25741,1,0,0:0:0:0:
320,192,25741,1,0,0:0:0:0:
192,192,25831,1,0,0:0:0:0:
64,192,25921,1,0,0:0:0:0:
192,192,26011,1,0,0:0:0:0:
64,192,26101,1,0,0:0:0:0:
320,192,26101,1,0,0:0:0:0:
192,192,26191,1,0,0:0:0:0:
320,192,26281,1,0,0:0:0:0:
448,192,26371,1,0,0:0:0:0:
64,192,26461,1,0,0:0:0:0:
192,192,26461,1,0,0:0:0:0:
320,192,26551,1,0,0:0:0:0:
448,192,26641,1,0,0:0:0:0:
64,192,26731,1,0,0:0:0:0:
448,192,26821,1,0,0:0:0:0:
320,192,26821,1,0,0:0:0:0:
192,192,26911,1,0,0:0:0:0:
64,192,27001,1,0,0:0:0:0:
320,192,27091,1,0,0:0:0:0:
448,192,27181,1,0,0:0:0:0:
192,192,27181,1,0,0:0:0:0:
320,192,27271,1,0,0:0:0:0:
64,192,27361,1,0,0:0:0:0:
192,192,27451,1,0,0:0:0:0:
320,192,27541,1,0,0:0:0:0:
448,192,27541,1,0,0:0:0:0:
192,192,27631,1,0,0:0:0:0:
64,192,27721,1,0,0:0:0:0:
192,192,27811,1,0,0:0:0:0:
64,192,27901,1,0,0:0:0:0:
448,192,27901,1,0,0:0:0:0:
192,192,27991,1,0,0:0:0:0:
448,192,28082,1,0,0:0:0:0:
64,192,28082,1,0,0:0:0:0:
320,192,28172,1,0,0:0:0:0:
192,192,28262,1,0,0:0:0:0:
64,192,28262,1,0,0:0:0:0:
320,192,28352,1,0,0:0:0:0:
192,192,28442,1,0,0:0:0:0:
64,192,28442,1,0,0:0:0:0:
448,192,28532,1,0,0:0:0:0:
192,192,28622,1,0,0:0:0:0:
64,192,28622,1,0,0:0:0:0:
320,192,28622,1,0,0:0:0:0:
448,192,28712,1,0,0:0:0:0:
64,192,28802,1,0,0:0:0:0:
192,192,28892,1,0,0:0:0:0:
320,192,28982,1,0,0:0:0:0:
448,192,28982,1,0,0:0:0:0:
64,192,29072,1,0,0:0:0:0:
192,192,29162,1,0,0:0:0:0:
320,192,29252,1,0,0:0:0:0:
64,192,29342,1,0,0:0:0:0:
448,192,29342,1,0,0:0:0:0:
320,192,29432,1,0,0:0:0:0:
192,192,29522,1,0,0:0:0:0:
64,192,29612,1,0,0:0:0:0:
448,192,29702,1,0,0:0:0:0:
320,192,29702,1,0,0:0:0:0:
192,192,29792,1,0,0:0:0:0:
64,192,29882,1,0,0:0:0:0:
448,192,29972,1,0,0:0:0:0:
320,192,30062,1,0,0:0:0:0:
192,192,30062,1,0,0:0:0:0:
64,192,30152,1,0,0:0:0:0:
192,192,30242,1,0,0:0:0:0:
64,192,30332,1,0,0:0:0:0:
320,192,30422,1,0,0:0:0:0:
192,192,30422,1,0,0:0:0:0:
448,192,30512,1,0,0:0:0:0:
320,192,30603,1,0,0:0:0:0:
448,192,30693,1,0,0:0:0:0:
192,192,30783,1,0,0:0:0:0:
64,192,30783,1,0,0:0:0:0:
320,192,30873,1,0,0:0:0:0:
192,192,30963,1,0,0:0:0:0:
64,192,31053,1,0,0:0:0:0:
320,192,31143,1,0,0:0:0:0:
448,192,31143,1,0,0:0:0:0:
192,192,31233,1,0,0:0:0:0:
64,192,31323,1,0,0:0:0:0:
448,192,31413,1,0,0:0:0:0:
320,192,31503,1,0,0:0:0:0:
64,192,31503,1,0,0:0:0:0:
192,192,31593,1,0,0:0:0:0:
320,192,31683,1,0,0:0:0:0:
64,192,31773,1,0,0:0:0:0:
192,192,31863,1,0,0:0:0:0:
448,192,31863,1,0,0:0:0:0:
320,192,31953,1,0,0:0:0:0:
192,192,32043,1,0,0:0:0:0:
448,192,32133,1,0,0:0:0:0:
320,192,32223,1,0,0:0:0:0:
192,192,32223,1,0,0:0:0:0:
64,192,32313,1,0,0:0:0:0:
448,192,32403,1,0,0:0:0:0:
320,192,32493,1,0,0:0:0:0:
64,192,32583,1,0,0:0:0:0:
448,192,32583,1,0,0:0:0:0:
192,192,32673,1,0,0:0:0:0:
64,192,32763,1,0,0:0:0:0:
448,192,32853,1,0,0:0:0:0:
64,192,32943,1,0,0:0:0:0:
320,192,32943,1,0,0:0:0:0:
192,192,33034,1,0,0:0:0:0:
320,192,33124,1,0,0:0:0:0:
448,192,33214,1,0,0:0:0:0:
64,192,33304,1,0,0:0:0:0:
192,192,33304,1,0,0:0:0:0:
320,192,33394,1,0,0:0:0:0:
448,192,33484,1,0,0:0:0:0:
64,192,33574,1,0,0:0:0:0:
192,192,33664,1,0,0:0:0:0:
448,192,33664,1,0,0:0:0:0:
320,192,33754,1,0,0:0:0:0:
192,192,33844,1,0,0:0:0:0:
64,192,33934,1,0,0:0:0:0:
448,192,34024,1,0,0:0:0:0:
320,192,34024,1,0,0:0:0:0:
192,192,34114,1,0,0:0:0:0:
448,192,34204,1,0,0:0:0:0:
320,192,34204,1,0,0:0:0:0:
64,192,34294,1,0,0:0:0:0:
192,192,34384,1,0,0:0:0:0:
320,192,34384,1,0,0:0:0:0:
448,192,34384,1,0,0:0:0:0:
64,192,34474,1,0,0:0:0:0:
448,192,34564,1,0,0:0:0:0:
320,192,34654,1,0,0:0:0:0:
64,192,34744,1,0,0:0:0:0:
192,192,34744,1,0,0:0:0:0:
320,192,34834,1,0,0:0:0:0:
448,192,34924,1,0,0:0:0:0:
64,192,35014,1,0,0:0:0:0:
192,192,35104,1,0,0:0:0:0:
448,192,35104,1,0,0:0:0:0:
320,192,35194,1,0,0:0:0:0:
192,192,35284,1,0,0:0:0:0:
64,192,35374,1,0,0:0:0:0:
192,192,35464,1,0,0:0:0:0:
448,192,35464,1,0,0:0:0:0:
320,192,35555,1,0,0:0:0:0:
448,192,35645,1,0,0:0:0:0:
64,192,35735,1,0,0:0:0:0:
320,192,35825,1,0,0:0:0:0:
448,192,35825,1,0,0:0:0:0:
192,192,35915,1,0,0:0:0:0:
64,192,36005,1,0,0:0:0:0:
320,192,36095,1,0,0:0:0:0:
64,192,36185,1,0,0:0:0:0:
192,192,36185,1,0,0:0:0:0:
448,192,36275,1,0,0:0:0:0:
320,192,36365,1,0,0:0:0:0:
64,192,36455,1,0,0:0:0:0:
192,192,36545,1,0,0:0:0:0:
320,192,36545,1,0,0:0:0:0:
448,192,36635,1,0,0:0:0:0:
64,192,36725,1,0,0:0:0:0:
192,192,36815,1,0,0:0:0:0:
64,192,36905,1,0,0:0:0:0:
448,192,36905,1,0,0:0:0:0:
320,192,36995,1,0,0:0:0:0:
192,192,37085,1,0,0:0:0:0:
64,192,37175,1,0,0:0:0:0:
192,192,37265,1,0,0:0:0:0:
448,192,37265,1,0,0:0:0:0:
320,192,37355,1,0,0:0:0:0:
192,192,37445,1,0,0:0:0:0:
448,192,37535,1,0,0:0:0:0:
320,192,37625,1,0,0:0:0:0:
64,192,37625,1,0,0:0:0:0:
192,192,37715,1,0,0:0:0:0:
320,192,37805,1,0,0:0:0:0:
64,192,37895,1,0,0:0:0:0:
448,192,37985,1,0,0:0:0:0:
320,192,37985,1,0,0:0:0:0:
192,192,38076,1,0,0:0:0:0:
64,192,38166,1,0,0:0:0:0:
448,192,38256,1,0,0:0:0:0:
192,192,38346,1,0,0:0:0:0:
64,192,38346,1,0,0:0:0:0:
320,192,38436,1,0,0:0:0:0:
448,192,38526,1,0,0:0:0:0:
64,192,38526,1,0,0:0:0:0:
192,192,38616,1,0,0:0:0:0:
320,192,38616,1,0,0:0:0:0:
64,192,38706,1,0,0:0:0:0:
448,192,38706,1,0,0:0:0:0:
320,192,38796,1,0,0:0:0:0:
192,192,38886,1,0,0:0:0:0:
64,192,38976,1,0,0:0:0:0:
448,192,39066,1,0,0:0:0:0:
320,192,39156,1,0,0:0:0:0:
64,192,39246,1,0,0:0:0:0:
192,192,39336,1,0,0:0:0:0:
448,192,39426,1,0,0:0:0:0:
320,192,39516,1,0,0:0:0:0:
192,192,39606,1,0,0:0:0:0:
64,192,39696,1,0,0:0:0:0:
192,192,39786,1,0,0:0:0:0:
320,192,39876,1,0,0:0:0:0:
64,192,39966,1,0,0:0:0:0:
192,192,40056,1,0,0:0:0:0:
64,192,40146,1,0,0:0:0:0:
448,192,40146,1,0,0:0:0:0:
320,192,40146,1,0,0:0:0:0:
192,192,40236,1,0,0:0:0:0:
320,192,40326,1,0,0:0:0:0:
448,192,40416,1,0,0:0:0:0:
320,192,40506,1,0,0:0:0:0:
64,192,40506,1,0,0:0:0:0:
192,192,40597,1,0,0:0:0:0:
64,192,40687,1,0,0:0:0:0:
320,192,40777,1,0,0:0:0:0:
192,192,40867,1,0,0:0:0:0:
448,192,40867,1,0,0:0:0:0:
320,192,40957,1,0,0:0:0:0:
192,192,41047,1,0,0:0:0:0:
64,192,41137,1,0,0:0:0:0:
320,192,41227,1,0,0:0:0:0:
448,192,41227,1,0,0:0:0:0:
192,192,41317,1,0,0:0:0:0:
320,192,41407,1,0,0:0:0:0:
448,192,41497,1,0,0:0:0:0:
320,192,41587,1,0,0:0:0:0:
192,192,41587,1,0,0:0:0:0:
64,192,41677,1,0,0:0:0:0:
192,192,41767,1,0,0:0:0:0:
320,192,41857,1,0,0:0:0:0:
64,192,41947,1,0,0:0:0:0:
448,192,41947,1,0,0:0:0:0:
192,192,42037,1,0,0:0:0:0:
320,192,42127,1,0,0:0:0:0:
448,192,42217,1,0,0:0:0:0:
64,192,42307,1,0,0:0:0:0:
320,192,42307,1,0,0:0:0:0:
192,192,42397,1,0,0:0:0:0:
64,192,42487,1,0,0:0:0:0:
192,192,42577,1,0,0:0:0:0:
64,192,42667,1,0,0:0:0:0:
320,192,42667,1,0,0:0:0:0:
448,192,42757,1,0,0:0:0:0:
320,192,42847,1,0,0:0:0:0:
64,192,42937,1,0,0:0:0:0:
192,192,43027,1,0,0:0:0:0:
448,192,43027,1,0,0:0:0:0:
320,192,43118,1,0,0:0:0:0:
192,192,43208,1,0,0:0:0:0:
448,192,43298,1,0,0:0:0:0:
64,192,43388,1,0,0:0:0:0:
192,192,43388,1,0,0:0:0:0:
448,192,43478,1,0,0:0:0:0:
192,192,43568,1,0,0:0:0:0:
320,192,43658,1,0,0:0:0:0:
64,192,43748,1,0,0:0:0:0:
448,192,43748,1,0,0:0:0:0:
192,192,43838,1,0,0:0:0:0:
64,192,43928,1,0,0:0:0:0:
192,192,44018,1,0,0:0:0:0:
64,192,44108,1,0,0:0:0:0:
448,192,44108,1,0,0:0:0:0:
320,192,44198,1,0,0:0:0:0:
192,192,44288,1,0,0:0:0:0:
448,192,44288,1,0,0:0:0:0:
320,192,44378,1,0,0:0:0:0:
64,192,44468,1,0,0:0:0:0:
448,192,44468,1,0,0:0:0:0:
192,192,44558,1,0,0:0:0:0:
320,192,44648,1,0,0:0:0:0:
448,192,44738,1,0,0:0:0:0:
192,192,44828,1,0,0:0:0:0:
64,192,44828,1,0,0:0:0:0:
320,192,44918,1,0,0:0:0:0:
64,192,45008,1,0,0:0:0:0:
192,192,45098,1,0,0:0:0:0:
64,192,45188,1,0,0:0:0:0:
448,192,45188,1,0,0:0:0:0:
320,192,45278,1,0,0:0:0:0:
192,192,45368,1,0,0:0:0:0:
448,192,45458,1,0,0:0:0:0:
320,192,45549,1,0,0:0:0:0:
64,192,45549,1,0,0:0:0:0:
192,192,45639,1,0,0:0:0:0:
64,192,45729,1,0,0:0:0:0:
448,192,45819,1,0,0:0:0:0:
320,192,45909,1,0,0:0:0:0:
192,192,45909,1,0,0:0:0:0:
64,192,45999,1,0,0:0:0:0:
192,192,46089,1,0,0:0:0:0:
320,192,46179,1,0,0:0:0:0:
64,192,46269,1,0,0:0:0:0:
448,192,46269,1,0,0:0:0:0:
192,192,46359,1,0,0:0:0:0:
320,192,46449,1,0,0:0:0:0:
64,192,46539,1,0,0:0:0:0:
192,192,46629,1,0,0:0:0:0:
448,192,46629,1,0,0:0:0:0:
320,192,46719,1,0,0:0:0:0:
192,192,46809,1,0,0:0:0:0:
448,192,46899,1,0,0:0:0:0:
64,192,46989,1,0,0:0:0:0:
320,192,46989,1,0,0:0:0:0:
192,192,47079,1,0,0:0:0:0:
64,192,47169,1,0,0:0:0:0:
320,192,47259,1,0,0:0:0:0:
64,192,47349,1,0,0:0:0:0:
448,192,47349,1,0,0:0:0:0:
192,192,47439,1,0,0:0:0:0:
320,192,47529,1,0,0:0:0:0:
448,192,47619,1,0,0:0:0:0:
64,192,47709,1,0,0:0:0:0:
192,192,47709,1,0,0:0:0:0:
320,192,47799,1,0,0:0:0:0:
448,192,47889,1,0,0:0:0:0:
64,192,47979,1,0,0:0:0:0:
192,192,48070,1,0,0:0:0:0:
448,192,48070,1,0,0:0:0:0:
320,192,48160,1,0,0:0:0:0:
192,192,48250,1,0,0:0:0:0:
64,192,48340,1,0,0:0:0:0:
320,192,48430,1,0,0:0:0:0:
448,192,48430,1,0,0:0:0:0:
192,192,48520,1,0,0:0:0:0:
64,192,48610,1,0,0:0:0:0:
320,192,48700,1,0,0:0:0:0:
64,192,48790,1,0,0:0:0:0:
448,192,48790,1,0,0:0:0:0:
192,192,48880,1,0,0:0:0:0:
320,192,48970,1,0,0:0:0:0:
192,192,49060,1,0,0:0:0:0:
320,192,49150,1,0,0:0:0:0:
448,192,49150,1,0,0:0:0:0:
64,192,49240,1,0,0:0:0:0:
192,192,49330,1,0,0:0:0:0:
320,192,49420,1,0,0:0:0:0:
64,192,49510,1,0,0:0:0:0:
448,192,49510,1,0,0:0:0:0:
320,192,49600,1,0,0:0:0:0:
64,192,49690,1,0,0:0:0:0:
448,192,49780,1,0,0:0:0:0:
64,192,49870,1,0,0:0:0:0:
192,192,49870,1,0,0:0:0:0:
320,192,49960,1,0,0:0:0:0:
64,192,50050,1,0,0:0:0:0:
448,192,50050,1,0,0:0:0:0:
192,192,50140,1,0,0:0:0:0:
320,192,50230,1,0,0:0:0:0:
448,192,50230,1,0,0:0:0:0:
64,192,50320,1,0,0:0:0:0:
448,192,50410,1,0,0:0:0:0:
320,192,50500,1,0,0:0:0:0:
64,192,50591,1,0,0:0:0:0:
448,192,50591,1,0,0:0:0:0:
192,192,50681,1,0,0:0:0:0:
320,192,50771,1,0,0:0:0:0:
448,192,50861,1,0,0:0:0:0:
192,192,50951,1,0,0:0:0:0:
320,192,50951,1,0,0:0:0:0:
64,192,51041,1,0,0:0:0:0:
448,192,51041,1,0,0:0:0:0:
192,192,51131,1,0,0:0:0:0:
320,192,51221,1,0,0:0:0:0:
64,192,51311,1,0,0:0:0:0:
448,192,51311,1,0,0:0:0:0:
192,192,51401,1,0,0:0:0:0:
64,192,51491,1,0,0:0:0:0:
448,192,51581,1,0,0:0:0:0:
320,192,51671,1,0,0:0:0:0:
64,192,51671,1,0,0:0:0:0:
192,192,51671,1,0,0:0:0:0:
448,192,51761,1,0,0:0:0:0:
64,192,51851,1,0,0:0:0:0:
192,192,51941,1,0,0:0:0:0:
320,192,52031,1,0,0:0:0:0:
448,192,52121,1,0,0:0:0:0:
192,192,52211,1,0,0:0:0:0:
320,192,52301,1,0,0:0:0:0:
64,192,52391,1,0,0:0:0:0:
448,192,52391,1,0,0:0:0:0:
192,192,52481,1,0,0:0:0:0:
64,192,52571,1,0,0:0:0:0:
448,192,52661,1,0,0:0:0:0:
320,192,52751,1,0,0:0:0:0:
192,192,52841,1,0,0:0:0:0:
64,192,52931,1,0,0:0:0:0:
192,192,53021,1,0,0:0:0:0:
64,192,53112,1,0,0:0:0:0:
320,192,53112,1,0,0:0:0:0:
448,192,53202,1,0,0:0:0:0:
192,192,53292,1,0,0:0:0:0:
320,192,53382,1,0,0:0:0:0:
64,192,53472,1,0,0:0:0:0:
192,192,53562,1,0,0:0:0:0:
320,192,53652,1,0,0:0:0:0:
448,192,53742,1,0,0:0:0:0:
64,192,53832,1,0,0:0:0:0:
320,192,53832,1,0,0:0:0:0:
192,192,53922,1,0,0:0:0:0:
64,192,54012,1,0,0:0:0:0:
192,192,54102,1,0,0:0:0:0:
448,192,54102,1,0,0:0:0:0:
320,192,54192,1,0,0:0:0:0:
192,192,54282,1,0,0:0:0:0:
64,192,54372,1,0,0:0:0:0:
448,192,54372,1,0,0:0:0:0:
192,192,54462,1,0,0:0:0:0:
320,192,54462,1,0,0:0:0:0:
64,192,54552,1,0,0:0:0:0:
448,192,54552,1,0,0:0:0:0:
192,192,54642,1,0,0:0:0:0:
320,192,54732,1,0,0:0:0:0:
448,192,54822,1,0,0:0:0:0:
192,192,54912,1,0,0:0:0:0:
320,192,55002,1,0,0:0:0:0:
448,192,55092,1,0,0:0:0:0:
192,192,55182,1,0,0:0:0:0:
320,192,55272,1,0,0:0:0:0:
448,192,55272,1,0,0:0:0:0:
64,192,55362,1,0,0:0:0:0:
448,192,55452,1,0,0:0:0:0:
320,192,55543,1,0,0:0:0:0:
64,192,55633,1,0,0:0:0:0:
320,192,55723,1,0,0:0:0:0:
192,192,55813,1,0,0:0:0:0:
448,192,55903,1,0,0:0:0:0:
64,192,55993,1,0,0:0:0:0:
320,192,55993,1,0,0:0:0:0:
192,192,56113,1,0,0:0:0:0:
64,192,56233,1,0,0:0:0:0:
192,192,56353,1,0,0:0:0:0:
448,192,56353,1,0,0:0:0:0:
320,192,56473,1,0,0:0:0:0:
448,192,56593,1,0,0:0:0:0:
192,192,56713,1,0,0:0:0:0:
64,192,56713,1,0,0:0:0:0:
320,192,56833,1,0,0:0:0:0:
64,192,56953,1,0,0:0:0:0:
320,192,57073,1,0,0:0:0:0:
448,192,57073,1,0,0:0:0:0:
192,192,57193,1,0,0:0:0:0:
448,192,57313,1,0,0:0:0:0:
320,192,57433,1,0,0:0:0:0:
192,192,57433,1,0,0:0:0:0:
64,192,57523,1,0,0:0:0:0:
192,192,57613,1,0,0:0:0:0:
64,192,57703,1,0,0:0:0:0:
448,192,57793,1,0,0:0:0:0:
192,192,57883,1,0,0:0:0:0:
320,192,57973,1,0,0:0:0:0:
448,192,58064,1,0,0:0:0:0:
192,192,58154,1,0,0:0:0:0:
64,192,58154,1,0,0:0:0:0:
320,192,58244,1,0,0:0:0:0:
192,192,58334,1,0,0:0:0:0:
320,192,58424,1,0,0:0:0:0:
448,192,58514,1,0,0:0:0:0:
320,192,58604,1,0,0:0:0:0:
192,192,58694,1,0,0:0:0:0:
64,192,58784,1,0,0:0:0:0:
192,192,58874,1,0,0:0:0:0:
448,192,58874,1,0,0:0:0:0:
320,192,58964,1,0,0:0:0:0:
192,192,59054,1,0,0:0:0:0:
320,192,59144,1,0,0:0:0:0:
64,192,59234,1,0,0:0:0:0:
192,192,59324,1,0,0:0:0:0:
320,192,59414,1,0,0:0:0:0:
448,192,59504,1,0,0:0:0:0:
64,192,59594,1,0,0:0:0:0:
320,192,59594,1,0,0:0:0:0:
192,192,59684,1,0,0:0:0:0:
320,192,59774,1,0,0:0:0:0:
192,192,59864,1,0,0:0:0:0:
448,192,59864,1,0,0:0:0:0:
64,192,59954,1,0,0:0:0:0:
192,192,60044,1,0,0:0:0:0:
320,192,60134,1,0,0:0:0:0:
448,192,60134,1,0,0:0:0:0:
192,192,60224,1,0,0:0:0:0:
64,192,60224,1,0,0:0:0:0:
320,192,60314,1,0,0:0:0:0:
448,192,60314,1,0,0:0:0:0:
64,192,60404,1,0,0:0:0:0:
192,192,60494,1,0,0:0:0:0:
448,192,60585,1,0,0:0:0:0:
320,192,60675,1,0,0:0:0:0:
64,192,60765,1,0,0:0:0:0:
192,192,60855,1,0,0:0:0:0:
320,192,60945,1,0,0:0:0:0:
64,192,61035,1,0,0:0:0:0:
448,192,61035,1,0,0:0:0:0:
320,192,61125,1,0,0:0:0:0:
192,192,61215,1,0,0:0:0:0:
64,192,61305,1,0,0:0:0:0:
448,192,61395,1,0,0:0:0:0:
192,192,61485,1,0,0:0:0:0:
320,192,61575,1,0,0:0:0:0:
64,192,61665,1,0,0:0:0:0:
320,192,61755,1,0,0:0:0:0:
448,192,61755,1,0,0:0:0:0:
192,192,61845,1,0,0:0:0:0:
64,192,61935,1,0,0:0:0:0:
192,192,62025,1,0,0:0:0:0:
64,192,62115,1,0,0:0:0:0:
320,192,62115,1,0,0:0:0:0:
448,192,62205,1,0,0:0:0:0:
320,192,62295,1,0,0:0:0:0:
448,192,62385,1,0,0:0:0:0:
64,192,62475,1,0,0:0:0:0:
192,192,62475,1,0,0:0:0:0:
320,192,62565,1,0,0:0:0:0:
448,192,62565,1,0,0:0:0:0:
64,192,62745,1,0,0:0:0:0:
192,192,62745,1,0,0:0:0:0:
320,192,62835,1,0,0:0:0:0:
448,192,62835,1,0,0:0:0:0:
64,192,63015,1,0,0:0:0:0:
192,192,63015,1,0,0:0:0:0:
320,192,63106,1,0,0:0:0:0:
448,192,63106,1,0,0:0:0:0:
192,192,63196,1,0,0:0:0:0:
64,192,63196,1,0,0:0:0:0:
320,192,63286,1,0,0:0:0:0:
448,192,63376,1,0,0:0:0:0:
192,192,63466,1,0,0:0:0:0:
64,192,63556,1,0,0:0:0:0:
320,192,63556,1,0,0:0:0:0:
448,192,63646,1,0,0:0:0:0:
64,192,63736,1,0,0:0:0:0:
192,192,63826,1,0,0:0:0:0:
320,192,63916,1,0,0:0:0:0:
448,192,63916,1,0,0:0:0:0:
64,192,64006,1,0,0:0:0:0:
192,192,64096,1,0,0:0:0:0:
320,192,64186,1,0,0:0:0:0:
64,192,64276,1,0,0:0:0:0:
192,192,64276,1,0,0:0:0:0:
448,192,64366,1,0,0:0:0:0:
320,192,64456,1,0,0:0:0:0:
192,192,64546,1,0,0:0:0:0:
64,192,64636,1,0,0:0:0:0:
448,192,64636,1,0,0:0:0:0:
320,192,64726,1,0,0:0:0:0:
192,192,64816,1,0,0:0:0:0:
320,192,64906,1,0,0:0:0:0:
64,192,64996,1,0,0:0:0:0:
448,192,64996,1,0,0:0:0:0:
192,192,65086,1,0,0:0:0:0:
320,192,65176,1,0,0:0:0:0:
448,192,65266,1,0,0:0:0:0:
64,192,65356,1,0,0:0:0:0:
320,192,65356,1,0,0:0:0:0:
192,192,65446,1,0,0:0:0:0:
64,192,65537,1,0,0:0:0:0:
448,192,65627,1,0,0:0:0:0:
64,192,65717,1,0,0:0:0:0:
192,192,65717,1,0,0:0:0:0:
320,192,65807,1,0,0:0:0:0:
192,192,65897,1,0,0:0:0:0:
64,192,65897,1,0,0:0:0:0:
320,192,65987,1,0,0:0:0:0:
448,192,65987,1,0,0:0:0:0:
192,192,66077,1,0,0:0:0:0:
64,192,66077,1,0,0:0:0:0:
320,192,66167,1,0,0:0:0:0:
192,192,66257,1,0,0:0:0:0:
64,192,66347,1,0,0:0:0:0:
192,192,66437,1,0,0:0:0:0:
448,192,66437,1,0,0:0:0:0:
320,192,66527,1,0,0:0:0:0:
192,192,66617,1,0,0:0:0:0:
448,192,66707,1,0,0:0:0:0:
64,192,66797,1,0,0:0:0:0:
320,192,66797,1,0,0:0:0:0:
192,192,66887,1,0,0:0:0:0:
320,192,66977,1,0,0:0:0:0:
448,192,67067,1,0,0:0:0:0:
64,192,67157,1,0,0:0:0:0:
192,192,67157,1,0,0:0:0:0:
320,192,67247,1,0,0:0:0:0:
448,192,67337,1,0,0:0:0:0:
64,192,67427,1,0,0:0:0:0:
192,192,67517,1,0,0:0:0:0:
448,192,67517,1,0,0:0:0:0:
320,192,67607,1,0,0:0:0:0:
192,192,67697,1,0,0:0:0:0:
64,192,67787,1,0,0:0:0:0:
192,192,67877,1,0,0:0:0:0:
448,192,67877,1,0,0:0:0:0:
320,192,67967,1,0,0:0:0:0:
192,192,68058,1,0,0:0:0:0:
64,192,68148,1,0,0:0:0:0:
320,192,68238,1,0,0:0:0:0:
448,192,68238,1,0,0:0:0:0:
64,192,68328,1,0,0:0:0:0:
320,192,68418,1,0,0:0:0:0:
192,192,68508,1,0,0:0:0:0:
64,192,68598,1,0,0:0:0:0:
448,192,68598,1,0,0:0:0:0:
320,192,68688,1,0,0:0:0:0:
64,192,68778,1,0,0:0:0:0:
448,192,68778,1,0,0:0:0:0:
192,192,68868,1,0,0:0:0:0:
320,192,68958,1,0,0:0:0:0:
448,192,68958,1,0,0:0:0:0:
64,192,69048,1,0,0:0:0:0:
192,192,69138,1,0,0:0:0:0:
320,192,69228,1,0,0:0:0:0:
64,192,69318,1,0,0:0:0:0:
448,192,69318,1,0,0:0:0:0:
192,192,69408,1,0,0:0:0:0:
64,192,69498,1,0,0:0:0:0:
448,192,69588,1,0,0:0:0:0:
320,192,69678,1,0,0:0:0:0:
64,192,69678,1,0,0:0:0:0:
192,192,69768,1,0,0:0:0:0:
320,192,69858,1,0,0:0:0:0:
448,192,69948,1,0,0:0:0:0:
64,192,70038,1,0,0:0:0:0:
320,192,70038,1,0,0:0:0:0:
192,192,70128,1,0,0:0:0:0:
320,192,70218,1,0,0:0:0:0:
448,192,70308,1,0,0:0:0:0:
64,192,70398,1,0,0:0:0:0:
192,192,70398,1,0,0:0:0:0:
320,192,70488,1,0,0:0:0:0:
448,192,70579,1,0,0:0:0:0:
64,192,70669,1,0,0:0:0:0:
192,192,70759,1,0,0:0:0:0:
320,192,70759,1,0,0:0:0:0:
448,192,70849,1,0,0:0:0:0:
64,192,70939,1,0,0:0:0:0:
192,192,71029,1,0,0:0:0:0:
320,192,71119,1,0,0:0:0:0:
448,192,71119,1,0,0:0:0:0:
320,192,71479,1,0,0:0:0:0:
448,192,71479,1,0,0:0:0:0:
64,192,71659,1,0,0:0:0:0:
192,192,71659,1,0,0:0:0:0:
320,192,71749,1,0,0:0:0:0:
448,192,71749,1,0,0:0:0:0:
192,192,71839,1,0,0:0:0:0:
64,192,71839,1,0,0:0:0:0:
448,192,71929,1,0,0:0:0:0:
320,192,72019,1,0,0:0:0:0:
192,192,72109,1,0,0:0:0:0:
64,192,72199,1,0,0:0:0:0:
448,192,72199,1,0,0:0:0:0:
192,192,72289,1,0,0:0:0:0:
320,192,72379,1,0,0:0:0:0:
448,192,72469,1,0,0:0:0:0:
64,192,72559,1,0,0:0:0:0:
320,192,72559,1,0,0:0:0:0:
192,192,72649,1,0,0:0:0:0:
320,192,72739,1,0,0:0:0:0:
448,192,72829,1,0,0:0:0:0:
64,192,72919,1,0,0:0:0:0:
192,192,72919,1,0,0:0:0:0:
448,192,73009,1,0,0:0:0:0:
320,192,73100,1,0,0:0:0:0:
192,192,73190,1,0,0:0:0:0:
320,192,73280,1,0,0:0:0:0:
64,192,73280,1,0,0:0:0:0:
448,192,73370,1,0,0:0:0:0:
320,192,73460,1,0,0:0:0:0:
192,192,73550,1,0,0:0:0:0:
64,192,73640,1,0,0:0:0:0:
448,192,73640,1,0,0:0:0:0:
192,192,73730,1,0,0:0:0:0:
320,192,73820,1,0,0:0:0:0:
448,192,73910,1,0,0:0:0:0:
64,192,74000,1,0,0:0:0:0:
192,192,74000,1,0,0:0:0:0:
448,192,74090,1,0,0:0:0:0:
192,192,74180,1,0,0:0:0:0:
64,192,74180,1,0,0:0:0:0:
320,192,74270,1,0,0:0:0:0:
192,192,74360,1,0,0:0:0:0:
448,192,74360,1,0,0:0:0:0:
320,192,74450,1,0,0:0:0:0:
192,192,74540,1,0,0:0:0:0:
448,192,74540,1,0,0:0:0:0:
64,192,74630,1,0,0:0:0:0:
192,192,74720,1,0,0:0:0:0:
320,192,74720,1,0,0:0:0:0:
448,192,74720,1,0,0:0:0:0:
64,192,74810,1,0,0:0:0:0:
448,192,74900,1,0,0:0:0:0:
320,192,74990,1,0,0:0:0:0:
192,192,75080,1,0,0:0:0:0:
64,192,75080,1,0,0:0:0:0:
448,192,75170,1,0,0:0:0:0:
320,192,75260,1,0,0:0:0:0:
64,192,75350,1,0,0:0:0:0:
192,192,75440,1,0,0:0:0:0:
448,192,75440,1,0,0:0:0:0:
320,192,75530,1,0,0:0:0:0:
448,192,75621,1,0,0:0:0:0:
64,192,75711,1,0,0:0:0:0:
320,192,75801,1,0,0:0:0:0:
448,192,75801,1,0,0:0:0:0:
192,192,75891,1,0,0:0:0:0:
64,192,75981,1,0,0:0:0:0:
448,192,76071,1,0,0:0:0:0:
320,192,76161,1,0,0:0:0:0:
192,192,76161,1,0,0:0:0:0:
64,192,76251,1,0,0:0:0:0:
192,192,76341,1,0,0:0:0:0:
64,192,76431,1,0,0:0:0:0:
192,192,76521,1,0,0:0:0:0:
320,192,76521,1,0,0:0:0:0:
448,192,76611,1,0,0:0:0:0:
320,192,76701,1,0,0:0:0:0:
448,192,76791,1,0,0:0:0:0:
64,192,76881,1,0,0:0:0:0:
320,192,76881,1,0,0:0:0:0:
192,192,76971,1,0,0:0:0:0:
64,192,77061,1,0,0:0:0:0:
320,192,77151,1,0,0:0:0:0:
192,192,77241,1,0,0:0:0:0:
448,192,77241,1,0,0:0:0:0:
320,192,77331,1,0,0:0:0:0:
448,192,77421,1,0,0:0:0:0:
192,192,77511,1,0,0:0:0:0:
64,192,77601,1,0,0:0:0:0:
448,192,77601,1,0,0:0:0:0:
320,192,77691,1,0,0:0:0:0:
192,192,77781,1,0,0:0:0:0:
64,192,77871,1,0,0:0:0:0:
320,192,77961,1,0,0:0:0:0:
448,192,77961,1,0,0:0:0:0:
64,192,78052,1,0,0:0:0:0:
192,192,78142,1,0,0:0:0:0:
320,192,78232,1,0,0:0:0:0:
64,192,78322,1,0,0:0:0:0:
448,192,78322,1,0,0:0:0:0:
192,192,78412,1,0,0:0:0:0:
320,192,78502,1,0,0:0:0:0:
448,192,78592,1,0,0:0:0:0:
320,192,78682,1,0,0:0:0:0:
192,192,78682,1,0,0:0:0:0:
64,192,78772,1,0,0:0:0:0:
320,192,78862,1,0,0:0:0:0:
192,192,78862,1,0,0:0:0:0:
448,192,78952,1,0,0:0:0:0:
320,192,79042,1,0,0:0:0:0:
64,192,79042,1,0,0:0:0:0:
192,192,79132,1,0,0:0:0:0:
448,192,79222,1,0,0:0:0:0:
320,192,79312,1,0,0:0:0:0:
64,192,79402,1,0,0:0:0:0:
448,192,79402,1,0,0:0:0:0:
192,192,79492,1,0,0:0:0:0:
64,192,79582,1,0,0:0:0:0:
320,192,79672,1,0,0:0:0:0:
192,192,79762,1,0,0:0:0:0:
64,192,79762,1,0,0:0:0:0:
320,192,79852,1,0,0:0:0:0:
448,192,79942,1,0,0:0:0:0:
192,192,80032,1,0,0:0:0:0:
320,192,80122,1,0,0:0:0:0:
448,192,80122,1,0,0:0:0:0:
64,192,80212,1,0,0:0:0:0:
192,192,80302,1,0,0:0:0:0:
320,192,80392,1,0,0:0:0:0:
64,192,80482,1,0,0:0:0:0:
448,192,80482,1,0,0:0:0:0:
192,192,80573,1,0,0:0:0:0:
320,192,80663,1,0,0:0:0:0:
64,192,80753,1,0,0:0:0:0:
192,192,80843,1,0,0:0:0:0:
448,192,80843,1,0,0:0:0:0:
320,192,80933,1,0,0:0:0:0:
448,192,81023,1,0,0:0:0:0:
192,192,81113,1,0,0:0:0:0:
320,192,81203,1,0,0:0:0:0:
448,192,81203,1,0,0:0:0:0:
64,192,81293,1,0,0:0:0:0:
192,192,81383,1,0,0:0:0:0:
320,192,81473,1,0,0:0:0:0:
192,192,81563,1,0,0:0:0:0:
448,192,81563,1,0,0:0:0:0:
320,192,81653,1,0,0:0:0:0:
192,192,81743,1,0,0:0:0:0:
64,192,81833,1,0,0:0:0:0:
320,192,81923,1,0,0:0:0:0:
448,192,81923,1,0,0:0:0:0:
192,192,82013,1,0,0:0:0:0:
320,192,82103,1,0,0:0:0:0:
448,192,82193,1,0,0:0:0:0:
64,192,82283,1,0,0:0:0:0:
320,192,82283,1,0,0:0:0:0:
192,192,82373,1,0,0:0:0:0:
320,192,82463,1,0,0:0:0:0:
448,192,82553,1,0,0:0:0:0:
64,192,82643,1,0,0:0:0:0:
320,192,82643,1,0,0:0:0:0:
192,192,82733,1,0,0:0:0:0:
64,192,82823,1,0,0:0:0:0:
448,192,82913,1,0,0:0:0:0:
320,192,83003,1,0,0:0:0:0:
192,192,83003,1,0,0:0:0:0:
64,192,83094,1,0,0:0:0:0:
448,192,83184,1,0,0:0:0:0:
320,192,83274,1,0,0:0:0:0:
64,192,83364,1,0,0:0:0:0:
448,192,83364,1,0,0:0:0:0:
192,192,83454,1,0,0:0:0:0:
448,192,83544,1,0,0:0:0:0:
320,192,83634,1,0,0:0:0:0:
192,192,83724,1,0,0:0:0:0:
448,192,83724,1,0,0:0:0:0:
64,192,83814,1,0,0:0:0:0:
448,192,83904,1,0,0:0:0:0:
320,192,83994,1,0,0:0:0:0:
192,192,84084,1,0,0:0:0:0:
64,192,84084,1,0,0:0:0:0:
320,192,84174,1,0,0:0:0:0:
64,192,84264,1,0,0:0:0:0:
192,192,84354,1,0,0:0:0:0:
320,192,84444,1,0,0:0:0:0:
448,192,84444,1,0,0:0:0:0:
192,192,84534,1,0,0:0:0:0:
448,192,84624,1,0,0:0:0:0:
64,192,84624,1,0,0:0:0:0:
320,192,84714,1,0,0:0:0:0:
448,192,84804,1,0,0:0:0:0:
192,192,84804,1,0,0:0:0:0:
64,192,84894,1,0,0:0:0:0:
320,192,84984,1,0,0:0:0:0:
448,192,85074,1,0,0:0:0:0:
64,192,85164,1,0,0:0:0:0:
320,192,85164,1,0,0:0:0:0:
192,192,85254,1,0,0:0:0:0:
320,192,85344,1,0,0:0:0:0:
448,192,85434,1,0,0:0:0:0:
320,192,85524,1,0,0:0:0:0:
192,192,85524,1,0,0:0:0:0:
64,192,85615,1,0,0:0:0:0:
320,192,85705,1,0,0:0:0:0:
448,192,85795,1,0,0:0:0:0:
192,192,85885,1,0,0:0:0:0:
320,192,85885,1,0,0:0:0:0:
64,192,85975,1,0,0:0:0:0:
448,192,86065,1,0,0:0:0:0:
320,192,86155,1,0,0:0:0:0:
192,192,86245,1,0,0:0:0:0:
64,192,86245,1,0,0:0:0:0:
320,192,86335,1,0,0:0:0:0:
448,192,86335,1,0,0:0:0:0:
192,192,86425,1,0,0:0:0:0:
64,192,86515,1,0,0:0:0:0:
320,192,86605,1,0,0:0:0:0:
448,192,86605,1,0,0:0:0:0:
192,192,86695,1,0,0:0:0:0:
64,192,86695,1,0,0:0:0:0:
320,192,86785,1,0,0:0:0:0:
448,192,86875,1,0,0:0:0:0:
192,192,86965,1,0,0:0:0:0:
64,192,86965,1,0,0:0:0:0:
320,192,87055,1,0,0:0:0:0:
448,192,87055,1,0,0:0:0:0:
64,192,87145,1,0,0:0:0:0:
192,192,87235,1,0,0:0:0:0:
448,192,87325,1,0,0:0:0:0:
320,192,87325,1,0,0:0:0:0:
192,192,87415,1,0,0:0:0:0:
64,192,87415,1,0,0:0:0:0:
448,192,87505,1,0,0:0:0:0:
320,192,87595,1,0,0:0:0:0:
192,192,87685,1,0,0:0:0:0:
64,192,87685,1,0,0:0:0:0:
320,192,87775,1,0,0:0:0:0:
448,192,87775,1,0,0:0:0:0:
192,192,87865,1,0,0:0:0:0:
64,192,87955,1,0,0:0:0:0:
320,192,88046,1,0,0:0:0:0:
448,192,88046,1,0,0:0:0:0:
192,192,88136,1,0,0:0:0:0:
64,192,88136,1,0,0:0:0:0:
320,192,88226,1,0,0:0:0:0:
448,192,88316,1,0,0:0:0:0:
64,192,88406,1,0,0:0:0:0:
192,192,88496,1,0,0:0:0:0:
64,192,88586,1,0,0:0:0:0:
192,192,88676,1,0,0:0:0:0:
448,192,88766,1,0,0:0:0:0:
320,192,88856,1,0,0:0:0:0:
448,192,88946,1,0,0:0:0:0:
320,192,89036,1,0,0:0:0:0:
64,192,89126,1,0,0:0:0:0:
192,192,89126,1,0,0:0:0:0:
320,192,89216,1,0,0:0:0:0:
448,192,89216,1,0,0:0:0:0:
192,192,89306,1,0,0:0:0:0:
64,192,89396,1,0,0:0:0:0:
320,192,89486,1,0,0:0:0:0:
448,192,89486,1,0,0:0:0:0:
192,192,89576,1,0,0:0:0:0:
64,192,89576,1,0,0:0:0:0:
320,192,89666,1,0,0:0:0:0:
448,192,89756,1,0,0:0:0:0:
192,192,89846,1,0,0:0:0:0:
64,192,89846,1,0,0:0:0:0:
320,192,89936,1,0,0:0:0:0:
448,192,89936,1,0,0:0:0:0:
64,192,90026,1,0,0:0:0:0:
192,192,90116,1,0,0:0:0:0:
320,192,90206,1,0,0:0:0:0:
448,192,90206,1,0,0:0:0:0:
192,192,90296,1,0,0:0:0:0:
64,192,90296,1,0,0:0:0:0:
448,192,90386,1,0,0:0:0:0:
320,192,90476,1,0,0:0:0:0:
64,192,90567,1,0,0:0:0:0:
192,192,90567,1,0,0:0:0:0:
320,192,90657,1,0,0:0:0:0:
448,192,90657,1,0,0:0:0:0:
192,192,90747,1,0,0:0:0:0:
64,192,90837,1,0,0:0:0:0:
320,192,90927,1,0,0:0:0:0:
448,192,90927,1,0,0:0:0:0:
192,192,91017,1,0,0:0:0:0:
64,192,91017,1,0,0:0:0:0:
320,192,91107,1,0,0:0:0:0:
448,192,91197,1,0,0:0:0:0:
64,192,91287,1,0,0:0:0:0:
320,192,91377,1,0,0:0:0:0:
192,192,91467,1,0,0:0:0:0:
448,192,91557,1,0,0:0:0:0:
64,192,91647,1,0,0:0:0:0:
448,192,91737,1,0,0:0:0:0:
192,192,91827,1,0,0:0:0:0:
320,192,91917,1,0,0:0:0:0:
64,192,92007,1,0,0:0:0:0:
448,192,92007,1,0,0:0:0:0:
192,192,92097,1,0,0:0:0:0:
64,192,92187,1,0,0:0:0:0:
320,192,92277,1,0,0:0:0:0:
192,192,92367,1,0,0:0:0:0:
448,192,92367,1,0,0:0:0:0:
320,192,92457,1,0,0:0:0:0:
448,192,92547,1,0,0:0:0:0:
64,192,92637,1,0,0:0:0:0:
320,192,92727,1,0,0:0:0:0:
448,192,92727,1,0,0:0:0:0:
192,192,92817,1,0,0:0:0:0:
64,192,92907,1,0,0:0:0:0:
448,192,92997,1,0,0:0:0:0:
192,192,93088,1,0,0:0:0:0:
64,192,93088,1,0,0:0:0:0:
320,192,93178,1,0,0:0:0:0:
448,192,93268,1,0,0:0:0:0:
64,192,93358,1,0,0:0:0:0:
320,192,93448,1,0,0:0:0:0:
448,192,93448,1,0,0:0:0:0:
192,192,93538,1,0,0:0:0:0:
64,192,93628,1,0,0:0:0:0:
448,192,93718,1,0,0:0:0:0:
320,192,93808,1,0,0:0:0:0:
192,192,93808,1,0,0:0:0:0:
64,192,93898,1,0,0:0:0:0:
448,192,93988,1,0,0:0:0:0:
320,192,94078,1,0,0:0:0:0:
192,192,94168,1,0,0:0:0:0:
64,192,94168,1,0,0:0:0:0:
448,192,94258,1,0,0:0:0:0:
320,192,94348,1,0,0:0:0:0:
192,192,94438,1,0,0:0:0:0:
64,192,94528,1,0,0:0:0:0:
448,192,94528,1,0,0:0:0:0:
320,192,94618,1,0,0:0:0:0:
192,192,94708,1,0,0:0:0:0:
64,192,94798,1,0,0:0:0:0:
192,192,94888,1,0,0:0:0:0:
448,192,94888,1,0,0:0:0:0:
320,192,94978,1,0,0:0:0:0:
448,192,95068,1,0,0:0:0:0:
64,192,95158,1,0,0:0:0:0:
192,192,95248,1,0,0:0:0:0:
320,192,95248,1,0,0:0:0:0:
448,192,95338,1,0,0:0:0:0:
64,192,95428,1,0,0:0:0:0:
192,192,95518,1,0,0:0:0:0:
320,192,95609,1,0,0:0:0:0:
448,192,95609,1,0,0:0:0:0:
64,192,95699,1,0,0:0:0:0:
320,192,95789,1,0,0:0:0:0:
192,192,95879,1,0,0:0:0:0:
64,192,95969,1,0,0:0:0:0:
448,192,95969,1,0,0:0:0:0:
192,192,96059,1,0,0:0:0:0:
320,192,96149,1,0,0:0:0:0:
64,192,96239,1,0,0:0:0:0:
448,192,96329,1,0,0:0:0:0:
192,192,96329,1,0,0:0:0:0:
320,192,96419,1,0,0:0:0:0:
192,192,96509,1,0,0:0:0:0:
64,192,96599,1,0,0:0:0:0:
320,192,96689,1,0,0:0:0:0:
448,192,96689,1,0,0:0:0:0:
192,192,96779,1,0,0:0:0:0:
64,192,96869,1,0,0:0:0:0:
448,192,96959,1,0,0:0:0:0:
320,192,97049,1,0,0:0:0:0:
192,192,97049,1,0,0:0:0:0:
64,192,97139,1,0,0:0:0:0:
448,192,97229,1,0,0:0:0:0:
320,192,97319,1,0,0:0:0:0:
192,192,97409,1,0,0:0:0:0:
64,192,97409,1,0,0:0:0:0:
448,192,97499,1,0,0:0:0:0:
192,192,97589,1,0,0:0:0:0:
320,192,97679,1,0,0:0:0:0:
192,192,97769,128,0,98130:0:0:0:0:
64,192,97769,128,0,98490:0:0:0:0:
448,192,98490,1,0,0:0:0:0:
320,192,98580,1,0,0:0:0:0:
192,192,98670,1,0,0:0:0:0:
64,192,98760,1,0,0:0:0:0:
448,192,98850,1,0,0:0:0:0:
320,192,98940,1,0,0:0:0:0:
192,192,99030,1,0,0:0:0:0:
64,192,99120,1,0,0:0:0:0:
448,192,99210,1,0,0:0:0:0:
320,192,99300,1,0,0:0:0:0:
192,192,99390,1,0,0:0:0:0:
64,192,99480,1,0,0:0:0:0:
320,192,99750,1,0,0:0:0:0:
448,192,99840,1,0,0:0:0:0:
320,192,99930,1,0,0:0:0:0:
448,192,100020,1,0,0:0:0:0:
320,192,100110,1,0,0:0:0:0:
448,192,100200,1,0,0:0:0:0:
320,192,100290,1,0,0:0:0:0:
448,192,100380,1,0,0:0:0:0:
64,192,100470,1,0,0:0:0:0:
448,192,100561,1,0,0:0:0:0:
