osu file format v14

[General]
AudioFilename: audio.mp3
AudioLeadIn: 0
PreviewTime: -1
Countdown: 1
SampleSet: Normal
StackLeniency: 0.7
Mode: 0
LetterboxInBreaks: 0
WidescreenStoryboard: 0

[Editor]
DistanceSpacing: 0.8
BeatDivisor: 16
GridSize: 8
TimelineZoom: 1.4

[Metadata]
Title:Cerberus
TitleUnicode:Cerberus
Artist:Kai Wachi
ArtistUnicode:Kai Wachi
Creator:Monor
Version:Blossoms Cerberus
Source:
Tags:
BeatmapID:1652019
BeatmapSetID:787063

[Difficulty]
HPDrainRate:5
CircleSize:5
OverallDifficulty:5
ApproachRate:9
SliderMultiplier:2.19999990463257
SliderTickRate:3

[Events]
//Background and Video events
//Break Periods
2,8725,12275
2,15074,18825
2,26475,63450
2,91050,105075
//Storyboard Layer 0 (Background)
//Storyboard Layer 1 (Fail)
//Storyboard Layer 2 (Pass)
//Storyboard Layer 3 (Foreground)
//Storyboard Sound Samples

[TimingPoints]
0,400,4,1,0,100,1,0

[HitObjects]
168,56,1225,6,0,B|232:88|360:168|368:200|344:240|344:320|528:320|288:152|600:72|408:48|368:40|312:32|216:112|-48:224|216:176|304:112,1,838.749963641166
160,120,6575,2,0,B|200:136|264:176|264:232|224:280|336:312|464:312|504:200|456:128|384:80|256:32|144:0|48:32|0:120|56:224|136:280|264:336|320:344|360:344|448:312|456:264,1,1072.49995350838
168,264,12875,6,0,B|304:256|400:184|408:120|352:64|256:48|160:48|96:72|40:104|112:192|112:192|368:248|328:256|424:200|472:160|416:32|400:40,1,1099.99995231628
256,192,19425,12,0,25025,0:0:0:0:
216,120,25650,5,0,0:0:0:0:
200,80,25750,5,0,0:0:0:0:
200,80,25850,1,0,0:0:0:0:
200,80,26275,1,0,0:0:0:0:
144,152,64050,6,0,L|328:216,1,192.49999165535
320,200,64450,2,0,L|168:48,1,206.249991059303
184,64,64875,2,0,L|368:80,1,178.749992251396
368,88,65250,6,0,L|216:208,1,192.49999165535
224,216,65650,2,0,L|392:320,1,192.49999165535
392,312,66050,2,0,L|296:160,1,178.749992251396
288,176,66425,2,0,B|272:80|400:40|440:160|144:40,1,343.749985098839
83,79,67300,6,0,L|68:90,27,13.7499994039535
351,98,68050,2,0,L|365:117,30,13.7499994039535
84,258,68875,2,0,L|71:274,28,13.7499994039535
449,306,69650,2,0,L|455:327,21,13.7499994039535
340,75,70450,1,0,0:0:0:0:
177,350,70675,1,0,0:0:0:0:
104,200,70875,1,0,0:0:0:0:
97,30,71075,1,0,0:0:0:0:
391,275,71275,1,0,0:0:0:0:
176,104,71450,1,0,0:0:0:0:
472,136,71650,1,0,0:0:0:0:
168,48,72050,1,0,0:0:0:0:
453,138,72275,1,0,0:0:0:0:
100,226,72450,1,0,0:0:0:0:
389,328,72625,1,0,0:0:0:0:
272,48,72825,1,0,0:0:0:0:
117,278,73050,1,0,0:0:0:0:
406,98,73225,1,0,0:0:0:0:
84,101,73650,2,0,L|84:125,29,13.7499994039535
364,162,74450,2,0,L|364:186,29,13.7499994039535
112,283,75250,2,0,L|112:307,28,13.7499994039535
483,284,76875,1,0,0:0:0:0:
267,56,77250,1,0,0:0:0:0:
64,176,77650,1,0,0:0:0:0:
160,360,78100,1,0,0:0:0:0:
312,224,78275,2,0,L|328:216,1,13.7499994039536
144,128,78400,2,0,L|168:120,1,13.7499994039536
403,65,78875,1,0,0:0:0:0:
56,252,79325,1,0,0:0:0:0:
185,56,79675,1,0,0:0:0:0:
99,50,79875,1,0,0:0:0:0:
388,83,80050,2,0,L|388:103,29,13.7499994039535
68,141,80850,2,0,L|68:161,29,13.7499994039535
422,231,81650,2,0,L|422:251,29,13.7499994039535
139,291,82450,2,0,L|139:311,27,13.7499994039535
249,85,83250,1,0,0:0:0:0:
248,329,83650,1,0,0:0:0:0:
96,320,84050,1,0,0:0:0:0:
437,122,84475,1,0,0:0:0:0:
192,176,84675,2,0,L|200:200,1,13.7499994039536
352,184,84775,2,0,L|336:208,1,27.4999988079071
281,155,85250,1,0,0:0:0:0:
187,100,85625,1,0,0:0:0:0:
108,285,86075,1,0,0:0:0:0:
418,187,86250,1,0,0:0:0:0:
164,58,86450,2,0,L|164:80,29,13.7499994039535
368,212,87250,2,0,L|368:231,30,13.7499994039535
432,55,88100,2,0,L|432:74,24,13.7499994039535
360,192,88850,1,0,0:0:0:0:
256,160,89250,1,0,0:0:0:0:
256,160,89650,1,0,0:0:0:0:
256,160,90075,1,0,0:0:0:0:
256,160,90450,1,0,0:0:0:0:
256,168,90850,1,0,0:0:0:0:
224,96,105675,6,0,L|224:120,29,13.7499994039535
480,80,106475,6,0,L|480:104,29,13.7499994039535
136,96,107275,6,0,L|136:120,28,13.7499994039535
352,296,108050,6,0,L|352:320,29,13.7499994039535
