osu file format v14

[General]
AudioFilename: audio.mp3
AudioLeadIn: 0
PreviewTime: 49311
Countdown: 0
SampleSet: Soft
StackLeniency: 0.6
Mode: 0
LetterboxInBreaks: 0
WidescreenStoryboard: 1

[Editor]
DistanceSpacing: 1.2
BeatDivisor: 4
GridSize: 4
TimelineZoom: 2.499999

[Metadata]
Title:Lose The Princess
TitleUnicode:さよならプリンセス
Artist:Kai
ArtistUnicode:Kai
Creator:Ryuusei Aika
Version:pnky's Hard
Source:
Tags:meiqth pnky Ralkinson Astrolis LimeTwist Sayonara Goodbye Japanese Electronic Pop J-Pop JPop 初音ミク Hatsune Miku Vocaloid ボーカロイド akuya
BeatmapID:3750868
BeatmapSetID:1802635

[Difficulty]
HPDrainRate:4.5
CircleSize:3.6
OverallDifficulty:6.5
ApproachRate:7.5
SliderMultiplier:1.4
SliderTickRate:1

[Events]
//Background and Video events
0,0,"bg.jpg",0,0
//Break Periods
2,72272,79601
//Storyboard Layer 0 (Background)
//Storyboard Layer 1 (Fail)
//Storyboard Layer 2 (Pass)
//Storyboard Layer 3 (Foreground)
//Storyboard Layer 4 (Overlay)
//Storyboard Sound Samples

[TimingPoints]
-4035,307.692307692308,4,2,1,40,1,0
888,-125,4,2,1,50,0,0
5811,-125,4,2,1,60,0,0
10734,-111.111111111111,4,2,1,70,0,0
11041,-111.111111111111,4,2,2,70,0,0
11657,-111.111111111111,4,2,1,70,0,0
13503,-111.111111111111,4,2,2,70,0,0
14118,-111.111111111111,4,2,1,70,0,0
15965,-111.111111111111,4,2,2,70,0,0
16580,-111.111111111111,4,2,1,70,0,0
18426,-111.111111111111,4,2,2,70,0,0
19041,-111.111111111111,4,2,1,70,0,0
20580,-125,4,2,1,70,0,0
20888,-125,4,2,2,50,0,0
21503,-125,4,2,1,50,0,0
23349,-125,4,2,2,50,0,0
23965,-125,4,2,1,50,0,0
25811,-125,4,2,2,50,0,0
26426,-125,4,2,1,50,0,0
29041,-125,4,2,1,55,0,0
29195,-111.111111111111,4,2,1,55,0,0
30426,-117.647058823529,4,2,1,60,0,0
30734,-117.647058823529,4,2,2,50,0,0
31349,-117.647058823529,4,2,1,50,0,0
33195,-117.647058823529,4,2,2,50,0,0
33811,-117.647058823529,4,2,1,50,0,0
35657,-117.647058823529,4,2,2,50,0,0
36272,-117.647058823529,4,2,1,50,0,0
38888,-111.111111111111,4,2,1,60,0,0
40272,-125,4,2,1,60,0,0
40580,-125,4,2,1,50,0,0
45195,-111.111111111111,4,2,1,60,0,0
50118,-99.9999999999999,4,2,1,80,0,0
50426,-99.9999999999999,4,2,2,80,0,0
51041,-99.9999999999999,4,2,1,80,0,0
52888,-99.9999999999999,4,2,2,80,0,0
53503,-99.9999999999999,4,2,1,80,0,0
55349,-99.9999999999999,4,2,2,80,0,0
55965,-99.9999999999999,4,2,1,80,0,0
57811,-99.9999999999999,4,2,2,80,0,0
58426,-99.9999999999999,4,2,1,80,0,0
60272,-99.9999999999999,4,2,2,80,0,0
60888,-99.9999999999999,4,2,1,80,0,0
62734,-99.9999999999999,4,2,2,80,0,0
63349,-99.9999999999999,4,2,1,80,0,0
65195,-99.9999999999999,4,2,2,80,0,0
65811,-99.9999999999999,4,2,1,80,0,0
67657,-99.9999999999999,4,2,2,80,0,0
68272,-99.9999999999999,4,2,1,80,0,0
69811,-111.111111111111,4,2,1,80,0,0
72272,-142.857142857143,4,2,1,45,0,0
75041,-142.857142857143,4,2,2,45,0,0
75657,-142.857142857143,4,2,1,45,0,0
77503,-142.857142857143,4,2,2,45,0,0
78118,-142.857142857143,4,2,1,45,0,0
80734,-111.111111111111,4,2,1,55,0,0
81195,-111.111111111111,4,2,1,60,0,0
82118,-117.647058823529,4,2,1,60,0,0
82426,-117.647058823529,4,2,2,55,0,0
83041,-117.647058823529,4,2,1,55,0,0
84888,-117.647058823529,4,2,2,55,0,0
85503,-117.647058823529,4,2,1,55,0,0
87349,-117.647058823529,4,2,2,55,0,0
87965,-117.647058823529,4,2,1,55,0,0
90580,-111.111111111111,4,2,1,55,0,0
91965,-125,4,2,1,50,0,0
96888,-111.111111111111,4,2,1,60,0,0
101811,-99.9999999999999,4,2,1,80,0,0
102118,-99.9999999999999,4,2,2,80,0,0
102734,-99.9999999999999,4,2,1,80,0,0
104580,-99.9999999999999,4,2,2,80,0,0
105195,-99.9999999999999,4,2,1,80,0,0
107041,-99.9999999999999,4,2,2,80,0,0
107657,-99.9999999999999,4,2,1,80,0,0
109503,-99.9999999999999,4,2,2,80,0,0
110118,-99.9999999999999,4,2,1,80,0,0
110734,-99.9999999999999,4,2,1,85,0,0
111657,-99.9999999999999,4,2,1,90,0,0
111965,-99.9999999999999,4,2,2,90,0,0
112580,-99.9999999999999,4,2,1,90,0,0
114118,-99.9999999999999,4,2,2,90,0,0
114734,-99.9999999999999,4,2,1,90,0,0
116888,-99.9999999999999,4,2,2,90,0,0
117503,-99.9999999999999,4,2,1,90,0,0
119041,-99.9999999999999,4,2,2,90,0,0
119657,-99.9999999999999,4,2,1,90,0,0
121503,-111.111111111111,4,2,1,50,0,0

[Colours]
Combo1 : 223,0,112
Combo2 : 223,0,223

[HitObjects]
171,222,888,6,0,L|149:108,1,112,2|10,3:0|0:0,0:0:0:0:
74,133,1349,2,0,L|95:242,1,112,8|2,3:2|3:0,0:0:0:0:
149,299,1811,2,0,L|141:357,1,56,10|2,0:0|3:0,0:0:0:0:
223,373,2118,2,0,P|285:368|321:329,1,112,0|8,3:0|0:0,0:0:0:0:
396,323,2580,2,0,B|392:267|354:281|349:206,1,112,10|2,0:0|3:0,0:0:0:0:
428,212,3041,2,0,P|453:195|468:164,1,56,10|2,0:0|0:0,0:0:0:0:
447,90,3349,6,0,P|386:106|327:119,1,112,0|10,3:0|0:0,0:0:0:0:
264,89,3811,1,10,3:2:0:0:
124,18,4118,2,0,P|98:26|69:33,2,56,2|10|2,3:0|0:0|3:0,0:0:0:0:
148,98,4580,6,0,P|122:106|93:113,1,56,2|2,3:0|0:0,0:0:0:0:
115,188,4888,2,0,P|142:181|168:173,1,56,10|10,0:0|0:0,0:0:0:0:
188,248,5195,2,0,P|162:256|135:263,1,56,2|2,0:0|3:0,0:0:0:0:
155,338,5503,2,0,P|182:331|208:323,1,56,10|2,0:0|0:0,0:0:0:0:
282,270,5811,6,0,L|405:298,1,112,4|8,3:2|0:0,0:0:0:0:
409,218,6272,2,0,L|299:193,1,112,10|2,3:2|3:0,0:0:0:0:
271,119,6734,2,0,P|287:91|313:78,1,56,10|2,0:0|3:0,0:0:0:0:
221,181,7041,2,0,P|182:218|108:235,1,112,0|8,3:0|0:0,0:0:0:0:
64,187,7503,2,0,B|38:171|5:181|5:181|32:185|50:210,1,112,10|2,0:0|3:0,0:0:0:0:
62,284,7965,2,0,P|49:309|45:344,1,56,8|2,0:0|0:0,0:0:0:0:
123,378,8272,5,2,3:0:0:0:
123,378,8426,1,2,3:0:0:0:
256,320,8734,2,0,B|313:313|314:352|376:346,1,112,2|2,3:0|3:0,0:0:0:0:
495,285,9349,1,2,3:0:0:0:
448,146,9657,1,0,3:0:0:0:
309,182,9965,1,0,3:0:0:0:
309,182,10118,2,0,L|321:245,2,56,0|8|10,3:0|0:0|0:0,0:0:0:0:
221,27,10734,6,0,L|202:172,1,125.999996154785,6|14,3:2|0:3,0:0:0:0:
202,240,11195,1,6,0:3:0:0:
202,240,11272,1,6,0:3:0:0:
202,240,11349,1,6,3:0:0:0:
138,291,11503,2,0,L|72:280,1,62.9999980773926,2|10,0:0|0:0,0:0:0:0:
25,215,11811,1,2,0:0:0:0:
90,155,11965,5,0,3:0:0:0:
90,155,12118,2,0,L|71:77,1,62.9999980773926,2|8,0:0|0:0,0:0:0:0:
144,49,12426,2,0,P|188:13|260:31,2,125.999996154785,2|2|2,0:0|0:0|0:0,0:0:0:0:
214,101,13195,6,0,L|242:234,1,125.999996154785,0|14,3:0|0:3,0:0:0:0:
329,236,13657,1,6,0:3:0:0:
329,236,13734,1,6,0:3:0:0:
329,236,13811,1,6,3:0:0:0:
389,290,13965,2,0,L|374:351,1,62.9999980773926,2|10,0:0|0:0,0:0:0:0:
297,379,14272,1,2,0:0:0:0:
217,339,14426,6,0,L|153:355,1,62.9999980773926,2|2,3:0|0:0,0:0:0:0:
87,308,14734,2,0,L|25:292,1,62.9999980773926,10|2,0:0|0:0,0:0:0:0:
28,210,15041,2,0,L|89:225,1,62.9999980773926,2|10,3:0|0:0,0:0:0:0:
158,272,15349,2,0,L|219:256,1,62.9999980773926,10|2,0:0|0:0,0:0:0:0:
270,184,15657,6,0,L|237:52,1,125.999996154785,6|14,3:2|0:3,0:0:0:0:
311,18,16118,1,6,0:3:0:0:
311,18,16195,1,6,0:3:0:0:
311,18,16272,1,6,3:0:0:0:
389,42,16426,2,0,L|379:110,1,62.9999980773926,2|10,0:0|0:0,0:0:0:0:
368,186,16734,1,2,0:0:0:0:
442,243,16888,5,2,3:0:0:0:
442,243,17041,2,0,L|463:369,2,125.999996154785,2|2|2,0:0|0:0|0:0,0:0:0:0:
363,269,17811,2,0,L|300:278,1,62.9999980773926,10|2,0:0|0:0,0:0:0:0:
233,335,18118,6,0,L|85:319,1,125.999996154785,0|14,3:0|0:3,0:0:0:0:
49,379,18580,1,6,0:3:0:0:
49,379,18657,1,6,0:3:0:0:
49,379,18734,1,6,3:0:0:0:
2,311,18888,2,0,L|11:246,1,62.9999980773926,2|10,0:0|0:0,0:0:0:0:
81,206,19195,1,2,0:0:0:0:
30,133,19349,6,0,P|10:114|-2:76,1,62.9999980773926,2|2,3:0|0:0,0:0:0:0:
79,64,19657,2,0,P|85:37|112:7,1,62.9999980773926,10|2,0:0|0:0,0:0:0:0:
164,72,19965,2,0,P|190:64|229:72,1,62.9999980773926,2|10,3:0|0:0,0:0:0:0:
199,148,20272,2,0,P|219:167|230:205,1,62.9999980773926,10|2,0:0|0:0,0:0:0:0:
175,264,20580,6,0,P|129:308|136:357,1,112,6|6,3:2|3:0,0:0:0:0:
207,378,21041,1,6,0:3:0:0:
274,335,21195,1,6,3:0:0:0:
274,335,21349,2,0,P|304:342|334:347,1,56,0|2,0:0|3:0,0:0:0:0:
401,376,21657,2,0,P|428:371|455:364,1,56,2|2,0:0|3:0,0:0:0:0:
331,268,22118,1,2,3:0:0:0:
447,162,22426,2,0,P|386:151|327:138,1,112,2|2,3:0|3:0,0:0:0:0:
278,87,22888,1,2,0:0:0:0:
203,123,23041,6,0,P|213:158|230:238,1,112,2|6,3:0|3:0,0:0:0:0:
172,286,23503,1,6,0:3:0:0:
118,342,23657,1,6,3:0:0:0:
118,342,23811,2,0,L|57:330,1,56,0|2,0:0|3:0,0:0:0:0:
23,263,24118,1,2,0:0:0:0:
23,263,24272,6,0,L|47:147,1,112,0|2,3:0|3:0,0:0:0:0:
108,105,24734,1,2,1:2:0:0:
68,37,24888,2,0,L|11:54,1,56,2|0,3:0|1:0,0:0:0:0:
108,105,25195,2,0,L|165:122,1,56,2|2,3:0|1:2,0:0:0:0:
242,144,25503,5,2,3:0:0:0:
377,64,25811,1,6,3:0:0:0:
381,224,26118,1,6,3:0:0:0:
381,224,26272,2,0,B|441:225|430:185|499:188,1,112,2|2,0:0|0:0,0:0:0:0:
490,272,26734,5,0,3:0:0:0:
356,354,27041,1,0,3:0:0:0:
231,258,27349,2,0,L|252:195,1,56,0|2,3:0|0:0,0:0:0:0:
173,180,27657,2,0,L|155:233,1,56,0|2,3:0|0:0,0:0:0:0:
84,279,27965,6,0,P|33:247|34:184,2,112,0|0|0,3:0|3:0|3:0,0:0:0:0:
129,349,28734,2,0,P|161:329|201:325,1,56,2|0,0:0|3:0,0:0:0:0:
242,279,29041,1,6,3:2:0:0:
313,333,29195,5,2,3:0:0:0:
313,333,29349,1,2,1:2:0:0:
383,280,29503,2,0,L|387:243,3,31.4999990386963,10|8|2|8,1:0|1:0|3:0|1:0,0:0:0:0:
358,214,29811,1,2,3:0:0:0:
419,151,29965,1,2,3:0:0:0:
349,96,30118,2,0,L|316:103,3,31.4999990386963,10|8|8|8,1:0|1:0|1:0|1:0,0:0:0:0:
274,113,30426,5,6,3:2:0:0:
169,226,30734,2,0,L|37:206,1,119.000002269745,14|6,0:3|3:0,0:0:0:0:
21,279,31195,1,2,0:0:0:0:
83,324,31349,2,0,L|149:313,1,59.5000011348725,10|0,0:0|0:0,0:0:0:0:
223,295,31657,6,0,L|356:321,2,119.000002269745,2|8|2,3:0|0:0|3:0,0:0:0:0:
169,226,32426,1,2,0:0:0:0:
169,226,32580,1,10,0:0:0:0:
250,94,32888,2,0,B|307:111|283:164|349:171,1,119.000002269745,2|14,3:0|0:3,0:0:0:0:
416,183,33349,2,0,P|437:162|465:152,1,59.5000011348725,6|6,0:3|3:0,0:0:0:0:
480,229,33657,2,0,P|474:257|479:291,1,59.5000011348725,2|8,0:0|0:0,0:0:0:0:
424,352,33965,6,0,P|366:355|325:312,1,119.000002269745,2|2,0:0|0:0,0:0:0:0:
258,275,34426,2,0,L|191:294,1,59.5000011348725,10|2,0:0|0:0,0:0:0:0:
180,215,34734,2,0,L|237:198,1,59.5000011348725,2|10,3:0|0:0,0:0:0:0:
283,136,35041,2,0,P|282:88|236:53,1,89.2500017023087,10|0,0:0|0:0,0:0:0:0:
213,50,35349,5,6,3:2:0:0:
64,7,35657,2,0,L|76:136,1,119.000002269745,14|6,0:3|3:0,0:0:0:0:
48,198,36118,1,2,0:0:0:0:
109,245,36272,2,0,L|99:303,1,59.5000011348725,10|0,0:0|0:0,0:0:0:0:
174,339,36580,2,0,L|194:218,2,119.000002269745,2|8|2,3:0|0:0|3:0,0:0:0:0:
246,378,37349,1,2,0:0:0:0:
246,378,37503,1,10,0:0:0:0:
392,327,37811,6,0,L|416:192,1,119.000002269745,2|8,3:0|0:0,0:0:0:0:
347,164,38272,2,0,P|316:160|287:142,1,59.5000011348725,2|2,0:0|3:0,0:0:0:0:
317,72,38580,2,0,P|346:75|372:89,1,59.5000011348725,2|10,0:0|0:0,0:0:0:0:
456,60,38888,6,0,B|478:55|506:45|506:45|476:83|471:129,1,125.999996154785,6|2,3:2|0:0,0:0:0:0:
504,186,39349,2,0,P|499:204|494:226,3,31.4999990386963,10|8|2|8,0:1|0:1|3:0|0:1,0:0:0:0:
485,256,39657,1,2,3:0:0:0:
408,222,39811,1,10,0:1:0:0:
408,222,39965,1,8,0:1:0:0:
323,260,40118,1,10,0:1:0:0:
323,260,40272,6,0,P|269:269|212:285,1,112,6|2,3:2|0:0,0:0:0:0:
143,315,40734,1,2,3:0:0:0:
143,315,40888,1,2,3:0:0:0:
6,137,41503,2,0,P|60:146|117:162,1,112,0|0,3:0|0:0,0:0:0:0:
192,194,41965,1,2,3:0:0:0:
192,194,42119,1,0,3:0:0:0:
332,375,42734,6,0,P|341:321|357:264,1,112,2|2,3:0|0:0,0:0:0:0:
387,195,43196,1,2,3:0:0:0:
387,195,43350,1,2,3:0:0:0:
245,21,43965,2,0,P|254:75|270:132,1,112,0|0,3:0|0:0,0:0:0:0:
305,205,44427,1,2,3:0:0:0:
305,205,44580,2,0,L|278:273,1,56,0|2,3:0|3:0,0:0:0:0:
202,270,44888,2,0,L|162:261,3,28,0|8|10|8,3:0|0:1|0:1|0:1,0:0:0:0:
143,232,45195,6,0,P|94:242|69:311,1,125.999996154785,6|10,3:2|0:0,0:0:0:0:
126,366,45657,2,0,L|259:348,1,125.999996154785,2|2,3:0|3:0,0:0:0:0:
327,378,46118,1,10,0:0:0:0:
395,322,46272,6,0,P|413:284|381:211,1,125.999996154785,2|2,3:0|0:0,0:0:0:0:
306,176,46734,1,10,0:0:0:0:
336,93,46888,2,0,L|463:115,1,125.999996154785,2|2,3:0|3:0,0:0:0:0:
495,42,47349,1,8,0:0:0:0:
495,42,47503,1,6,3:2:0:0:
425,204,47811,5,2,0:0:0:0:
356,249,47965,2,0,L|319:253,3,31.4999990386963,10|8|2|8,0:1|0:1|3:0|0:1,0:0:0:0:
284,258,48272,1,10,3:2:0:0:
213,215,48426,1,10,0:0:0:0:
148,275,48580,2,0,L|161:317,2,31.4999990386963,10|8|10,0:1|0:1|0:1,0:0:0:0:
41,167,49041,5,0,3:0:0:0:
130,49,49349,1,2,3:0:0:0:
130,49,49503,1,2,3:0:0:0:
130,49,50118,6,0,B|190:55|190:55|214:71|214:71|291:79,1,140,6|14,3:2|0:3,0:0:0:0:
347,136,50580,1,6,0:3:0:0:
347,136,50657,1,6,0:3:0:0:
347,136,50734,2,0,L|430:122,1,70,6|2,3:0|0:0,0:0:0:0:
499,185,51041,1,10,0:0:0:0:
499,185,51195,6,0,L|510:254,1,70,2|0,0:0|3:0,0:0:0:0:
459,335,51503,2,0,L|389:346,1,70,2|8,0:0|0:0,0:0:0:0:
315,293,51811,2,0,P|250:241|184:257,1,140,2|2,0:0|0:0,0:0:0:0:
120,296,52272,2,0,L|138:366,1,70,10|2,0:0|0:0,0:0:0:0:
30,283,52580,5,0,3:0:0:0:
30,283,52734,2,0,P|36:242|49:217,1,70,2|14,0:0|0:3,0:0:0:0:
114,153,53041,1,6,0:3:0:0:
114,153,53118,1,6,0:3:0:0:
114,153,53195,2,0,P|107:119|93:87,1,70,6|2,3:0|0:0,0:0:0:0:
174,44,53503,2,0,P|208:37|240:23,1,70,10|2,0:0|0:0,0:0:0:0:
333,68,53811,5,2,3:0:0:0:
333,68,53965,1,2,0:0:0:0:
272,135,54118,1,10,0:0:0:0:
272,135,54272,1,2,0:0:0:0:
320,213,54426,2,0,P|329:254|335:291,1,70,2|10,3:0|0:0,0:0:0:0:
401,343,54734,2,0,P|445:333|472:300,1,70,10|2,0:0|0:0,0:0:0:0:
502,286,54965,1,0,0:0:0:0:
502,286,55041,6,0,P|485:203|475:145,1,140,4|14,3:2|0:3,0:0:0:0:
495,65,55503,1,6,0:3:0:0:
495,65,55580,1,6,0:3:0:0:
495,65,55657,2,0,P|451:65|418:83,1,70,6|2,3:0|0:0,0:0:0:0:
349,134,55965,1,10,0:0:0:0:
349,134,56118,6,0,B|281:136|286:85|209:92,1,140,2|2,0:0|0:0,0:0:0:0:
177,104,56503,1,0,0:0:0:0:
177,104,56580,2,0,P|193:146|200:184,1,70,8|2,0:0|0:0,0:0:0:0:
255,242,56888,2,0,P|213:258|175:265,1,70,2|2,3:0|0:0,0:0:0:0:
117,320,57195,2,0,P|101:278|94:240,1,70,8|2,0:0|0:0,0:0:0:0:
203,357,57503,6,0,P|245:373|283:380,1,70,2|2,3:0|0:0,0:0:0:0:
329,308,57811,1,14,0:3:0:0:
421,347,57965,1,6,0:3:0:0:
421,347,58041,1,6,0:3:0:0:
421,347,58118,2,0,P|435:313|456:276,1,70,6|2,3:0|0:0,0:0:0:0:
451,189,58426,1,10,0:0:0:0:
451,189,58580,6,0,P|453:122|402:74,1,140,6|0,3:2|3:0,0:0:0:0:
315,50,59041,2,0,L|325:95,3,35,8|8|2|8,0:1|0:1|3:0|0:1,0:0:0:0:
338,127,59349,1,10,3:2:0:0:
302,211,59503,1,10,3:2:0:0:
248,136,59657,2,0,L|211:128,3,35,10|8|10|8,0:1|0:1|0:1|0:1,0:0:0:0:
170,104,59965,6,0,P|131:125|123:219,1,140,6|14,3:2|0:3,0:0:0:0:
119,311,60426,1,6,0:3:0:0:
119,311,60503,1,6,0:3:0:0:
119,311,60580,2,0,P|159:305|188:276,1,70,6|2,3:0|0:0,0:0:0:0:
271,242,60888,1,10,0:0:0:0:
271,242,61041,6,0,B|300:247|300:247|313:257|313:257|340:264,1,70,2|0,0:0|3:0,0:0:0:0:
398,330,61349,2,0,B|421:323|421:323|434:313|434:313|463:308,1,70,2|8,0:0|0:0,0:0:0:0:
506,227,61657,2,0,B|517:162|461:158|473:83,1,140,2|2,0:0|0:0,0:0:0:0:
387,130,62118,2,0,P|358:153|318:161,1,70,10|2,0:0|0:0,0:0:0:0:
256,230,62426,5,0,3:0:0:0:
256,230,62580,2,0,P|218:216|176:209,1,70,2|14,0:0|0:3,0:0:0:0:
133,151,62888,1,6,0:3:0:0:
133,151,62965,1,6,0:3:0:0:
133,151,63041,2,0,P|147:113|154:71,1,70,6|2,3:0|0:0,0:0:0:0:
228,32,63349,2,0,P|266:46|308:53,1,70,10|2,0:0|0:0,0:0:0:0:
363,129,63657,5,2,3:0:0:0:
363,129,63811,1,2,0:0:0:0:
449,93,63965,1,10,0:0:0:0:
449,93,64118,1,2,0:0:0:0:
498,169,64272,2,0,P|484:207|477:249,1,70,2|10,3:0|0:0,0:0:0:0:
425,310,64580,2,0,B|429:326|436:349|436:349|422:333|413:318,1,70,10|2,0:0|0:0,0:0:0:0:
374,313,64811,1,0,0:0:0:0:
374,313,64888,6,0,P|351:347|250:373,1,140,4|14,3:2|0:3,0:0:0:0:
198,324,65349,1,6,0:3:0:0:
198,324,65426,1,6,0:3:0:0:
198,324,65503,2,0,P|204:282|220:254,1,70,6|2,3:0|0:0,0:0:0:0:
299,217,65811,1,10,0:0:0:0:
228,149,65965,6,0,P|173:171|73:192,1,140,2|2,0:0|0:0,0:0:0:0:
57,172,66349,1,0,0:0:0:0:
57,172,66426,2,0,P|31:136|33:109,1,70,8|2,0:0|0:0,0:0:0:0:
45,21,66734,2,0,P|78:34|118:42,1,70,2|2,3:0|0:0,0:0:0:0:
197,70,67041,2,0,P|229:57|263:49,1,70,8|2,0:0|0:0,0:0:0:0:
350,97,67349,6,0,P|339:130|332:175,1,70,2|2,3:0|0:0,0:0:0:0:
321,255,67657,1,14,0:3:0:0:
414,230,67811,1,6,0:3:0:0:
414,230,67888,1,6,0:3:0:0:
414,230,67965,2,0,P|453:221|489:215,1,70,6|2,3:0|0:0,0:0:0:0:
506,315,68272,1,10,0:0:0:0:
506,315,68426,6,0,P|423:329|341:348,1,140,6|0,3:2|3:0,0:0:0:0:
283,375,68888,2,0,P|263:369|236:363,3,35,8|8|2|8,0:1|0:1|3:2|0:1,0:0:0:0:
204,358,69195,1,10,3:2:0:0:
175,271,69349,1,10,3:2:0:0:
266,260,69503,2,0,P|269:241|275:221,3,35,8|8|10|8,0:1|0:1|0:1|0:1,0:0:0:0:
295,186,69811,6,0,P|275:110|265:48,1,125.999996154785,6|10,3:2|0:0,0:0:0:0:
199,16,70272,2,0,P|166:28|145:58,1,62.9999980773926,2|2,3:0|0:0,0:0:0:0:
77,91,70580,2,0,P|78:126|100:155,1,62.9999980773926,2|10,3:0|0:0,0:0:0:0:
97,237,70888,2,0,P|176:210|234:198,2,125.999996154785,2|0|0,3:0|3:0|3:0,0:0:0:0:
40,296,71657,1,0,3:0:0:0:
40,296,80426,6,0,P|13:278|51:282,1,97.9999970092774,2|6,3:0|3:2,0:0:0:0:
112,348,80888,1,2,0:0:0:0:
112,348,81041,1,2,3:0:0:0:
164,277,81195,2,0,L|155:233,3,31.4999990386963,10|8|0|8,0:1|0:1|3:0|0:1,0:0:0:0:
150,203,81503,1,2,3:0:0:0:
219,149,81657,1,2,3:0:0:0:
290,202,81811,2,0,L|283:232,3,31.4999990386963,10|8|8|8,0:1|0:1|0:1|0:1,0:0:0:0:
273,273,82118,5,6,3:2:0:0:
397,364,82426,2,0,P|453:339|462:278,1,119.000002269745,14|6,0:3|3:3,0:0:0:0:
406,235,82888,1,2,0:0:0:0:
455,175,83041,2,0,P|461:143|476:105,1,59.5000011348725,10|0,0:0|0:0,0:0:0:0:
395,96,83349,6,0,B|331:112|358:149|286:166,2,119.000002269745,2|8|2,3:0|0:0|3:0,0:0:0:0:
350,32,84118,1,2,0:0:0:0:
350,32,84272,1,10,0:0:0:0:
211,101,84580,2,0,P|210:168|247:218,1,119.000002269745,2|14,3:0|0:3,0:0:0:0:
281,277,85041,2,0,P|248:315|223:320,1,59.5000011348725,6|6,0:3|3:3,0:0:0:0:
186,372,85349,2,0,P|139:352|127:330,1,59.5000011348725,2|10,0:0|0:0,0:0:0:0:
55,320,85657,6,0,P|72:263|92:207,1,119.000002269745,2|2,0:0|0:0,0:0:0:0:
56,138,86118,2,0,B|38:115|38:115|41:84,1,59.5000011348725,10|2,0:0|0:0,0:0:0:0:
116,65,86426,2,0,B|134:88|134:88|131:119,1,59.5000011348725,2|10,3:0|0:0,0:0:0:0:
194,163,86734,2,0,P|243:144|293:132,1,89.2500017023087,10|0,0:0|0:0,0:0:0:0:
313,157,87041,5,6,3:2:0:0:
433,60,87349,2,0,P|417:111|403:177,1,119.000002269745,14|6,0:3|3:3,0:0:0:0:
448,238,87811,1,2,0:0:0:0:
399,298,87965,2,0,P|371:289|341:281,1,59.5000011348725,10|0,0:0|0:0,0:0:0:0:
272,326,88272,2,0,P|227:365|164:374,2,119.000002269745,2|8|2,3:0|0:0|3:0,0:0:0:0:
341,281,89041,1,2,0:0:0:0:
341,281,89195,1,10,0:0:0:0:
264,146,89503,6,0,P|222:160|147:180,1,119.000002269745,2|8,3:0|0:0,0:0:0:0:
145,257,89965,2,0,P|118:251|79:244,1,59.5000011348725,2|2,0:0|3:0,0:0:0:0:
73,321,90272,2,0,P|102:326|131:332,1,59.5000011348725,2|10,0:0|0:0,0:0:0:0:
211,371,90580,6,0,P|272:357|346:346,1,125.999996154785,6|2,3:2|3:0,0:0:0:0:
406,303,91041,2,0,P|427:310|445:315,3,31.4999990386963,10|8|2|8,0:1|0:1|3:0|0:1,0:0:0:0:
475,325,91349,2,0,L|461:252,1,62.9999980773926,2|10,3:0|0:1,0:0:0:0:
411,205,91657,1,8,0:1:0:0:
411,205,91811,1,10,0:1:0:0:
486,166,91965,6,0,P|498:108|513:51,1,112,6|2,3:2|0:0,0:0:0:0:
459,5,92426,1,2,3:0:0:0:
459,5,92580,1,2,3:0:0:0:
335,191,93195,2,0,P|347:249|362:306,1,112,0|0,3:0|0:0,0:0:0:0:
314,365,93656,1,2,3:0:0:0:
314,365,93810,1,0,3:0:0:0:
205,168,94426,6,0,P|217:110|232:53,1,112,2|2,3:0|0:0,0:0:0:0:
172,13,94887,1,2,3:0:0:0:
172,13,95041,1,2,3:0:0:0:
15,173,95657,2,0,P|27:231|42:288,1,112,0|0,3:0|0:0,0:0:0:0:
8,355,96117,1,2,3:0:0:0:
8,355,96271,1,0,3:0:0:0:
118,377,96580,2,0,L|159:367,3,28,0|8|10|8,3:0|0:1|0:1|0:1,0:0:0:0:
167,331,96888,6,0,P|185:272|259:246,1,125.999996154785,6|10,3:2|0:0,0:0:0:0:
300,299,97349,2,0,P|360:319|425:331,1,125.999996154785,2|2,3:0|3:0,0:0:0:0:
491,286,97811,1,10,0:0:0:0:
453,205,97965,2,0,P|491:156|491:94,1,125.999996154785,2|2,3:0|0:0,0:0:0:0:
447,24,98426,1,10,0:0:0:0:
373,72,98580,2,0,B|322:66|322:66|303:54|303:54|252:48,1,125.999996154785,2|2,3:0|3:0,0:0:0:0:
189,101,99041,1,10,0:0:0:0:
189,101,99195,1,6,3:2:0:0:
43,200,99503,5,2,3:0:0:0:
97,261,99657,2,0,L|141:250,3,31.4999990386963,10|8|2|8,0:1|0:1|3:0|0:1,0:0:0:0:
168,244,99965,1,2,3:0:0:0:
223,303,100118,1,10,0:1:0:0:
174,376,100272,2,0,L|143:383,2,31.4999990386963,10|8|10,0:1|0:1|0:1,0:0:0:0:
307,304,100734,5,0,3:0:0:0:
441,383,101041,1,2,3:0:0:0:
441,383,101195,2,0,P|452:302|462:244,1,125.999996154785,6|6,3:0|3:1,0:0:0:0:
459,258,101811,6,0,P|439:201|366:180,1,140,6|14,3:2|0:3,0:0:0:0:
286,165,102272,1,6,0:3:0:0:
286,165,102349,1,6,0:3:0:0:
286,165,102426,2,0,P|257:199|232:209,1,70,6|0,3:0|0:0,0:0:0:0:
159,261,102734,1,8,0:0:0:0:
68,223,102888,6,0,P|74:184|84:140,1,70,2|0,0:0|3:0,0:0:0:0:
12,93,103195,2,0,P|6:54|-4:10,1,70,2|8,0:0|0:0,0:0:0:0:
96,64,103503,2,0,P|147:71|223:8,1,140,2|2,0:0|0:0,0:0:0:0:
291,75,103965,2,0,P|324:100|370:108,1,70,10|2,0:0|0:0,0:0:0:0:
452,105,104272,5,0,3:0:0:0:
452,105,104426,2,0,P|450:141|430:173,1,70,2|14,0:0|0:3,0:0:0:0:
353,205,104734,1,6,0:3:0:0:
353,205,104811,1,6,0:3:0:0:
353,205,104888,2,0,L|367:281,1,70,6|2,3:0|0:0,0:0:0:0:
276,291,105195,2,0,L|263:222,1,70,10|2,0:0|0:0,0:0:0:0:
178,183,105503,5,2,3:0:0:0:
178,183,105657,1,2,0:0:0:0:
115,249,105811,1,10,0:0:0:0:
115,249,105965,1,2,0:0:0:0:
44,191,106118,2,0,L|56:122,1,70,2|10,3:0|0:0,0:0:0:0:
37,32,106426,2,0,L|105:44,1,70,10|2,0:0|0:0,0:0:0:0:
151,75,106657,1,0,0:0:0:0:
151,75,106734,6,0,B|205:67|205:67|229:48|229:48|293:39,1,140,4|14,3:2|0:3,0:0:0:0:
367,99,107195,1,6,0:3:0:0:
367,99,107272,1,6,0:3:0:0:
367,99,107349,2,0,L|350:169,1,70,6|0,3:0|0:0,0:0:0:0:
260,200,107657,1,10,0:0:0:0:
260,200,107811,6,0,L|290:343,1,140,2|2,0:0|0:0,0:0:0:0:
329,367,108195,1,0,0:0:0:0:
329,367,108272,2,0,P|357:336|397:330,1,70,8|2,0:0|0:0,0:0:0:0:
448,264,108580,2,0,P|486:281|504:317,1,70,2|2,3:0|0:0,0:0:0:0:
364,242,108888,2,0,P|375:202|387:166,1,70,8|2,0:0|0:0,0:0:0:0:
413,81,109195,6,0,P|375:77|338:92,1,70,2|2,3:0|0:0,0:0:0:0:
270,140,109503,1,14,0:3:0:0:
200,196,109657,1,6,0:3:0:0:
200,196,109734,1,6,0:3:0:0:
200,196,109811,2,0,P|163:192|129:175,1,70,6|2,3:0|0:0,0:0:0:0:
40,165,110118,1,10,0:0:0:0:
40,165,110272,6,0,P|53:202|74:319,1,140,6|0,3:2|3:0,0:0:0:0:
133,368,110734,2,0,P|155:372|183:378,3,35,8|8|2|8,0:1|0:1|3:0|0:1,0:0:0:0:
212,380,111041,1,2,3:0:0:0:
251,297,111195,1,10,3:2:0:0:
165,265,111349,2,0,P|160:242|156:218,3,35,10|8|10|8,0:1|0:1|0:1|0:1,0:0:0:0:
207,226,111657,6,0,B|280:237|256:287|341:298,1,140,6|14,3:2|0:3,0:0:0:0:
368,205,112118,1,6,0:3:0:0:
368,205,112195,1,6,0:3:0:0:
368,205,112272,2,0,P|357:170|352:132,1,70,6|2,3:0|0:0,0:0:0:0:
451,117,112580,1,10,0:0:0:0:
451,117,112734,6,0,P|456:151|466:184,1,70,2|0,0:0|3:0,0:0:0:0:
433,269,113041,2,0,P|422:302|417:336,1,70,2|8,0:0|0:0,0:0:0:0:
333,374,113349,2,0,P|302:341|204:321,1,140,2|2,0:0|0:0,0:0:0:0:
124,292,113811,2,0,P|99:316|61:335,1,70,10|2,0:0|0:0,0:0:0:0:
191,231,114118,5,6,3:0:0:0:
191,231,114272,2,0,P|200:197|224:162,1,70,6|14,0:3|0:3,0:0:0:0:
222,83,114580,1,2,0:0:0:0:
222,83,114657,1,0,0:0:0:0:
222,83,114734,2,0,P|188:91|145:88,1,70,0|2,3:0|0:0,0:0:0:0:
72,133,115041,2,0,P|96:158|115:196,1,70,10|2,0:0|0:0,0:0:0:0:
50,266,115349,5,2,3:0:0:0:
50,266,115503,1,2,0:0:0:0:
117,334,115657,1,10,0:0:0:0:
117,334,115811,1,2,0:0:0:0:
204,307,115965,2,0,P|241:296|281:289,1,70,2|10,3:0|0:0,0:0:0:0:
342,233,116272,2,0,P|363:242|339:237,1,70,10|2,0:0|0:0,0:0:0:0:
312,204,116503,1,0,0:0:0:0:
312,204,116580,6,0,P|306:133|368:68,1,140,4|14,3:2|0:3,0:0:0:0:
421,28,117041,1,6,0:3:0:0:
421,28,117118,1,6,0:3:0:0:
421,28,117195,2,0,P|447:40|491:46,1,70,6|2,3:0|0:0,0:0:0:0:
445,127,117503,1,10,0:0:0:0:
490,213,117657,6,0,P|493:286|440:342,1,140,2|2,0:0|0:0,0:0:0:0:
429,376,118041,1,0,0:0:0:0:
429,376,118118,2,0,L|360:364,1,70,8|2,0:0|0:0,0:0:0:0:
282,314,118426,2,0,L|213:326,1,70,2|2,3:0|0:0,0:0:0:0:
140,381,118734,2,0,L|71:369,1,70,8|2,0:0|0:0,0:0:0:0:
21,284,119041,6,0,P|44:241|66:230,1,70,6|6,3:0|0:3,0:0:0:0:
151,214,119349,1,14,0:3:0:0:
178,132,119503,1,2,0:0:0:0:
178,132,119580,1,0,0:0:0:0:
178,132,119657,2,0,P|147:107|110:102,1,70,2|2,3:0|0:0,0:0:0:0:
24,118,119965,1,10,0:0:0:0:
24,118,120118,6,0,P|32:62|111:6,1,140,6|0,3:2|3:0,0:0:0:0:
184,7,120580,2,0,P|204:15|223:19,3,35,8|8|2|8,0:1|0:1|3:0|0:1,0:0:0:0:
264,32,120888,1,10,3:2:0:0:
215,108,121041,1,10,3:2:0:0:
311,110,121195,2,0,P|327:114|344:121,3,35,8|8|10|8,0:1|0:1|0:1|0:1,0:0:0:0:
378,150,121503,6,0,P|437:107|506:118,1,125.999996154785,6|10,3:2|0:0,0:0:0:0:
487,191,121965,2,0,P|473:227|462:271,1,62.9999980773926,2|2,3:0|0:0,0:0:0:0:
419,317,122272,2,0,P|427:347|439:376,1,62.9999980773926,2|10,3:0|0:0,0:0:0:0:
384,243,122580,2,0,P|325:286|256:275,1,125.999996154785,2|2,3:0|3:0,0:0:0:0:
222,220,123041,1,8,0:0:0:0:
147,253,123195,2,0,L|176:384,2,125.999996154785,2|2|2,3:0|3:0|3:0,0:0:0:0:
69,210,123965,6,0,P|71:149|141:108,1,125.999996154785,2|10,3:0|0:0,0:0:0:0:
179,55,124426,1,2,3:0:0:0:
179,55,124580,2,0,P|214:67|245:71,2,62.9999980773926,2|2|10,0:0|3:0|0:0,0:0:0:0:
113,5,125041,5,2,3:0:0:0:
198,145,125349,1,0,3:0:0:0:
117,289,125657,1,0,3:0:0:0:
117,289,125811,1,0,3:0:0:0:
