osu file format v14

[General]
AudioFilename: audio.mp3
AudioLeadIn: 0
PreviewTime: 49311
Countdown: 0
SampleSet: Soft
StackLeniency: 0.4
Mode: 0
LetterboxInBreaks: 0
WidescreenStoryboard: 1

[Editor]
DistanceSpacing: 0.9
BeatDivisor: 2
GridSize: 32
TimelineZoom: 1.7

[Metadata]
Title:Lose The Princess
TitleUnicode:さよならプリンセス
Artist:Kai
ArtistUnicode:Kai
Creator:Ryuusei Aika
Version:meiqth's Normal
Source:
Tags:meiqth pnky Ralkinson Astrolis LimeTwist Sayonara Goodbye Japanese Electronic Pop J-Pop JPop 初音ミク Hatsune Miku Vocaloid ボーカロイド akuya
BeatmapID:3757396
BeatmapSetID:1802635

[Difficulty]
HPDrainRate:4
CircleSize:3
OverallDifficulty:4.5
ApproachRate:5.5
SliderMultiplier:1.1
SliderTickRate:1

[Events]
//Background and Video events
0,0,"bg.jpg",0,0
//Break Periods
2,40472,43609
2,72472,79301
2,92165,95301
//Storyboard Layer 0 (Background)
//Storyboard Layer 1 (Fail)
//Storyboard Layer 2 (Pass)
//Storyboard Layer 3 (Foreground)
//Storyboard Layer 4 (Overlay)
//Storyboard Sound Samples

[TimingPoints]
-4035,307.692307692308,4,2,1,40,1,0
888,-100,4,2,1,50,0,0
1656,-100,4,2,1,50,0,0
1810,-100,4,2,1,50,0,0
2118,-100,4,2,1,50,0,0
2272,-100,4,2,1,50,0,0
2425,-100,4,2,1,50,0,0
2580,-100,4,2,1,50,0,0
5811,-100,4,2,1,60,0,0
7965,-100,4,2,1,60,0,0
8118,-100,4,2,1,60,0,0
10734,-100,4,2,1,70,0,0
11041,-100,4,2,2,70,0,0
11272,-100,4,2,2,70,0,0
11348,-100,4,2,2,70,0,0
11657,-100,4,2,1,70,0,0
11965,-100,4,2,1,70,0,0
12118,-100,4,2,1,70,0,0
12271,-100,4,2,1,70,0,0
12426,-100,4,2,1,70,0,0
13503,-100,4,2,2,70,0,0
13734,-100,4,2,2,70,0,0
13810,-100,4,2,2,70,0,0
14118,-100,4,2,1,70,0,0
14579,-100,4,2,1,70,0,0
14733,-100,4,2,1,70,0,0
15965,-100,4,2,2,70,0,0
16195,-100,4,2,2,70,0,0
16272,-100,4,2,2,70,0,0
16580,-100,4,2,1,70,0,0
16888,-100,4,2,1,70,0,0
17041,-100,4,2,1,70,0,0
18426,-100,4,2,2,70,0,0
18657,-100,4,2,2,70,0,0
18733,-100,4,2,2,70,0,0
19041,-100,4,2,1,70,0,0
19502,-100,4,2,1,70,0,0
19656,-100,4,2,1,70,0,0
20432,-100,4,2,1,70,0,0
20888,-100,4,2,2,50,0,0
21503,-100,4,2,1,50,0,0
21656,-100,4,2,1,50,0,0
23349,-100,4,2,2,50,0,0
23965,-100,4,2,1,50,0,0
24272,-100,4,2,1,50,0,0
24425,-100,4,2,1,50,0,0
24580,-100,4,2,1,50,0,0
25811,-100,4,2,2,50,0,0
26426,-100,4,2,1,50,0,0
29041,-100,4,2,1,55,0,0
29579,-100,4,2,1,55,0,0
29656,-100,4,2,1,55,0,0
30426,-100,4,2,1,60,0,0
30734,-100,4,2,2,50,0,0
31349,-100,4,2,1,50,0,0
33195,-100,4,2,2,50,0,0
33811,-100,4,2,1,50,0,0
33964,-100,4,2,1,50,0,0
34579,-100,4,2,1,50,0,0
34733,-100,4,2,1,50,0,0
35657,-100,4,2,2,50,0,0
36272,-100,4,2,1,50,0,0
38777,-100,4,2,1,50,0,0
38888,-100,4,2,1,60,0,0
39425,-100,4,2,1,60,0,0
39502,-100,4,2,1,60,0,0
40580,-100,4,2,1,50,0,0
44888,-100,4,2,1,50,0,0
44964,-100,4,2,1,50,0,0
45041,-100,4,2,1,50,0,0
45195,-100,4,2,1,60,0,0
46734,-100,4,2,1,60,0,0
46887,-100,4,2,1,60,0,0
48041,-100,4,2,1,60,0,0
48118,-100,4,2,1,60,0,0
48426,-100,4,2,1,60,0,0
48579,-100,4,2,1,60,0,0
50118,-90.9090909090909,4,2,1,80,0,1
50426,-90.9090909090909,4,2,2,80,0,1
51041,-90.9090909090909,4,2,1,80,0,1
51348,-90.9090909090909,4,2,1,80,0,1
51502,-90.9090909090909,4,2,1,80,0,1
51656,-90.9090909090909,4,2,1,80,0,1
51810,-90.9090909090909,4,2,1,80,0,1
52888,-90.9090909090909,4,2,2,80,0,1
53503,-90.9090909090909,4,2,1,80,0,1
55349,-90.9090909090909,4,2,2,80,0,1
55965,-90.9090909090909,4,2,1,80,0,1
56888,-90.9090909090909,4,2,1,80,0,1
57041,-90.9090909090909,4,2,1,80,0,1
57811,-90.9090909090909,4,2,2,80,0,1
58271,-90.9090909090909,4,2,2,80,0,1
58426,-90.9090909090909,4,2,1,80,0,1
59117,-90.9090909090909,4,2,1,80,0,1
59194,-90.9090909090909,4,2,1,80,0,1
60272,-90.9090909090909,4,2,2,80,0,1
60888,-90.9090909090909,4,2,1,80,0,1
61194,-90.9090909090909,4,2,1,80,0,1
61348,-90.9090909090909,4,2,1,80,0,1
61502,-90.9090909090909,4,2,1,80,0,1
61656,-90.9090909090909,4,2,1,80,0,1
62734,-90.9090909090909,4,2,2,80,0,1
63349,-90.9090909090909,4,2,1,80,0,1
65195,-90.9090909090909,4,2,2,80,0,1
65811,-90.9090909090909,4,2,1,80,0,1
67657,-90.9090909090909,4,2,2,80,0,1
68272,-90.9090909090909,4,2,1,80,0,1
69811,-100,4,2,1,80,0,0
70580,-100,4,2,1,80,0,0
70733,-100,4,2,1,80,0,0
72272,-100,4,2,1,45,0,0
75041,-100,4,2,2,45,0,0
75657,-100,4,2,1,45,0,0
77503,-100,4,2,2,45,0,0
78118,-100,4,2,1,45,0,0
80734,-100,4,2,1,55,0,0
81041,-100,4,2,1,55,0,0
81195,-100,4,2,1,60,0,0
82426,-100,4,2,2,55,0,0
83041,-100,4,2,1,55,0,0
84888,-100,4,2,2,55,0,0
85503,-100,4,2,1,55,0,0
85656,-100,4,2,1,55,0,0
86271,-100,4,2,1,55,0,0
86425,-100,4,2,1,55,0,0
87349,-100,4,2,2,55,0,0
87965,-100,4,2,1,55,0,0
91117,-100,4,2,1,55,0,0
91194,-100,4,2,1,55,0,0
91965,-100,4,2,1,50,0,0
96580,-100,4,2,1,50,0,0
96656,-100,4,2,1,50,0,0
96733,-100,4,2,1,50,0,0
96888,-100,4,2,1,60,0,0
98426,-100,4,2,1,60,0,0
98580,-100,4,2,1,60,0,0
99733,-100,4,2,1,60,0,0
99810,-100,4,2,1,60,0,0
100118,-100,4,2,1,60,0,0
100272,-100,4,2,1,60,0,0
100503,-100,4,2,2,60,0,0
100734,-100,4,2,1,60,0,0
101811,-90.9090909090909,4,2,1,80,0,1
102118,-90.9090909090909,4,2,2,80,0,1
102734,-90.9090909090909,4,2,1,80,0,1
103041,-90.9090909090909,4,2,1,80,0,1
103195,-90.9090909090909,4,2,1,80,0,1
103348,-90.9090909090909,4,2,1,80,0,1
103503,-90.9090909090909,4,2,1,80,0,1
104580,-90.9090909090909,4,2,2,80,0,1
105195,-90.9090909090909,4,2,1,80,0,1
107041,-90.9090909090909,4,2,2,80,0,1
107657,-90.9090909090909,4,2,1,80,0,1
108580,-90.9090909090909,4,2,1,80,0,1
108733,-90.9090909090909,4,2,1,80,0,1
109503,-90.9090909090909,4,2,2,80,0,1
109964,-90.9090909090909,4,2,2,80,0,1
110118,-90.9090909090909,4,2,1,80,0,1
110734,-90.9090909090909,4,2,1,85,0,1
110810,-90.9090909090909,4,2,1,85,0,1
110887,-90.9090909090909,4,2,1,85,0,1
111657,-90.9090909090909,4,2,1,90,0,1
111965,-90.9090909090909,4,2,2,90,0,1
112580,-90.9090909090909,4,2,1,90,0,1
112887,-90.9090909090909,4,2,1,90,0,1
113041,-90.9090909090909,4,2,1,90,0,1
113194,-90.9090909090909,4,2,1,90,0,1
113349,-90.9090909090909,4,2,1,90,0,1
114118,-90.9090909090909,4,2,2,90,0,1
114734,-90.9090909090909,4,2,1,90,0,1
116888,-90.9090909090909,4,2,2,90,0,1
117503,-90.9090909090909,4,2,1,90,0,1
118118,-90.9090909090909,4,2,1,90,0,1
118272,-90.9090909090909,4,2,1,90,0,1
119041,-90.9090909090909,4,2,2,90,0,1
119657,-90.9090909090909,4,2,1,90,0,1
119810,-90.9090909090909,4,2,1,90,0,1
119964,-90.9090909090909,4,2,1,90,0,1
120810,-90.9090909090909,4,2,1,90,0,1
120887,-90.9090909090909,4,2,1,90,0,1
121503,-100,4,2,1,50,0,0
122272,-100,4,2,1,50,0,0
122425,-100,4,2,1,50,0,0
124733,-100,4,2,1,50,0,0
124887,-100,4,2,1,50,0,0

[Colours]
Combo1 : 223,0,112
Combo2 : 223,0,223

[HitObjects]
137,368,118,5,2,0:0:0:0:
137,368,272,2,0,L|253:376,1,110,2|2,0:0|0:0,0:0:0:0:
334,328,888,6,0,P|346:261|333:210,1,110,2|10,3:0|0:0,0:0:0:0:
247,180,1503,2,0,P|203:195|135:166,1,110,2|10,0:0|0:0,0:0:0:0:
130,127,1965,2,0,B|143:69|143:69|125:7,2,110,2|2|10,3:0|0:0|0:0,0:0:0:0:
83,214,2888,6,0,L|13:222,2,55,2|10|2,3:0|0:0|0:0,0:0:0:0:
168,264,3503,2,0,L|240:273,2,55,2|10|10,0:0|0:0|3:2,0:0:0:0:
163,169,4118,1,2,3:0:0:0:
163,169,4272,1,10,0:0:0:0:
132,74,4580,2,0,P|88:75|42:66,2,55,2|2|10,3:0|0:0|0:0,0:0:0:0:
233,78,5195,2,0,L|328:61,1,55,2|2,0:0|3:0,0:0:0:0:
332,88,5503,1,10,0:0:0:0:
401,157,5811,6,0,B|385:191|385:191|393:276,1,110,4|8,3:2|0:0,0:0:0:0:
457,333,6426,2,0,P|494:332|527:337,2,55,2|2|10,0:0|3:0|0:0,0:0:0:0:
412,355,6888,1,2,3:0:0:0:
321,316,7195,1,2,0:0:0:0:
233,362,7503,1,10,0:0:0:0:
140,325,7811,2,0,P|117:266|147:194,1,110,2|2,3:0|0:0,0:0:0:0:
170,196,8272,5,2,3:0:0:0:
170,196,8426,1,2,3:0:0:0:
263,228,8734,1,2,3:0:0:0:
357,199,9041,1,2,3:0:0:0:
449,234,9349,1,2,3:0:0:0:
474,138,9657,2,0,P|473:106|465:72,1,55,0|0,3:0|3:0,0:0:0:0:
436,55,9965,1,0,3:0:0:0:
436,55,10118,1,0,3:0:0:0:
238,37,10734,6,0,L|231:112,1,55,6|2,3:2|0:0,0:0:0:0:
271,125,11041,2,0,B|304:129|304:129|346:127,2,55,14|6|6,0:3|0:3|3:0,0:0:0:0:
239,163,11503,1,2,0:0:0:0:
144,131,11811,2,0,P|78:133|24:121,2,110,2|2|2,0:0|0:0|0:0,0:0:0:0:
243,167,12734,1,2,0:0:0:0:
243,167,12888,2,0,L|238:237,1,55,10|2,0:0|0:0,0:0:0:0:
207,260,13195,5,0,3:0:0:0:
121,310,13503,2,0,B|90:303|90:303|51:311,2,55,14|6|6,0:3|0:3|3:0,0:0:0:0:
148,351,13965,2,0,L|214:358,1,55,2|10,0:0|0:0,0:0:0:0:
277,291,14426,6,0,P|328:299|351:290,1,55,2|2,3:0|0:0,0:0:0:0:
384,304,14734,1,10,0:0:0:0:
384,304,14888,2,0,L|393:369,2,55,2|2|10,0:0|3:0|0:0,0:0:0:0:
419,269,15349,1,10,0:0:0:0:
371,182,15657,6,0,L|296:173,1,55,6|2,3:2|0:0,0:0:0:0:
282,139,15965,2,0,B|278:106|278:106|280:64,2,55,14|6|6,0:3|0:3|3:0,0:0:0:0:
234,154,16426,1,2,0:0:0:0:
184,242,16734,2,0,L|24:221,2,110,2|2|2,0:0|0:0|0:0,0:0:0:0:
225,269,17503,2,0,P|262:279|283:274,1,55,2|2,3:0|0:0,0:0:0:0:
322,254,17811,2,0,P|359:244|380:248,1,55,10|2,0:0|0:0,0:0:0:0:
419,267,18118,5,0,3:0:0:0:
446,171,18426,2,0,B|453:139|453:139|454:99,2,55,14|6|6,0:3|0:3|3:0,0:0:0:0:
396,167,18888,1,2,0:0:0:0:
364,129,19041,1,10,0:0:0:0:
266,147,19349,6,0,B|301:205|273:266,1,110,2|10,3:0|0:0,0:0:0:0:
250,294,19811,1,2,0:0:0:0:
250,294,19965,2,0,L|181:302,1,55,2|10,3:0|0:0,0:0:0:0:
148,285,20272,1,10,0:0:0:0:
75,217,20580,6,0,P|59:159|85:94,1,110,6|6,3:2|3:0,0:0:0:0:
143,43,21195,1,6,3:0:0:0:
143,43,21349,2,0,L|262:47,1,110,0|2,0:0|0:0,0:0:0:0:
294,73,21811,1,2,3:0:0:0:
247,159,22118,2,0,L|239:225,1,55,2|2,3:0|0:0,0:0:0:0:
272,251,22426,1,2,3:0:0:0:
357,303,22734,1,2,3:0:0:0:
435,242,23041,6,0,P|451:178|432:113,1,110,2|6,3:0|3:0,0:0:0:0:
378,68,23657,1,6,3:0:0:0:
378,68,23811,2,0,L|314:63,1,55,0|2,0:0|3:0,0:0:0:0:
277,81,24118,2,0,P|259:148|274:203,1,110,2|2,0:0|1:2,0:0:0:0:
299,223,24580,1,2,3:0:0:0:
244,306,24888,1,2,3:0:0:0:
170,243,25195,2,0,P|143:235|115:238,1,55,2|2,3:0|1:2,0:0:0:0:
74,263,25503,6,0,L|79:387,2,110,2|6|6,3:0|3:0|3:0,0:0:0:0:
31,238,26272,1,2,0:0:0:0:
55,141,26580,1,2,0:0:0:0:
55,141,26734,2,0,L|169:122,1,110,0|0,3:0|3:0,0:0:0:0:
246,187,27349,1,0,3:0:0:0:
246,187,27503,1,2,0:0:0:0:
334,139,27811,1,2,0:0:0:0:
334,139,27965,2,0,L|343:23,2,110,0|0|0,3:0|3:0|3:0,0:0:0:0:
356,183,28734,1,2,0:0:0:0:
315,275,29041,1,6,3:2:0:0:
315,275,29195,6,0,L|255:282,1,55,2|2,3:0|1:2,0:0:0:0:
234,323,29503,2,0,L|174:316,1,55,10|2,1:0|3:0,0:0:0:0:
130,308,29811,2,0,L|125:378,2,55,2|2|10,3:0|3:0|1:0,0:0:0:0:
71,227,30426,6,0,P|86:141|68:103,1,110,6|14,3:2|0:3,0:0:0:0:
48,82,30888,1,6,0:3:0:0:
48,82,31041,2,0,L|121:70,1,55,6|2,3:0|0:0,0:0:0:0:
150,78,31349,1,10,0:0:0:0:
245,50,31657,1,2,3:0:0:0:
340,91,31965,1,8,0:0:0:0:
340,91,32118,6,0,L|356:10,2,55,2|2|2,0:0|3:0|0:0,0:0:0:0:
385,110,32580,2,0,P|397:148|385:219,1,110,10|2,0:0|3:0,0:0:0:0:
334,300,33195,2,0,L|260:293,1,55,14|6,0:3|0:3,0:0:0:0:
238,323,33503,1,6,3:0:0:0:
191,304,33657,2,0,L|184:186,1,110,2|2,0:0|0:0,0:0:0:0:
259,129,34272,5,2,0:0:0:0:
259,129,34426,2,0,P|295:115|365:141,1,110,10|2,0:0|3:0,0:0:0:0:
440,194,35041,1,10,0:0:0:0:
381,277,35349,6,0,P|280:280|262:276,1,110,6|14,3:2|0:3,0:0:0:0:
232,257,35811,1,6,0:3:0:0:
232,257,35965,2,0,L|228:344,2,55,6|2|10,3:0|0:0|0:0,0:0:0:0:
147,204,36580,1,2,3:0:0:0:
53,226,36888,1,8,0:0:0:0:
53,226,37041,6,0,L|-48:216,2,55,2|2|2,0:0|3:0|0:0,0:0:0:0:
63,177,37503,2,0,P|50:121|62:65,1,110,10|2,0:0|3:0,0:0:0:0:
160,54,38118,1,8,0:0:0:0:
160,54,38272,2,0,L|167:-14,2,55,2|2|2,0:0|3:0|0:0,0:0:0:0:
239,113,38888,6,0,P|308:95|368:115,1,110,6|2,3:2|0:0,0:0:0:0:
376,140,39349,2,0,L|382:217,1,55,10|2,0:1|3:0,0:0:0:0:
409,234,39657,2,0,P|448:242|469:237,2,55,2|10|8,3:0|0:1|0:1,0:0:0:0:
345,309,40272,1,6,3:2:0:0:
17,114,44734,6,0,P|82:130|132:115,1,110,2|10,3:0|0:1,0:0:0:0:
164,93,45195,1,6,3:2:0:0:
249,39,45503,1,10,0:0:0:0:
249,39,45657,2,0,L|242:170,1,110,2|2,3:0|3:0,0:0:0:0:
214,188,46118,1,10,0:0:0:0:
167,205,46272,2,0,B|104:214|104:214|55:202,2,110,2|2|2,3:0|0:0|3:0,0:0:0:0:
235,276,47195,2,0,P|277:279|303:269,1,55,2|8,3:0|0:0,0:0:0:0:
327,243,47503,1,6,3:2:0:0:
395,171,47811,5,2,0:0:0:0:
395,171,47965,2,0,L|398:109,1,55,10|2,0:1|3:0,0:0:0:0:
371,71,48272,2,0,P|323:63|254:75,1,110,10|10,3:2|0:1,0:0:0:0:
220,105,48734,1,10,0:1:0:0:
49,202,49349,5,2,3:0:0:0:
49,202,49503,2,0,P|97:209|121:202,1,55,2|2,3:0|0:0,0:0:0:0:
143,179,49811,2,0,P|171:177|198:183,1,55,2|2,0:0|0:0,0:0:0:0:
245,208,50118,6,0,L|251:352,1,121.000003692627,6|14,3:2|0:3,0:0:0:0:
348,375,50734,2,0,P|390:379|418:367,1,60.5000018463135,6|2,3:0|0:0,0:0:0:0:
431,324,51041,1,10,0:0:0:0:
431,324,51195,2,0,B|447:230|447:230|427:203,2,121.000003692627,2|2|2,0:0|0:0|0:0,0:0:0:0:
324,312,52118,6,0,P|275:315|244:293,1,60.5000018463135,2|10,0:0|0:0,0:0:0:0:
218,282,52426,1,2,0:0:0:0:
281,193,52734,2,0,P|247:185|202:193,1,60.5000018463135,2|14,0:0|0:3,0:0:0:0:
170,206,53041,1,6,0:3:0:0:
88,165,53349,1,2,0:0:0:0:
88,165,53503,2,0,P|82:99|98:69,1,60.5000018463135,10|2,0:0|0:0,0:0:0:0:
62,55,53811,6,0,L|-23:47,2,60.5000018463135,2|2|10,3:0|0:0|0:0,0:0:0:0:
110,30,54272,1,2,0:0:0:0:
110,30,54426,2,0,P|142:17|186:27,1,60.5000018463135,2|10,3:0|0:0,0:0:0:0:
213,47,54734,1,10,0:0:0:0:
317,66,55041,6,0,B|329:99|329:99|308:190,1,121.000003692627,4|14,3:2|0:3,0:0:0:0:
355,222,55503,1,6,0:3:0:0:
355,222,55657,2,0,P|350:252|356:283,1,60.5000018463135,6|2,3:0|0:0,0:0:0:0:
407,311,55965,1,10,0:0:0:0:
407,311,56118,1,2,0:0:0:0:
319,375,56426,1,2,0:0:0:0:
220,327,56734,2,0,B|185:316|162:326|162:326|129:338|91:326,1,121.000003692627,2|2,0:0|0:0,0:0:0:0:
62,290,57195,1,8,0:0:0:0:
98,179,57503,6,0,L|19:162,2,60.5000018463135,2|2|14,3:0|0:0|0:3,0:0:0:0:
149,160,57965,1,6,0:3:0:0:
202,184,58118,2,0,L|214:56,1,121.000003692627,6|10,3:0|0:0,0:0:0:0:
259,34,58580,1,6,3:2:0:0:
332,119,58888,1,0,3:0:0:0:
332,119,59041,6,0,L|398:113,1,60.5000018463135,8|2,0:1|3:0,0:0:0:0:
446,104,59349,2,0,P|454:54|479:20,2,60.5000018463135,10|10|10,3:2|3:2|0:1,0:0:0:0:
451,214,59965,6,0,P|381:230|315:198,1,121.000003692627,6|14,3:2|0:3,0:0:0:0:
236,170,60580,2,0,L|219:102,1,60.5000018463135,6|2,3:0|0:0,0:0:0:0:
243,61,60888,1,10,0:0:0:0:
210,18,61041,2,0,B|176:-9|89:22,2,121.000003692627,2|2|2,0:0|0:0|0:0,0:0:0:0:
318,3,61965,5,2,0:0:0:0:
343,50,62118,2,0,L|425:41,1,60.5000018463135,10|2,0:0|0:0,0:0:0:0:
485,115,62580,1,2,0:0:0:0:
455,161,62734,2,0,L|373:170,1,60.5000018463135,14|6,0:3|0:3,0:0:0:0:
316,243,63195,2,0,L|325:323,2,60.5000018463135,2|10|2,0:0|0:0|0:0,0:0:0:0:
276,204,63657,6,0,L|298:96,2,60.5000018463135,2|2|10,3:0|0:0|0:0,0:0:0:0:
227,223,64118,1,2,0:0:0:0:
227,223,64272,2,0,P|192:221|156:193,1,60.5000018463135,2|10,3:0|0:0,0:0:0:0:
135,166,64580,1,10,0:0:0:0:
34,124,64888,6,0,B|37:177|37:177|27:199|27:199|32:256,1,121.000003692627,4|14,3:2|0:3,0:0:0:0:
59,295,65349,1,6,0:3:0:0:
59,295,65503,2,0,P|89:300|120:294,1,60.5000018463135,6|2,3:0|0:0,0:0:0:0:
154,254,65811,1,10,0:0:0:0:
154,254,65965,1,2,0:0:0:0:
254,288,66272,1,2,0:0:0:0:
301,187,66580,2,0,L|294:118,2,60.5000018463135,2|2|2,0:0|3:0|0:0,0:0:0:0:
343,220,67041,1,8,0:0:0:0:
431,283,67349,6,0,L|426:362,2,60.5000018463135,2|2|14,3:0|0:0|0:3,0:0:0:0:
469,244,67811,1,6,0:3:0:0:
469,244,67965,2,0,P|478:201|462:159,1,60.5000018463135,6|2,3:0|0:0,0:0:0:0:
434,149,68272,1,10,0:0:0:0:
401,105,68426,6,0,P|359:85|280:114,1,121.000003692627,6|0,3:2|3:0,0:0:0:0:
183,79,69041,2,0,L|186:3,2,60.5000018463135,2|10|10,3:2|3:2|3:2,0:0:0:0:
97,145,69657,1,10,0:1:0:0:
97,145,69811,5,6,3:2:0:0:
142,235,70118,2,0,L|205:240,1,55,10|2,0:0|3:0,0:0:0:0:
240,215,70426,2,0,P|288:198|348:220,1,110,2|10,0:0|0:0,0:0:0:0:
380,247,70888,1,2,3:0:0:0:
465,197,71195,1,0,3:0:0:0:
435,107,71503,1,0,3:0:0:0:
435,107,71657,1,0,3:0:0:0:
245,165,72272,5,6,3:2:0:0:
327,372,80426,6,0,L|336:257,1,110,2|6,3:0|3:2,0:0:0:0:
298,228,80888,2,0,P|230:234|193:215,1,110,2|10,0:0|0:1,0:0:0:0:
172,177,81349,1,0,3:0:0:0:
172,177,81503,2,0,L|182:112,1,55,2|2,3:0|3:0,0:0:0:0:
151,81,81811,1,10,0:1:0:0:
238,35,82118,6,0,P|292:24|345:41,1,110,6|14,3:2|0:3,0:0:0:0:
389,58,82580,1,6,0:3:0:0:
389,58,82734,2,0,L|401:-15,2,55,6|2|10,3:3|0:0|0:0,0:0:0:0:
411,154,83349,1,2,3:0:0:0:
323,204,83657,1,8,0:0:0:0:
323,204,83811,6,0,L|253:213,1,55,2|2,0:0|3:0,0:0:0:0:
225,235,84118,1,2,0:0:0:0:
180,212,84272,2,0,P|168:174|180:103,1,110,10|2,0:0|3:0,0:0:0:0:
268,64,84888,2,0,L|343:70,1,55,14|6,0:3|0:3,0:0:0:0:
367,41,85195,1,6,3:3:0:0:
412,61,85349,2,0,L|418:178,1,110,2|2,0:0|0:0,0:0:0:0:
363,255,85965,5,2,0:0:0:0:
363,255,86118,2,0,L|266:247,1,55,10|2,0:0|0:0,0:0:0:0:
269,219,86426,1,2,3:0:0:0:
185,272,86734,1,10,0:0:0:0:
97,224,87041,6,0,P|94:123|98:104,1,110,6|14,3:2|0:3,0:0:0:0:
128,78,87503,1,6,0:3:0:0:
128,78,87657,2,0,L|39:59,2,55,6|2|10,3:3|0:0|0:0,0:0:0:0:
216,123,88272,1,2,3:0:0:0:
318,116,88580,1,8,0:0:0:0:
318,116,88734,6,0,L|326:45,2,55,2|2|2,0:0|3:0|0:0,0:0:0:0:
361,140,89195,2,0,P|382:190|358:250,1,110,10|2,0:0|3:0,0:0:0:0:
305,319,89811,1,8,0:0:0:0:
206,322,90118,2,0,P|171:333|131:327,1,55,2|2,3:0|0:0,0:0:0:0:
114,303,90426,1,10,0:0:0:0:
114,303,90580,6,0,L|123:171,1,110,6|2,3:2|3:0,0:0:0:0:
160,163,91041,2,0,L|237:158,1,55,10|2,0:1|3:0,0:0:0:0:
251,125,91349,2,0,P|244:89|254:63,2,55,2|10|8,3:0|0:1|0:1,0:0:0:0:
342,164,91965,1,6,3:2:0:0:
17,317,96426,6,0,P|82:333|132:318,1,110,10|10,0:1|0:1,0:0:0:0:
158,287,96888,1,6,3:2:0:0:
237,226,97195,1,10,0:0:0:0:
237,226,97349,2,0,L|221:97,1,110,2|2,3:0|3:0,0:0:0:0:
183,86,97811,1,10,0:0:0:0:
143,56,97965,2,0,B|80:64|31:53,2,110,2|2|2,3:0|0:0|3:0,0:0:0:0:
237,26,98888,2,0,P|279:23|305:32,1,55,2|10,3:0|0:0,0:0:0:0:
334,50,99195,1,6,3:2:0:0:
406,125,99503,5,2,3:0:0:0:
406,125,99657,2,0,L|409:188,1,55,10|2,0:1|3:0,0:0:0:0:
387,225,99965,2,0,B|338:232|338:232|269:220,1,110,2|10,3:0|0:1,0:0:0:0:
238,192,100426,1,10,0:1:0:0:
69,99,101041,5,2,3:0:0:0:
69,99,101195,2,0,B|75:147|75:147|69:171,1,55,6|2,3:0|0:0,0:0:0:0:
42,192,101503,2,0,B|40:220|40:220|47:247,1,55,6|2,3:1|0:0,0:0:0:0:
84,285,101811,6,0,L|211:286,1,121.000003692627,6|14,3:2|0:3,0:0:0:0:
268,197,102426,2,0,P|261:157|274:122,1,60.5000018463135,6|0,3:0|0:0,0:0:0:0:
308,103,102734,1,8,0:0:0:0:
308,103,102888,2,0,L|444:97,2,121.000003692627,2|2|2,0:0|0:0|0:0,0:0:0:0:
223,171,103811,5,2,0:0:0:0:
182,207,103965,2,0,L|173:289,1,60.5000018463135,10|2,0:0|0:0,0:0:0:0:
93,338,104426,1,2,0:0:0:0:
45,310,104580,2,0,L|36:228,1,60.5000018463135,14|6,0:3|0:3,0:0:0:0:
59,146,105041,1,2,0:0:0:0:
59,146,105195,2,0,P|128:138|149:152,1,60.5000018463135,10|2,0:0|0:0,0:0:0:0:
169,119,105503,6,0,L|177:34,2,60.5000018463135,2|2|10,3:0|0:0|0:0,0:0:0:0:
222,146,105964,1,2,0:0:0:0:
222,146,106118,2,0,P|235:178|225:222,1,60.5000018463135,2|10,3:0|0:0,0:0:0:0:
205,250,106426,1,10,0:0:0:0:
240,353,106734,6,0,P|301:377|364:345,1,121.000003692627,4|14,3:2|0:3,0:0:0:0:
400,333,107195,1,6,0:3:0:0:
400,333,107349,2,0,L|399:272,1,60.5000018463135,6|0,3:0|0:0,0:0:0:0:
360,233,107657,1,10,0:0:0:0:
384,184,107811,1,2,0:0:0:0:
316,98,108118,1,2,0:0:0:0:
251,191,108426,2,0,B|216:180|193:191|193:191|160:203|122:191,1,121.000003692627,2|2,0:0|0:0,0:0:0:0:
80,176,108888,1,8,0:0:0:0:
28,80,109195,6,0,L|18:4,2,60.5000018463135,2|2|14,3:0|0:0|0:3,0:0:0:0:
86,80,109657,1,6,0:3:0:0:
86,80,109811,2,0,P|155:54|216:70,1,121.000003692627,6|10,3:0|0:0,0:0:0:0:
244,92,110272,1,6,3:2:0:0:
340,40,110580,1,0,3:0:0:0:
388,65,110734,6,0,L|383:137,1,60.5000018463135,8|2,0:1|3:0,0:0:0:0:
423,162,111041,2,0,L|430:232,1,60.5000018463135,2|10,3:0|3:2,0:0:0:0:
470,257,111349,1,10,0:1:0:0:
413,346,111657,6,0,P|343:362|277:330,1,121.000003692627,6|14,3:2|0:3,0:0:0:0:
218,272,112272,2,0,L|212:205,1,60.5000018463135,6|2,3:0|0:0,0:0:0:0:
182,165,112580,1,10,0:0:0:0:
214,121,112734,2,0,B|299:91|333:118,2,121.000003692627,2|2|2,0:0|0:0|0:0,0:0:0:0:
114,165,113657,5,2,0:0:0:0:
73,200,113811,2,0,L|63:282,1,60.5000018463135,10|2,0:0|0:0,0:0:0:0:
154,323,114272,1,6,0:3:0:0:
199,293,114426,2,0,L|208:211,1,60.5000018463135,14|2,0:3|0:0,0:0:0:0:
270,144,114888,2,0,L|350:154,2,60.5000018463135,2|10|2,0:0|0:0|0:0,0:0:0:0:
231,105,115349,6,0,B|245:24,2,60.5000018463135,2|2|10,3:0|0:0|0:0,0:0:0:0:
180,133,115811,1,2,0:0:0:0:
180,133,115965,2,0,P|149:126|108:139,1,60.5000018463135,2|10,3:0|0:0,0:0:0:0:
81,168,116272,1,10,0:0:0:0:
134,264,116580,6,0,B|187:262|266:266,1,121.000003692627,4|14,3:2|0:3,0:0:0:0:
297,231,117041,1,6,0:3:0:0:
297,231,117195,2,0,L|296:171,1,60.5000018463135,6|2,3:0|0:0,0:0:0:0:
267,130,117503,1,10,0:0:0:0:
267,130,117657,2,0,P|198:120|136:139,2,121.000003692627,2|2|2,0:0|0:0|0:0,0:0:0:0:
365,84,118580,1,2,0:0:0:0:
365,84,118734,1,8,0:0:0:0:
430,171,119041,6,0,L|511:155,2,60.5000018463135,6|6|14,3:0|0:3|0:3,0:0:0:0:
396,214,119503,1,2,0:0:0:0:
376,264,119657,2,0,P|313:282|246:254,1,121.000003692627,2|10,3:0|0:0,0:0:0:0:
219,231,120118,6,0,L|224:108,1,121.000003692627,6|0,3:2|3:0,0:0:0:0:
187,77,120580,1,8,0:1:0:0:
187,77,120734,2,0,L|109:67,1,60.5000018463135,2|10,3:0|3:2,0:0:0:0:
84,103,121041,1,10,3:2:0:0:
26,197,121349,1,10,0:1:0:0:
26,197,121503,5,6,3:2:0:0:
76,281,121811,2,0,L|135:274,1,55,10|2,0:0|3:0,0:0:0:0:
163,311,122118,2,0,P|218:319|274:310,1,110,2|10,0:0|0:0,0:0:0:0:
310,342,122580,1,2,3:0:0:0:
392,287,122888,1,2,3:0:0:0:
483,324,123195,2,0,P|495:255|494:252,1,55,2|0,3:0|0:0,0:0:0:0:
479,226,123503,1,2,3:0:0:0:
418,154,123811,1,2,3:0:0:0:
418,154,123965,6,0,L|413:89,1,55,2|2,3:0|0:0,0:0:0:0:
384,59,124272,1,10,0:0:0:0:
286,39,124580,2,0,P|239:56|178:35,1,110,2|10,0:0|0:0,0:0:0:0:
146,5,125041,1,2,3:0:0:0:
102,94,125349,1,0,3:0:0:0:
161,180,125657,1,0,3:0:0:0:
161,180,125811,1,0,3:0:0:0:
