osu file format v14

[General]
AudioFilename: audio.mp3
AudioLeadIn: 0
PreviewTime: 49311
Countdown: 0
SampleSet: Soft
StackLeniency: 0.4
Mode: 0
LetterboxInBreaks: 0
WidescreenStoryboard: 1

[Editor]
DistanceSpacing: 0.6
BeatDivisor: 4
GridSize: 4
TimelineZoom: 2.499999

[Metadata]
Title:Lose The Princess
TitleUnicode:さよならプリンセス
Artist:Kai
ArtistUnicode:Kai
Creator:Ryuusei Aika
Version:Ralkinson's Insane
Source:
Tags:meiqth pnky Ralkinson Astrolis LimeTwist Sayonara Goodbye Japanese Electronic Pop J-Pop JPop 初音ミク Hatsune Miku Vocaloid ボーカロイド akuya
BeatmapID:3750396
BeatmapSetID:1802635

[Difficulty]
HPDrainRate:5
CircleSize:4
OverallDifficulty:7.5
ApproachRate:8.6
SliderMultiplier:1.7
SliderTickRate:1

[Events]
//Background and Video events
0,0,"bg.jpg",0,0
//Break Periods
//Storyboard Layer 0 (Background)
//Storyboard Layer 1 (Fail)
//Storyboard Layer 2 (Pass)
//Storyboard Layer 3 (Foreground)
//Storyboard Layer 4 (Overlay)
//Storyboard Sound Samples

[TimingPoints]
-4035,307.692307692308,4,2,1,40,1,0
118,-142.857142857143,4,2,1,40,0,0
888,-142.857142857143,4,2,1,50,0,0
4580,-111.111111111111,4,2,1,50,0,0
5811,-111.111111111111,4,2,1,60,0,0
6272,-125,4,2,1,60,0,0
10734,-100,4,2,1,70,0,0
11041,-100,4,2,2,70,0,0
11657,-100,4,2,1,70,0,0
13503,-100,4,2,2,70,0,0
14118,-100,4,2,1,70,0,0
15965,-100,4,2,2,70,0,0
16580,-100,4,2,1,70,0,0
18426,-100,4,2,2,70,0,0
19041,-100,4,2,1,70,0,0
20580,-125,4,2,1,70,0,0
20888,-125,4,2,2,50,0,0
21503,-125,4,2,1,50,0,0
23349,-125,4,2,2,50,0,0
23965,-125,4,2,1,50,0,0
25811,-125,4,2,2,50,0,0
26426,-125,4,2,1,50,0,0
29041,-111.111111111111,4,2,1,55,0,0
30426,-117.647058823529,4,2,1,60,0,0
30734,-117.647058823529,4,2,2,50,0,0
31349,-117.647058823529,4,2,1,50,0,0
33195,-117.647058823529,4,2,2,50,0,0
33811,-117.647058823529,4,2,1,50,0,0
35657,-117.647058823529,4,2,2,50,0,0
36272,-117.647058823529,4,2,1,50,0,0
38888,-100,4,2,1,60,0,0
40426,-125,4,2,1,60,0,0
40580,-125,4,2,1,50,0,0
45195,-125,4,2,1,60,0,0
48734,-142.857142857143,4,2,1,60,0,0
49503,-125,4,2,1,60,0,0
50118,-90.9090909090909,4,2,1,80,0,0
50426,-90.9090909090909,4,2,2,80,0,0
51041,-90.9090909090909,4,2,1,80,0,0
52888,-90.9090909090909,4,2,2,80,0,0
53503,-90.9090909090909,4,2,1,80,0,0
55349,-90.9090909090909,4,2,2,80,0,0
55965,-90.9090909090909,4,2,1,80,0,0
57811,-90.9090909090909,4,2,2,80,0,0
58426,-90.9090909090909,4,2,1,80,0,0
60272,-90.9090909090909,4,2,2,80,0,0
60888,-90.9090909090909,4,2,1,80,0,0
62734,-90.9090909090909,4,2,2,80,0,0
63349,-90.9090909090909,4,2,1,80,0,0
65195,-90.9090909090909,4,2,2,80,0,0
65811,-90.9090909090909,4,2,1,80,0,0
67657,-90.9090909090909,4,2,2,80,0,0
68272,-90.9090909090909,4,2,1,80,0,0
70272,-111.111111111111,4,2,1,80,0,0
72272,-111.111111111111,4,2,1,45,0,0
75041,-111.111111111111,4,2,2,45,0,0
75657,-111.111111111111,4,2,1,45,0,0
77503,-111.111111111111,4,2,2,45,0,0
78118,-111.111111111111,4,2,2,45,0,0
78426,-111.111111111111,4,2,1,45,0,0
80734,-111.111111111111,4,2,1,55,0,0
81195,-111.111111111111,4,2,1,60,0,0
82426,-117.647058823529,4,2,2,55,0,0
83041,-117.647058823529,4,2,1,55,0,0
84888,-117.647058823529,4,2,2,55,0,0
85503,-117.647058823529,4,2,1,55,0,0
87349,-117.647058823529,4,2,2,55,0,0
87965,-117.647058823529,4,2,1,55,0,0
90580,-100,4,2,1,55,0,0
91965,-125,4,2,1,50,0,0
96888,-125,4,2,1,60,0,0
100426,-142.857142857143,4,2,1,60,0,0
101195,-125,4,2,1,60,0,0
101503,-111.111111111111,4,2,1,60,0,0
101811,-90.9090909090909,4,2,1,80,0,0
102118,-90.9090909090909,4,2,2,80,0,0
102734,-90.9090909090909,4,2,1,80,0,0
104580,-90.9090909090909,4,2,2,80,0,0
105195,-90.9090909090909,4,2,1,80,0,0
107041,-90.9090909090909,4,2,2,80,0,0
107657,-90.9090909090909,4,2,1,80,0,0
109503,-90.9090909090909,4,2,2,80,0,0
110118,-90.9090909090909,4,2,1,80,0,0
110734,-90.9090909090909,4,2,1,85,0,0
111657,-90.9090909090909,4,2,1,90,0,0
111965,-90.9090909090909,4,2,2,90,0,0
112580,-90.9090909090909,4,2,1,90,0,0
114118,-90.9090909090909,4,2,2,90,0,0
114734,-90.9090909090909,4,2,1,90,0,0
116888,-90.9090909090909,4,2,2,90,0,0
117503,-90.9090909090909,4,2,1,90,0,0
119041,-90.9090909090909,4,2,2,90,0,0
119657,-90.9090909090909,4,2,1,90,0,0
121503,-90.9090909090909,4,2,1,50,0,0
121965,-142.857142857143,4,2,1,50,0,0

[Colours]
Combo1 : 223,0,112
Combo2 : 223,0,223

[HitObjects]
434,350,118,6,0,P|437:315|451:274,2,59.4999981842041,2|2|2,0:0|0:0|0:0,0:0:0:0:
341,289,580,2,0,P|348:260|350:230,1,59.4999981842041,2|2,0:0|0:0,0:0:0:0:
466,194,888,6,0,P|431:168|394:119,1,89.2499972763062,2|0,3:0|0:0,0:0:0:0:
382,137,1195,1,10,0:0:0:0:
287,117,1349,1,8,3:2:0:0:
287,117,1503,2,0,P|241:129|208:149,1,59.4999981842042,2|2,0:0|3:0,0:0:0:0:
199,231,1811,1,10,0:0:0:0:
117,175,1965,6,0,P|135:123|144:39,1,118.999996368408,2|2,3:0|0:0,0:0:0:0:
29,122,2426,1,8,0:0:0:0:
134,36,2580,1,10,0:0:0:0:
397,115,2888,2,0,P|382:66|378:37,1,59.4999981842042,2|10,3:0|0:0,0:0:0:0:
481,116,3195,6,0,P|432:150|398:198,1,118.999996368408,2|2,0:0|0:0,0:0:0:0:
405,302,3657,1,10,0:0:0:0:
501,286,3811,2,0,P|502:244|513:208,1,59.4999981842042,10|0,3:2|0:0,0:0:0:0:
469,376,4118,1,2,3:0:0:0:
469,376,4272,1,10,0:0:0:0:
469,376,4426,1,2,3:0:0:0:
317,248,4580,6,0,L|302:336,1,76.4999976654053,2|2,3:0|0:0,0:0:0:0:
121,351,4888,2,0,L|47:336,1,76.4999976654053,10|10,0:0|0:0,0:0:0:0:
209,200,5195,2,0,L|278:154,1,76.4999976654053,2|2,0:0|3:0,0:0:0:0:
87,177,5503,2,0,L|105:283,1,76.4999976654053,10|2,0:0|0:0,0:0:0:0:
34,77,5811,6,0,P|105:60|163:106,1,152.999995330811,4|8,3:2|0:0,0:0:0:0:
263,47,6272,1,10,3:2:0:0:
364,115,6426,2,0,P|377:159|399:197,1,68,2|2,0:0|3:0,0:0:0:0:
386,178,6734,1,10,0:0:0:0:
315,271,6888,6,0,P|224:244|175:242,1,136,2|2,3:0|0:0,0:0:0:0:
265,155,7349,1,8,0:0:0:0:
265,155,7503,2,0,P|294:128|314:93,1,68,10|0,0:0|0:0,0:0:0:0:
473,132,7811,2,0,P|487:181|490:223,1,68,2|8,3:0|0:0,0:0:0:0:
409,248,8118,1,2,0:0:0:0:
496,294,8272,5,2,3:0:0:0:
496,294,8426,1,2,3:0:0:0:
332,329,8734,1,2,3:0:0:0:
168,364,9041,1,2,3:0:0:0:
168,364,9349,2,0,P|200:274|203:229,1,136,2|0,3:0|3:0,0:0:0:0:
229,132,9811,2,0,L|219:84,1,34,0|0,3:0|3:0,0:0:0:0:
94,175,9965,1,0,3:0:0:0:
106,172,10041,1,0,3:0:0:0:
118,169,10118,1,0,3:0:0:0:
130,167,10195,1,0,3:0:0:0:
143,164,10272,1,8,0:0:0:0:
303,203,10426,1,10,0:0:0:0:
303,203,10734,6,0,P|373:213|408:235,1,85,6|2,3:2|0:0,0:0:0:0:
443,116,11041,1,14,0:3:0:0:
463,109,11117,1,6,0:3:0:0:
481,98,11194,1,6,0:3:0:0:
495,82,11271,1,6,0:3:0:0:
505,64,11348,1,6,3:0:0:0:
358,23,11503,2,0,P|345:72|328:102,1,85,2|10,0:0|0:0,0:0:0:0:
208,255,11811,6,0,P|160:276|112:282,1,85,2|0,0:0|3:0,0:0:0:0:
74,119,12118,2,0,P|122:98|170:92,1,85,2|8,0:0|0:0,0:0:0:0:
314,202,12426,2,0,P|415:234|517:238,1,170,2|2,0:0|0:0,0:0:0:0:
423,130,12888,1,10,0:0:0:0:
500,55,13041,1,2,0:0:0:0:
423,130,13195,6,0,P|399:88|396:40,1,85,0|2,3:0|0:0,0:0:0:0:
246,67,13503,1,14,0:3:0:0:
226,58,13579,1,6,0:3:0:0:
205,53,13656,1,6,0:3:0:0:
184,49,13733,1,6,0:3:0:0:
163,48,13810,1,6,3:0:0:0:
78,111,13965,1,2,0:0:0:0:
179,157,14118,2,0,P|193:196|199:255,1,85,10|2,0:0|0:0,0:0:0:0:
50,351,14426,5,2,3:0:0:0:
101,268,14580,1,2,0:0:0:0:
186,325,14734,1,10,0:0:0:0:
289,282,14888,1,2,0:0:0:0:
396,337,15041,1,2,3:0:0:0:
276,289,15195,5,10,0:0:0:0:
471,243,15349,1,10,0:0:0:0:
471,243,15657,6,0,P|401:232|362:221,1,85,6|2,3:2|0:0,0:0:0:0:
191,209,15965,1,14,0:3:0:0:
171,219,16041,1,6,0:3:0:0:
155,232,16118,1,6,0:3:0:0:
141,248,16195,1,6,0:3:0:0:
129,265,16272,1,6,3:0:0:0:
292,176,16426,2,0,P|308:133|309:86,1,85,2|10,0:0|0:0,0:0:0:0:
3,99,16734,6,0,P|15:148|43:189,1,85,2|2,0:0|3:0,0:0:0:0:
205,113,17041,2,0,P|193:64|165:23,1,85,2|10,0:0|0:0,0:0:0:0:
143,196,17349,1,2,0:0:0:0:
143,196,17426,1,2,0:0:0:0:
143,196,17503,1,2,3:0:0:0:
248,219,17657,1,2,0:0:0:0:
318,127,17811,2,0,P|367:102|413:92,1,85,10|2,0:0|0:0,0:0:0:0:
442,287,18118,6,0,P|421:249|402:199,1,85,0|2,3:0|0:0,0:0:0:0:
325,295,18426,1,14,0:3:0:0:
308,308,18502,1,6,0:3:0:0:
289,318,18579,1,6,0:3:0:0:
269,325,18656,1,6,0:3:0:0:
249,330,18733,1,6,3:0:0:0:
161,383,18888,1,2,0:0:0:0:
83,313,19041,2,0,P|103:262|104:212,1,85,10|2,0:0|0:0,0:0:0:0:
25,190,19349,5,2,3:0:0:0:
122,135,19503,1,2,0:0:0:0:
213,195,19657,1,10,0:0:0:0:
259,96,19811,1,2,0:0:0:0:
370,101,19965,1,2,3:0:0:0:
205,9,20118,5,10,0:0:0:0:
314,188,20272,2,0,P|356:199|402:228,1,85,10|2,0:0|0:0,0:0:0:0:
446,318,20580,6,0,P|435:358|437:400,1,68,6|2,3:2|0:0,0:0:0:0:
338,303,20888,2,0,P|276:321|203:361,1,136,6|6,3:0|3:0,0:0:0:0:
201,350,21349,2,0,L|216:271,1,68,0|2,0:0|3:0,0:0:0:0:
288,213,21657,2,0,L|305:64,1,136,2|0,0:0|0:0,0:0:0:0:
304,66,22118,1,2,3:0:0:0:
305,55,22426,1,2,3:0:0:0:
306,44,22734,2,0,P|346:35|386:18,1,68,2|2,3:0|0:0,0:0:0:0:
217,107,23041,6,0,P|207:63|182:20,1,68,2|2,3:0|0:0,0:0:0:0:
65,82,23349,1,6,3:0:0:0:
67,98,23425,1,6,0:3:0:0:
71,115,23502,1,6,0:3:0:0:
77,131,23579,1,6,0:3:0:0:
84,146,23656,1,6,3:0:0:0:
170,188,23811,2,0,L|155:276,1,68,0|2,0:0|3:0,0:0:0:0:
265,371,24118,6,0,P|319:381|390:324,1,136,2|2,0:0|1:2,0:0:0:0:
265,241,24580,2,0,P|301:266|341:266,1,68,2|2,3:0|1:2,0:0:0:0:
440,235,24888,2,0,P|404:204|393:103,1,136,2|2,3:0|3:0,0:0:0:0:
387,120,25349,1,2,1:2:0:0:
278,146,25503,6,0,P|247:125|201:123,1,68,2|0,3:0|0:0,0:0:0:0:
120,67,25811,1,6,3:0:0:0:
117,83,25887,1,6,0:3:0:0:
114,100,25964,1,6,0:3:0:0:
111,117,26041,1,6,0:3:0:0:
109,134,26118,1,6,3:0:0:0:
25,179,26272,6,0,L|41:262,1,68,2|0,0:0|3:0,0:0:0:0:
142,237,26580,2,0,L|289:264,1,136,2|0,0:0|0:0,0:0:0:0:
287,263,27041,1,0,3:0:0:0:
298,264,27349,2,0,L|318:345,1,68,0|2,3:0|0:0,0:0:0:0:
367,170,27657,1,0,3:0:0:0:
367,170,27965,2,0,L|278:151,1,68,0|0,3:0|0:0,0:0:0:0:
288,152,28272,1,0,3:0:0:0:
277,148,28580,1,0,3:0:0:0:
347,69,28734,2,0,P|329:34|320:-1,1,68,2|0,0:0|3:0,0:0:0:0:
148,124,29041,6,0,P|184:192|206:266,1,152.999995330811,6|2,3:2|1:2,0:0:0:0:
302,325,29503,2,0,L|293:384,2,38.2499988327027,10|8|2,1:0|1:0|3:0,0:0:0:0:
316,315,29734,1,8,1:0:0:0:
331,303,29811,2,0,L|342:227,1,76.4999976654053,2|2,3:0|3:0,0:0:0:0:
405,74,30118,2,0,P|457:61|494:49,1,76.4999976654053,10|8,1:0|1:0,0:0:0:0:
310,126,30426,6,0,P|243:99|171:88,1,144.500002756119,6|14,3:2|0:3,0:0:0:0:
60,91,30888,2,0,P|74:139|71:187,1,72.2500013780594,6|6,0:3|3:0,0:0:0:0:
75,161,31195,2,0,L|113:169,1,36.1250006890297,2|0,0:0|0:0,0:0:0:0:
72,291,31349,1,10,0:0:0:0:
72,291,31503,2,0,L|54:252,1,36.1250006890297
175,300,31657,6,0,P|260:328|310:380,1,144.500002756119,2|8,3:0|0:0,0:0:0:0:
374,308,32118,1,2,0:0:0:0:
283,229,32272,2,0,P|328:207|353:175,1,72.2500013780594,2|2,3:0|0:0,0:0:0:0:
483,289,32580,1,10,0:0:0:0:
483,289,32888,6,0,P|449:211|443:129,1,144.500002756119,2|14,3:0|0:3,0:0:0:0:
478,62,33349,1,6,0:3:0:0:
375,27,33503,1,6,3:0:0:0:
375,27,33657,6,0,P|315:79|255:67,1,144.500002756119,2|2,0:0|0:0,0:0:0:0:
256,67,34272,1,2,0:0:0:0:
165,8,34426,2,0,P|148:55|144:97,1,72.2500013780594,10|2,0:0|0:0,0:0:0:0:
210,158,34734,2,0,P|196:191|190:227,1,72.2500013780594,2|10,3:0|0:0,0:0:0:0:
13,106,35041,2,0,P|61:129|91:195,1,108.375002067089,10|0,0:0|0:0,0:0:0:0:
86,189,35349,6,0,L|70:248,1,36.1250006890297,6|0,3:2|0:0,0:0:0:0:
272,336,35657,2,0,P|278:291|295:251,1,72.2500013780594,14|6,0:3|0:3,0:0:0:0:
369,214,35965,1,6,3:0:0:0:
369,214,36118,2,0,L|354:156,1,36.1250006890297,2|0,0:0|0:0,0:0:0:0:
477,301,36272,1,10,0:0:0:0:
477,301,36426,2,0,L|524:313,1,36.1250006890297
381,308,36580,6,0,P|402:232|442:160,1,144.500002756119,2|8,3:0|0:0,0:0:0:0:
432,174,37041,1,2,0:0:0:0:
403,74,37195,2,0,P|372:51|328:40,1,72.2500013780594,2|2,3:0|0:0,0:0:0:0:
153,157,37503,6,0,P|171:226|204:290,1,144.500002756119,10|2,0:0|3:0,0:0:0:0:
204,290,38118,2,0,L|281:305,1,72.2500013780594,8|2,0:0|0:0,0:0:0:0:
352,365,38426,1,2,3:0:0:0:
333,206,38580,2,0,P|355:239|372:280,1,72.2500013780594,2|10,0:0|0:0,0:0:0:0:
148,384,38888,6,0,P|111:330|79:208,1,170,6|2,3:2|0:0,0:0:0:0:
133,135,39349,1,10,0:1:0:0:
232,143,39503,1,2,3:0:0:0:
294,61,39657,1,2,3:0:0:0:
271,233,39811,5,10,0:1:0:0:
193,46,39965,1,8,0:1:0:0:
193,46,40272,5,6,3:2:0:0:
311,91,40426,2,0,P|375:105|452:154,3,136,2|2|2|2,0:0|3:0|0:0|0:0,0:0:0:0:
493,217,41503,1,0,3:0:0:0:
448,300,41657,2,0,P|389:318|322:363,3,136,2|2|2|2,0:0|3:0|0:0|0:0,0:0:0:0:
244,310,42734,1,2,3:0:0:0:
140,348,42888,2,0,P|163:282|170:198,3,136,2|2|2|2,0:0|3:0|0:0|0:0,0:0:0:0:
236,134,43965,1,0,3:0:0:0:
332,163,44118,2,0,P|347:227|385:310,2,136,2|2|2,0:0|3:0|3:0,0:0:0:0:
348,145,44811,1,0,0:0:0:0:
348,145,44888,2,0,L|352:89,1,34,0|8,3:0|0:1,0:0:0:0:
436,61,45041,2,0,L|453:117,1,34,10|8,0:1|0:1,0:0:0:0:
347,8,45195,6,0,P|280:23|221:55,1,136,6|10,3:2|0:0,0:0:0:0:
153,138,45657,1,2,3:0:0:0:
153,138,45734,1,8,0:1:0:0:
202,223,45888,1,8,0:1:0:0:
202,223,45965,1,2,3:0:0:0:
146,312,46118,5,10,0:0:0:0:
301,267,46272,2,0,P|319:192|326:117,1,136,2|2,3:0|0:0,0:0:0:0:
405,74,46734,1,10,0:0:0:0:
207,78,46888,1,2,3:0:0:0:
207,78,46965,2,0,P|222:119|224:164,1,68,8|8,0:1|0:1,0:0:0:0:
219,166,47195,1,2,3:0:0:0:
116,104,47349,1,8,0:0:0:0:
209,267,47503,6,0,P|138:251|111:179,1,136,6|2,3:2|0:0,0:0:0:0:
232,116,47965,1,10,0:1:0:0:
257,111,48041,1,8,0:1:0:0:
282,107,48118,1,2,3:0:0:0:
307,103,48195,1,8,0:1:0:0:
332,99,48272,1,10,3:2:0:0:
429,159,48426,1,10,0:0:0:0:
371,249,48580,1,10,0:1:0:0:
371,249,48657,1,8,0:1:0:0:
371,249,48734,6,0,P|424:291|460:341,2,118.999996368408,10|0|2,0:1|3:0|3:0,0:0:0:0:
284,309,49503,2,0,P|238:330|209:336,1,68,2|2,3:0|0:0,0:0:0:0:
331,163,49811,2,0,P|334:122|353:79,1,68,2|2,0:0|0:0,0:0:0:0:
240,213,50118,6,0,P|174:201|66:110,1,187.000005706787,6|14,3:2|0:3,0:0:0:0:
195,11,50580,1,6,0:3:0:0:
195,11,50657,1,6,0:3:0:0:
195,11,50734,2,0,P|207:68|239:107,1,93.5000028533936,6|2,3:0|0:0,0:0:0:0:
447,144,51041,1,10,0:0:0:0:
322,160,51195,6,0,P|349:101|352:51,1,93.5000028533936,2|0,0:0|3:0,0:0:0:0:
512,230,51503,2,0,P|460:253|396:248,1,93.5000028533936,2|8,0:0|0:0,0:0:0:0:
306,316,51811,2,0,P|241:280|163:269,1,140.25000428009,2|0,0:0|0:0,0:0:0:0:
176,268,52118,5,2,0:0:0:0:
60,238,52272,1,10,0:0:0:0:
101,121,52426,2,0,P|143:97|182:40,1,93.5000028533936,2|0,0:0|3:0,0:0:0:0:
348,34,52734,5,2,0:0:0:0:
323,138,52888,1,14,0:3:0:0:
213,125,53041,2,0,P|190:65|189:11,1,93.5000028533936,6|6,0:3|3:0,0:0:0:0:
340,144,53349,1,2,0:0:0:0:
357,150,53503,1,10,0:0:0:0:
374,156,53657,1,2,0:0:0:0:
185,238,53811,6,0,P|138:220|87:211,1,93.5000028533936,2|2,3:0|0:0,0:0:0:0:
246,94,54118,2,0,P|303:55|333:11,1,93.5000028533936,10|2,0:0|0:0,0:0:0:0:
291,261,54426,2,0,P|210:271|92:325,1,187.000005706787,2|10,3:0|0:0,0:0:0:0:
185,238,54888,1,2,0:0:0:0:
316,363,55041,6,0,P|326:282|380:164,1,187.000005706787,4|14,3:2|0:3,0:0:0:0:
385,68,55503,1,6,0:3:0:0:
385,68,55580,1,6,0:3:0:0:
384,68,55657,2,0,P|429:56|467:30,1,93.5000028533936,6|2,3:0|0:0,0:0:0:0:
289,114,55965,1,10,0:0:0:0:
135,30,56118,6,0,P|117:83|111:125,1,93.5000028533936,2|0,0:0|3:0,0:0:0:0:
261,228,56426,2,0,P|279:175|285:133,1,93.5000028533936,2|8,0:0|0:0,0:0:0:0:
0,170,56734,2,0,P|15:223|40:265,1,93.5000028533936,2|2,0:0|3:0,0:0:0:0:
153,240,57041,2,0,P|227:264|336:330,1,187.000005706787,2|2,0:0|0:0,0:0:0:0:
321,318,57503,5,2,3:0:0:0:
452,274,57657,1,2,0:0:0:0:
360,201,57811,1,14,0:3:0:0:
401,92,57965,1,6,0:3:0:0:
271,109,58118,2,0,L|253:7,1,93.5000028533936,6|2,3:0|0:0,0:0:0:0:
254,16,58426,1,10,0:0:0:0:
122,91,58580,2,0,P|142:194|135:288,1,187.000005706787,6|0,3:2|3:0,0:0:0:0:
50,231,59041,1,8,0:1:0:0:
73,204,59118,1,8,0:1:0:0:
103,186,59195,1,2,3:0:0:0:
137,179,59272,1,8,0:1:0:0:
172,185,59349,6,0,P|222:213|281:221,1,93.5000028533936,10|10,3:2|3:2,0:0:0:0:
438,142,59657,2,0,P|477:103|523:84,1,93.5000028533936,10|10,0:1|0:1,0:0:0:0:
384,259,59965,6,0,P|346:188|334:75,1,187.000005706787,6|14,3:2|0:3,0:0:0:0:
216,23,60426,1,6,0:3:0:0:
141,192,60580,2,0,P|186:174|227:131,1,93.5000028533936,6|2,3:0|0:0,0:0:0:0:
232,284,60888,1,10,0:0:0:0:
105,277,61041,6,0,P|97:195|67:124,1,140.25000428009,2|0,0:0|0:0,0:0:0:0:
68,130,61349,2,0,P|98:83|111:23,1,93.5000028533936,2|8,0:0|0:0,0:0:0:0:
226,113,61657,2,0,P|295:104|353:80,1,93.5000028533936,2|0,0:0|3:0,0:0:0:0:
390,6,61965,5,2,0:0:0:0:
481,75,62118,1,10,0:0:0:0:
415,163,62272,2,0,P|404:215|404:268,1,93.5000028533936,2|0,0:0|3:0,0:0:0:0:
316,120,62580,5,2,0:0:0:0:
277,227,62734,1,14,0:3:0:0:
380,265,62888,2,0,P|417:302|446:347,1,93.5000028533936,6|6,0:3|3:0,0:0:0:0:
478,225,63195,1,2,0:0:0:0:
495,219,63349,1,10,0:0:0:0:
512,213,63503,1,2,0:0:0:0:
335,357,63657,6,0,P|291:337|228:327,1,93.5000028533936,2|2,3:0|0:0,0:0:0:0:
63,263,63965,2,0,P|33:207|28:158,1,93.5000028533936,10|2,0:0|0:0,0:0:0:0:
234,115,64272,2,0,P|264:171|269:220,1,93.5000028533936,2|10,3:0|0:0,0:0:0:0:
117,369,64580,2,0,P|139:319|167:290,1,93.5000028533936,10|2,0:0|0:0,0:0:0:0:
349,248,64888,2,0,P|427:235|478:139,1,187.000005706787,4|14,3:2|0:3,0:0:0:0:
312,102,65349,1,6,0:3:0:0:
422,0,65503,2,0,P|414:45|395:95,1,93.5000028533936,6|2,3:0|0:0,0:0:0:0:
250,32,65811,1,10,0:0:0:0:
208,156,65965,6,0,P|117:181|29:238,2,187.000005706787,2|2|2,0:0|0:0|0:0,0:0:0:0:
281,322,66734,1,2,3:0:0:0:
176,361,66888,2,0,P|184:296|205:253,1,93.5000028533936,2|8,0:0|0:0,0:0:0:0:
364,380,67195,1,2,0:0:0:0:
435,295,67349,6,0,P|387:262|354:208,1,93.5000028533936,2|2,3:0|0:0,0:0:0:0:
414,114,67657,2,0,P|432:63|433:21,1,93.5000028533936,14|6,0:3|0:3,0:0:0:0:
296,156,67965,2,0,P|231:173|192:201,1,93.5000028533936,6|2,3:0|0:0,0:0:0:0:
456,198,68272,1,10,0:0:0:0:
323,60,68426,6,0,P|250:36|135:28,1,187.000005706787,6|0,3:2|3:0,0:0:0:0:
4,82,68888,2,0,P|17:123|48:175,1,93.5000028533936,8|2,0:1|3:2,0:0:0:0:
113,278,69195,1,10,3:2:0:0:
113,278,69272,1,8,0:1:0:0:
113,278,69349,2,0,P|135:270|155:259,1,46.7500014266968,10|0,3:2|0:0,0:0:0:0:
267,187,69503,1,8,0:1:0:0:
267,187,69580,1,8,0:1:0:0:
267,187,69657,2,0,P|259:165|248:145,1,46.7500014266968,10|8,0:1|0:1,0:0:0:0:
139,152,69811,5,6,3:2:0:0:
139,152,69965,1,2,0:0:0:0:
139,152,70118,1,10,0:0:0:0:
191,70,70272,2,0,P|265:106|343:104,1,152.999995330811,2|2,3:0|3:0,0:0:0:0:
334,106,70734,1,10,0:0:0:0:
426,55,70888,5,2,3:0:0:0:
411,189,71195,1,0,3:0:0:0:
396,323,71503,1,0,3:0:0:0:
396,323,71657,1,0,3:0:0:0:
411,189,71811,1,8,0:0:0:0:
411,189,71965,1,8,0:0:0:0:
297,362,72272,5,6,3:2:0:0:
263,270,72580,1,2,0:0:0:0:
300,180,72888,1,2,0:0:0:0:
249,87,73195,1,2,0:0:0:0:
148,19,73503,1,2,0:0:0:0:
105,106,73811,1,2,0:0:0:0:
156,197,74195,5,0,0:0:0:0:
107,291,74503,5,0,0:0:0:0:
155,382,74888,5,2,0:0:0:0:
208,285,75349,5,6,0:3:0:0:
151,187,75657,1,2,0:0:0:0:
198,97,75965,1,2,0:0:0:0:
302,41,76272,1,2,0:0:0:0:
354,123,76580,1,2,0:0:0:0:
296,219,76965,5,0,0:0:0:0:
343,327,77349,5,0,0:0:0:0:
453,296,77657,5,2,0:0:0:0:
414,195,78118,5,2,0:0:0:0:
441,107,78426,1,0,3:0:0:0:
388,27,78734,1,2,0:0:0:0:
297,6,79041,1,0,3:0:0:0:
214,38,79349,2,0,L|209:83,3,38.2499988327027,0|0|2|0,3:0|3:0|3:0|3:0,0:0:0:0:
191,99,79657,5,0,3:0:0:0:
235,176,79965,1,2,0:0:0:0:
190,259,80272,1,2,0:0:0:0:
238,338,80580,1,2,0:0:0:0:
276,255,80734,6,0,P|209:229|143:174,1,152.999995330811,6|2,3:2|3:0,0:0:0:0:
26,191,81195,2,0,P|46:145|49:96,1,76.4999976654053,10|0,0:1|3:0,0:0:0:0:
239,65,81503,2,0,P|188:69|147:59,1,76.4999976654053,2|2,3:0|3:0,0:0:0:0:
103,6,81811,2,0,P|127:80|134:179,1,152.999995330811,10|6,0:1|3:2,0:0:0:0:
134,173,82426,5,14,0:3:0:0:
134,173,82503,1,6,0:3:0:0:
134,173,82580,2,0,P|199:188|217:188,1,72.2500013780594,6|6,0:3|3:3,0:0:0:0:
204,188,82888,2,0,L|219:244,1,36.1250006890297,2|0,0:0|0:0,0:0:0:0:
312,261,83041,1,10,0:0:0:0:
312,261,83195,2,0,L|321:208,1,36.1250006890297
407,172,83349,6,0,P|447:159|488:135,1,72.2500013780594,2|0,3:0|0:0,0:0:0:0:
473,144,83580,1,0,0:0:0:0:
473,144,83657,1,8,0:0:0:0:
487,52,83811,1,2,0:0:0:0:
375,78,83965,2,0,P|389:40|393:-8,1,72.2500013780594,2|2,3:0|0:0,0:0:0:0:
289,135,84272,2,0,P|280:96|262:55,1,72.2500013780594,10|0,0:0|0:0,0:0:0:0:
212,218,84580,6,0,P|127:244|56:283,1,144.500002756119,2|14,3:0|0:3,0:0:0:0:
205,314,85041,1,6,0:3:0:0:
205,314,85118,1,6,0:3:0:0:
205,314,85195,1,6,3:3:0:0:
77,269,85349,2,0,L|62:184,1,72.2500013780594,2|10,0:0|0:0,0:0:0:0:
142,142,85657,6,0,L|113:-21,1,144.500002756119,2|2,0:0|0:0,0:0:0:0:
21,56,86118,2,0,P|61:65|99:89,1,72.2500013780594,10|2,0:0|0:0,0:0:0:0:
219,34,86426,2,0,P|250:50|286:58,1,72.2500013780594,2|10,3:0|0:0,0:0:0:0:
293,174,86734,2,0,P|372:139|408:98,1,108.375002067089,10|0,0:0|0:0,0:0:0:0:
387,124,87041,6,0,L|396:74,1,36.1250006890297,6|0,3:2|0:0,0:0:0:0:
473,293,87349,2,0,P|463:338|465:378,1,72.2500013780594,14|6,0:3|0:3,0:0:0:0:
374,280,87657,1,6,3:3:0:0:
374,280,87811,2,0,L|386:226,1,36.1250006890297,2|0,0:0|0:0,0:0:0:0:
370,374,87965,1,10,0:0:0:0:
370,374,88118,2,0,L|313:387,1,36.1250006890297
266,298,88272,6,0,P|213:289|126:210,1,144.500002756119,2|8,3:0|0:0,0:0:0:0:
141,235,88734,1,2,0:0:0:0:
45,254,88888,2,0,P|48:212|70:163,1,72.2500013780594,2|2,3:0|0:0,0:0:0:0:
262,65,89195,6,0,P|296:123|308:218,1,144.500002756119,10|2,0:0|3:0,0:0:0:0:
309,198,89811,2,0,L|224:187,1,72.2500013780594,8|2,0:0|0:0,0:0:0:0:
158,109,90118,1,2,3:0:0:0:
119,211,90272,2,0,P|76:240|36:249,1,72.2500013780594,2|10,0:0|0:0,0:0:0:0:
278,93,90580,6,0,P|322:150|422:204,1,170,6|2,3:2|3:0,0:0:0:0:
305,280,91041,2,0,P|300:222|316:183,1,85,10|2,0:1|3:0,0:0:0:0:
404,80,91349,2,0,P|453:65|489:26,1,85,2|10,3:0|0:1,0:0:0:0:
405,199,91657,1,8,0:1:0:0:
405,199,91965,6,0,P|319:177|266:143,3,136,6|2|2|2,3:2|0:0|3:0|0:0,0:0:0:0:
213,61,93041,1,2,0:0:0:0:
213,61,93195,2,0,P|135:76|110:142,3,136,0|0|0|0,3:0|0:0|3:0|0:0,0:0:0:0:
193,171,94272,1,2,0:0:0:0:
193,171,94426,2,0,P|215:236|222:333,3,136,2|2|2|2,3:0|0:0|3:0|0:0,0:0:0:0:
360,362,95503,1,2,0:0:0:0:
360,362,95657,2,0,P|368:294|389:230,2,136,0|0|0,3:0|0:0|3:0,0:0:0:0:
467,344,96426,1,10,0:1:0:0:
467,344,96503,1,8,0:1:0:0:
467,344,96580,2,0,L|456:286,1,34,0|8,3:0|0:1,0:0:0:0:
490,220,96734,2,0,L|479:162,1,34,10|8,0:1|0:1,0:0:0:0:
394,123,96888,6,0,P|320:135|255:172,1,136,6|10,3:2|0:0,0:0:0:0:
181,105,97349,1,2,3:0:0:0:
181,105,97426,1,8,0:1:0:0:
89,158,97580,1,8,0:1:0:0:
89,158,97657,1,2,3:0:0:0:
0,103,97811,5,10,0:0:0:0:
129,240,97965,2,0,P|141:305|166:386,1,136,2|2,3:0|0:0,0:0:0:0:
325,335,98426,1,10,0:0:0:0:
232,203,98580,1,2,3:0:0:0:
232,203,98657,2,0,P|277:203|307:190,1,68,8|8,0:1|0:1,0:0:0:0:
312,184,98888,1,2,3:0:0:0:
448,210,99041,1,10,0:0:0:0:
472,82,99195,1,6,3:2:0:0:
472,82,99503,5,2,3:0:0:0:
376,127,99657,1,10,0:1:0:0:
372,101,99733,1,8,0:1:0:0:
368,76,99810,1,2,3:0:0:0:
364,51,99887,1,8,0:1:0:0:
360,26,99964,1,2,3:0:0:0:
265,74,100118,1,10,0:1:0:0:
172,22,100272,1,10,0:1:0:0:
172,22,100349,1,8,0:1:0:0:
172,22,100426,2,0,L|154:143,1,118.999996368408,10|0,0:1|3:0,0:0:0:0:
154,139,100811,1,0,0:0:0:0:
154,139,100888,2,0,L|164:189,1,29.7499990921021
88,248,101041,2,0,L|77:297,1,29.7499990921021,2|0,3:0|0:0,0:0:0:0:
136,253,101195,2,0,L|84:263,1,34,6|0,3:0|0:0,0:0:0:0:
79,222,101349,2,0,L|123:247,1,34,2|0,0:0|0:0,0:0:0:0:
115,291,101503,2,0,L|201:264,1,76.4999976654053,6|2,3:1|0:0,0:0:0:0:
304,347,101811,6,0,P|338:234|344:142,1,187.000005706787,6|14,3:2|0:3,0:0:0:0:
412,77,102272,1,6,0:3:0:0:
412,77,102349,1,6,0:3:0:0:
412,77,102426,2,0,P|458:42|505:26,1,93.5000028533936,6|0,3:0|0:0,0:0:0:0:
430,179,102734,1,8,0:0:0:0:
322,148,102888,6,0,P|302:98|297:51,1,93.5000028533936,2|0,0:0|3:0,0:0:0:0:
98,20,103195,2,0,P|118:70|123:117,1,93.5000028533936,2|8,0:0|0:0,0:0:0:0:
311,173,103503,2,0,P|233:229|202:266,1,140.25000428009,2|0,0:0|0:0,0:0:0:0:
204,262,103811,5,2,0:0:0:0:
93,321,103965,1,10,0:0:0:0:
204,262,104118,2,0,P|191:208|186:153,1,93.5000028533936,2|0,0:0|3:0,0:0:0:0:
65,101,104426,1,2,0:0:0:0:
176,159,104580,1,14,0:3:0:0:
65,101,104734,2,0,P|78:46|83:-8,1,93.5000028533936,6|6,0:3|3:0,0:0:0:0:
87,194,105041,1,2,0:0:0:0:
70,200,105195,1,10,0:0:0:0:
53,206,105349,1,2,0:0:0:0:
202,58,105503,6,0,P|248:89|280:138,1,93.5000028533936,2|2,3:0|0:0,0:0:0:0:
382,263,105811,2,0,P|458:252|485:236,1,93.5000028533936,10|2,0:0|0:0,0:0:0:0:
245,223,106118,2,0,P|197:244|162:282,1,93.5000028533936,2|10,3:0|0:0,0:0:0:0:
394,149,106426,2,0,P|410:97|413:52,1,93.5000028533936,10|2,0:0|0:0,0:0:0:0:
290,307,106734,6,0,P|280:204|244:116,1,187.000005706787,4|14,3:2|0:3,0:0:0:0:
124,108,107195,1,6,0:3:0:0:
124,108,107272,1,6,0:3:0:0:
124,108,107349,2,0,P|57:83|28:56,1,93.5000028533936,6|0,3:0|0:0,0:0:0:0:
196,44,107657,1,10,0:0:0:0:
167,197,107811,2,0,P|131:237|79:268,1,93.5000028533936,2|0,0:0|3:0,0:0:0:0:
321,290,108118,2,0,P|324:224|347:166,1,93.5000028533936,2|8,0:0|0:0,0:0:0:0:
213,303,108426,2,0,P|303:328|384:395,1,187.000005706787,2|2,0:0|0:0,0:0:0:0:
482,318,108888,2,0,P|492:272|492:226,1,93.5000028533936,8|2,0:0|0:0,0:0:0:0:
491,120,109195,5,2,3:0:0:0:
382,159,109349,1,2,0:0:0:0:
324,54,109503,1,14,0:3:0:0:
252,145,109657,1,6,0:3:0:0:
125,100,109811,2,0,L|149:207,1,93.5000028533936,6|2,3:0|0:0,0:0:0:0:
50,237,110118,1,10,0:0:0:0:
225,270,110272,6,0,P|289:283|411:342,1,187.000005706787,6|0,3:2|3:0,0:0:0:0:
159,167,110734,2,0,P|228:158|277:133,1,93.5000028533936,8|2,0:1|3:0,0:0:0:0:
452,239,111041,2,0,P|488:267|511:307,1,93.5000028533936,2|10,3:0|3:2,0:0:0:0:
387,105,111349,2,0,P|404:32|419:7,1,93.5000028533936,10|10,0:1|0:1,0:0:0:0:
323,206,111657,6,0,P|282:135|170:49,1,187.000005706787,6|14,3:2|0:3,0:0:0:0:
93,295,112118,1,6,0:3:0:0:
93,295,112195,1,6,0:3:0:0:
93,295,112272,2,0,P|147:270|203:265,1,93.5000028533936,6|2,3:0|0:0,0:0:0:0:
21,211,112580,1,10,0:0:0:0:
133,152,112734,6,0,P|80:126|36:84,1,93.5000028533936,2|0,0:0|3:0,0:0:0:0:
260,218,113041,2,0,P|273:269|274:328,1,93.5000028533936,2|8,0:0|0:0,0:0:0:0:
251,99,113349,2,0,P|321:39|428:6,1,187.000005706787,2|2,0:0|0:0,0:0:0:0:
494,98,113811,1,10,0:0:0:0:
262,115,113965,6,0,P|348:145|431:221,1,187.000005706787,2|6,0:0|0:3,0:0:0:0:
384,324,114426,1,14,0:3:0:0:
253,132,114580,6,0,P|269:222|245:331,1,187.000005706787,2|2,0:0|0:0,0:0:0:0:
148,355,115041,2,0,P|149:303|166:246,1,93.5000028533936,10|2,0:0|0:0,0:0:0:0:
299,212,115349,2,0,P|342:176|367:138,1,93.5000028533936,2|2,3:0|0:0,0:0:0:0:
124,165,115657,2,0,P|81:201|56:239,1,93.5000028533936,10|2,0:0|0:0,0:0:0:0:
346,289,115965,2,0,P|402:297|450:295,1,93.5000028533936,2|10,3:0|0:0,0:0:0:0:
178,72,116272,2,0,P|122:64|74:66,1,93.5000028533936,10|2,0:0|0:0,0:0:0:0:
361,83,116580,6,0,P|298:123|209:226,1,187.000005706787,4|14,3:2|0:3,0:0:0:0:
206,330,117041,1,6,0:3:0:0:
94,293,117195,2,0,P|51:261|21:207,1,93.5000028533936,6|2,3:0|0:0,0:0:0:0:
226,336,117503,1,10,0:0:0:0:
121,169,117657,6,0,P|126:112|150:60,1,93.5000028533936,2|0,0:0|3:0,0:0:0:0:
411,7,117965,2,0,P|369:58|327:85,1,93.5000028533936,2|8,0:0|0:0,0:0:0:0:
240,42,118272,2,0,P|317:103|374:213,1,187.000005706787,2|2,0:0|0:0,0:0:0:0:
402,296,118734,2,0,P|438:266|465:228,1,93.5000028533936,8|2,0:0|0:0,0:0:0:0:
455,376,119041,5,6,3:0:0:0:
329,325,119195,1,6,0:3:0:0:
301,206,119349,1,14,0:3:0:0:
193,157,119503,1,2,0:0:0:0:
140,43,119657,2,0,L|45:4,1,93.5000028533936,2|2,3:0|0:0,0:0:0:0:
250,57,119965,1,10,0:0:0:0:
101,136,120118,6,0,P|68:220|60:330,1,187.000005706787,6|0,3:2|3:0,0:0:0:0:
247,384,120580,2,0,P|292:354|342:343,1,93.5000028533936,8|2,0:1|3:0,0:0:0:0:
231,205,120888,2,0,P|199:245|186:287,1,93.5000028533936,10|10,3:2|3:2,0:0:0:0:
484,355,121195,2,0,P|452:318|437:267,1,93.5000028533936,8|10,0:1|0:1,0:0:0:0:
343,202,121503,6,0,L|324:273,1,46.7500014266968,6|0,3:2|0:0,0:0:0:0:
512,111,121811,1,10,0:0:0:0:
438,183,121965,2,0,L|412:71,1,89.2499972763062,2|0,3:0|0:0,0:0:0:0:
396,88,122272,2,0,L|380:22,1,59.4999981842042,2|10,3:0|0:0,0:0:0:0:
290,75,122580,6,0,L|156:52,1,118.999996368408,2|2,3:0|3:0,0:0:0:0:
172,54,123041,1,8,0:0:0:0:
347,162,123195,2,0,L|211:192,1,118.999996368408,2|2,3:0|3:0,0:0:0:0:
115,161,123657,2,0,L|69:228,1,59.4999981842042,8|2,0:0|3:0,0:0:0:0:
214,305,123965,6,0,L|233:167,1,118.999996368408,2|10,3:0|0:0,0:0:0:0:
343,340,124426,2,0,L|326:273,1,59.4999981842042,2|2,3:0|0:0,0:0:0:0:
469,265,124734,2,0,L|417:224,1,59.4999981842042,2|10,3:0|0:0,0:0:0:0:
510,136,125041,2,0,L|375:107,2,118.999996368408,2|0|0,3:0|3:0|3:0,0:0:0:0:
352,30,125811,1,0,3:0:0:0:
