osu file format v14

[General]
AudioFilename: audio.mp3
AudioLeadIn: 0
PreviewTime: 49311
Countdown: 0
SampleSet: Soft
StackLeniency: 1
Mode: 0
LetterboxInBreaks: 0
WidescreenStoryboard: 0

[Editor]
DistanceSpacing: 0.6
BeatDivisor: 4
GridSize: 4
TimelineZoom: 2.499999

[Metadata]
Title:Lose The Princess
TitleUnicode:さよならプリンセス
Artist:Kai
ArtistUnicode:Kai
Creator:Ryuusei Aika
Version:'-w-'
Source:
Tags:meiqth pnky Ralkinson Astrolis LimeTwist Sayonara Goodbye Japanese Electronic Pop J-Pop JPop 初音ミク Hatsune Miku Vocaloid ボーカロイド akuya
BeatmapID:3696402
BeatmapSetID:1802635

[Difficulty]
HPDrainRate:5.5
CircleSize:4
OverallDifficulty:8.5
ApproachRate:9.2
SliderMultiplier:2
SliderTickRate:1

[Events]
//Background and Video events
0,0,"bg.jpg",0,0
//Break Periods
//Storyboard Layer 0 (Background)
//Storyboard Layer 1 (Fail)
//Storyboard Layer 2 (Pass)
//Storyboard Layer 3 (Foreground)
//Storyboard Layer 4 (Overlay)
//Storyboard Sound Samples

[TimingPoints]
-4035,307.692307692308,4,2,1,40,1,0
118,-200,4,2,1,40,0,0
888,-125,4,2,1,50,0,0
5811,-111.111111111111,4,2,1,60,0,0
8272,-166.666666666666,4,2,1,60,0,0
9965,-142.857142857142,4,2,1,60,0,0
10426,-100,4,2,1,60,0,0
10734,-80,4,2,1,70,0,0
11041,-28.5714285714286,4,2,2,70,0,0
11118,-57.1428571428571,4,2,2,70,0,0
11349,-80,4,2,2,70,0,0
11657,-80,4,2,1,70,0,0
11811,-100,4,2,1,70,0,0
13503,-28.5714285714286,4,2,2,70,0,0
13580,-66.6666666666667,4,2,2,70,0,0
13811,-80,4,2,2,70,0,0
14118,-80,4,2,1,70,0,0
14272,-100,4,2,1,70,0,0
15657,-80,4,2,1,70,0,0
15888,-57.1428571428571,4,2,1,70,0,0
15965,-57.1428571428571,4,2,2,70,0,0
16118,-36.3636363636364,4,2,2,70,0,0
16272,-80,4,2,2,70,0,0
16580,-80,4,2,1,70,0,0
16734,-100,4,2,1,70,0,0
18349,-57.1428571428571,4,2,1,70,0,0
18426,-57.1428571428571,4,2,2,70,0,0
18503,-36.3636363636364,4,2,2,70,0,0
18580,-57.1428571428571,4,2,2,70,0,0
18657,-36.3636363636364,4,2,2,70,0,0
18734,-80,4,2,2,70,0,0
19041,-80,4,2,1,70,0,0
19195,-100,4,2,1,70,0,0
20888,-133.333333333333,4,2,2,50,0,0
21503,-133.333333333333,4,2,1,50,0,0
23349,-133.333333333333,4,2,2,50,0,0
23965,-133.333333333333,4,2,1,50,0,0
24118,-99.9999999999999,4,2,1,50,0,0
25811,-133.333333333333,4,2,2,50,0,0
26426,-133.333333333333,4,2,1,50,0,0
28734,-100,4,2,1,50,0,0
29041,-100,4,2,1,55,0,0
29503,-66.6666666666667,4,2,1,55,0,0
29811,-100,4,2,1,55,0,0
30426,-100,4,2,1,60,0,0
30734,-100,4,2,2,50,0,0
31041,-80,4,2,2,50,0,0
31195,-200,4,2,2,50,0,0
31349,-133.333333333333,4,2,1,50,0,0
31503,-200,4,2,1,50,0,0
32118,-133.333333333333,4,2,1,50,0,0
32426,-80,4,2,1,50,0,0
33195,-100,4,2,2,50,0,0
33503,-66.6666666666667,4,2,2,50,0,0
33811,-50,4,2,1,50,0,0
33965,-100,4,2,1,50,0,0
34272,-66.6666666666667,4,2,1,50,0,0
34580,-100,4,2,1,50,0,0
35657,-80,4,2,2,50,0,0
36272,-80,4,2,1,50,0,0
37503,-100,4,2,1,50,0,0
37811,-66.6666666666667,4,2,1,50,0,0
38272,-25,4,2,1,50,0,0
38888,-50,4,2,1,60,0,0
39195,-100,4,2,1,60,0,0
39349,-66.6666666666667,4,2,1,60,0,0
39657,-100,4,2,1,60,0,0
40272,-200,4,2,1,60,0,0
40580,-200,4,2,1,50,0,0
42734,-100,4,2,1,50,0,0
44580,-200,4,2,1,50,0,0
44734,-57.1428571428571,4,2,1,50,0,0
45195,-100,4,2,1,60,0,0
46272,-89.2857142857143,4,2,1,60,0,0
46888,-80,4,2,1,60,0,0
47195,-89.2857142857143,4,2,1,60,0,0
47657,-100,4,2,1,60,0,0
47965,-114.942528735632,4,2,1,60,0,0
48734,-133.333333333333,4,2,1,60,0,0
49349,-114.942528735632,4,2,1,60,0,0
49657,-100,4,2,1,60,0,0
50118,-83.3333333333333,4,2,1,80,0,1
50426,-83.3333333333333,4,2,2,80,0,1
51041,-83.3333333333333,4,2,1,80,0,1
52888,-83.3333333333333,4,2,2,80,0,1
53349,-100,4,2,2,80,0,1
53503,-100,4,2,1,80,0,1
53811,-83.3333333333333,4,2,1,80,0,1
54426,-66.6666666666667,4,2,1,80,0,1
54734,-83.3333333333333,4,2,1,80,0,1
55349,-83.3333333333333,4,2,2,80,0,1
55965,-83.3333333333333,4,2,1,80,0,1
57195,-100,4,2,1,80,0,1
57811,-100,4,2,2,80,0,1
57965,-83.3333333333333,4,2,2,80,0,1
58426,-83.3333333333333,4,2,1,80,0,1
58580,-66.6666666666667,4,2,1,80,0,1
58888,-83.3333333333333,4,2,1,80,0,1
60272,-83.3333333333333,4,2,2,80,0,1
60888,-83.3333333333333,4,2,1,80,0,1
62734,-83.3333333333333,4,2,2,80,0,1
63195,-100,4,2,2,80,0,1
63349,-100,4,2,1,80,0,1
63657,-83.3333333333333,4,2,1,80,0,1
64272,-66.6666666666667,4,2,1,80,0,1
64580,-83.3333333333333,4,2,1,80,0,1
65195,-83.3333333333333,4,2,2,80,0,1
65811,-83.3333333333333,4,2,1,80,0,1
67349,-100,4,2,1,80,0,1
67657,-100,4,2,2,80,0,1
67965,-83.3333333333333,4,2,2,80,0,1
68272,-83.3333333333333,4,2,1,80,0,1
68426,-50,4,2,1,80,0,1
68811,-83.3333333333333,4,2,1,80,0,1
69349,-66.6666666666667,4,2,1,80,0,1
69811,-100,4,2,1,80,0,0
72272,-133.333333333333,4,2,1,45,0,0
75041,-133.333333333333,4,2,2,45,0,0
75657,-133.333333333333,4,2,1,45,0,0
77503,-133.333333333333,4,2,2,45,0,0
77695,-133.333333333333,4,2,1,45,0,0
78118,-133.333333333333,4,2,1,45,0,0
79349,-80,4,2,1,45,0,0
79657,-133.333333333333,4,2,1,45,0,0
80734,-66.6666666666667,4,2,1,55,0,0
81195,-66.6666666666667,4,2,1,60,0,0
81503,-100,4,2,1,60,0,0
82426,-80,4,2,2,55,0,0
83041,-80,4,2,1,55,0,0
83811,-66.6666666666667,4,2,1,55,0,0
84580,-80,4,2,1,55,0,0
84888,-66.6666666666667,4,2,2,55,0,0
85195,-61.7283950617284,4,2,2,55,0,0
85349,-72.992700729927,4,2,2,55,0,0
85503,-72.992700729927,4,2,1,55,0,0
85657,-33.868454921088,4,2,1,55,0,0
85965,-62.4999999999949,4,2,1,55,0,0
87041,-66.6666666666667,4,2,1,55,0,0
87349,-100,4,2,2,55,0,0
87503,-114.942528735632,4,2,2,55,0,0
87657,-100,4,2,2,55,0,0
87965,-100,4,2,1,55,0,0
88734,-66.6666666666667,4,2,1,55,0,0
89041,-100,4,2,1,55,0,0
89811,-80,4,2,1,55,0,0
90580,-66.6666666666667,4,2,1,55,0,0
91041,-44.4444444444445,4,2,1,55,0,0
91272,-66.6666666666667,4,2,1,55,0,0
91965,-80,4,2,1,50,0,0
92580,-100,4,2,1,50,0,0
93195,-80,4,2,1,50,0,0
93810,-100,4,2,1,50,0,0
95657,-80,4,2,1,50,0,0
96272,-66.6666666666667,4,2,1,50,0,0
96426,-80,4,2,1,50,0,0
96888,-100,4,2,1,60,0,0
97965,-89.2857142857143,4,2,1,60,0,0
98580,-80,4,2,1,60,0,0
98888,-89.2857142857143,4,2,1,60,0,0
99195,-100,4,2,1,60,0,0
100426,-66.6666666666667,4,2,1,60,0,0
100656,-66.6666666666667,4,2,2,60,0,0
100734,-50,4,2,1,60,0,0
101041,-33.8684549210816,4,2,1,60,0,0
101195,-19.6078431372549,4,2,1,60,0,0
101349,-57.1428571428571,4,2,1,60,0,0
101503,-28.5714285714286,4,2,1,60,0,0
101657,-100,4,2,1,60,0,0
101811,-83.3333333333333,4,2,1,80,0,1
102118,-83.3333333333333,4,2,2,80,0,1
102734,-83.3333333333333,4,2,1,80,0,1
104580,-83.3333333333333,4,2,2,80,0,1
105041,-100,4,2,2,80,0,1
105195,-100,4,2,1,80,0,1
105503,-83.3333333333333,4,2,1,80,0,1
106118,-66.6666666666667,4,2,1,80,0,1
106426,-83.3333333333333,4,2,1,80,0,1
107041,-83.3333333333333,4,2,2,80,0,1
107657,-83.3333333333333,4,2,1,80,0,1
109041,-100,4,2,1,80,0,1
109503,-100,4,2,2,80,0,1
109657,-83.3333333333333,4,2,2,80,0,1
110118,-83.3333333333333,4,2,1,80,0,1
110272,-66.6666666666667,4,2,1,80,0,1
110580,-83.3333333333333,4,2,1,80,0,1
110734,-83.3333333333333,4,2,1,85,0,1
111195,-80,4,2,1,85,0,1
111657,-76.9230769230769,4,2,1,90,0,1
111965,-76.9230769230769,4,2,2,90,0,1
112580,-76.9230769230769,4,2,1,90,0,1
114118,-76.9230769230769,4,2,2,90,0,1
114734,-76.9230769230769,4,2,1,90,0,1
114888,-90.9090909090909,4,2,1,90,0,1
115349,-76.9230769230769,4,2,1,90,0,1
115965,-62.5,4,2,1,90,0,1
116272,-76.9230769230769,4,2,1,90,0,1
116888,-76.9230769230769,4,2,2,90,0,1
117503,-76.9230769230769,4,2,1,90,0,1
119041,-76.9230769230769,4,2,2,90,0,1
119657,-76.9230769230769,4,2,1,90,0,1
120118,-62.5,4,2,1,90,0,1
120426,-76.9230769230769,4,2,1,90,0,1
121041,-100,4,2,1,90,0,1
121503,-133.333333333333,4,2,1,50,0,0
124426,-66.6666666666667,4,2,1,50,0,0
125041,-100,4,2,1,50,0,0
125811,-33.3333333333333,4,2,1,50,0,0
125888,-33.3333333333333,4,2,1,5,0,0

[Colours]
Combo1 : 223,0,112
Combo2 : 223,0,223

[HitObjects]
512,384,118,5,2,0:0:0:0:
464,286,272,1,2,0:0:0:0:
464,286,426,2,0,L|455:337,2,50,2|2|2,0:0|0:0|0:0,0:0:0:0:
157,373,888,6,0,P|199:316|293:338,1,160,2|10,3:0|0:0,0:0:0:0:
392,221,1349,2,0,L|386:261,1,40,8|0,3:2|0:0,0:0:0:0:
384,276,1503,1,2,0:0:0:0:
235,237,1657,2,0,L|314:225,1,80,2|10,3:0|0:0,0:0:0:0:
244,137,1965,2,0,P|230:194|123:189,1,160,2|2,3:0|0:0,0:0:0:0:
292,77,2426,1,8,0:0:0:0:
104,9,2580,1,10,0:0:0:0:
104,9,2888,5,2,3:0:0:0:
45,67,3041,1,10,0:0:0:0:
51,149,3195,1,2,0:0:0:0:
241,39,3503,5,2,0:0:0:0:
160,59,3657,2,0,P|146:73|132:110,1,40,10|0,0:0|0:0,0:0:0:0:
125,133,3810,1,10,3:2:0:0:
344,133,4118,5,2,3:0:0:0:
264,110,4271,1,10,0:0:0:0:
197,156,4426,1,2,3:0:0:0:
291,272,4580,6,0,P|284:233|304:187,1,80,2|2,3:0|0:0,0:0:0:0:
441,182,4888,2,0,P|402:189|371:214,1,80,10|10,0:0|0:0,0:0:0:0:
371,214,5118,1,0,0:0:0:0:
371,214,5195,5,2,0:0:0:0:
329,339,5349,1,2,3:0:0:0:
233,379,5503,1,10,0:0:0:0:
153,384,5657,2,0,P|139:367|135:326,1,40,2|0,0:0|0:0,0:0:0:0:
69,291,5811,6,0,L|51:379,1,89.9999972534181,4|0,3:2|0:0,0:0:0:0:
84,216,6118,2,0,P|98:197|132:185,1,44.999998626709,8|0,0:0|0:0,0:0:0:0:
265,204,6272,1,10,3:2:0:0:
276,216,6349,1,0,0:0:0:0:
284,233,6426,5,2,0:0:0:0:
192,181,6580,1,2,3:0:0:0:
207,75,6734,1,10,0:0:0:0:
364,122,6888,6,0,L|301:126,1,44.999998626709,2|0,3:0|0:0,0:0:0:0:
299,127,7041,1,0,3:0:0:0:
340,5,7195,2,0,P|326:22|322:44,1,44.999998626709,2|0,0:0|0:0,0:0:0:0:
321,44,7349,1,8,0:0:0:0:
77,35,7503,6,0,P|115:59|132:100,1,89.9999972534181,10|0,0:0|0:0,0:0:0:0:
247,292,7811,2,0,L|264:204,1,89.9999972534181,2|8,3:0|0:0,0:0:0:0:
445,115,8118,1,2,0:0:0:0:
512,163,8272,5,2,3:0:0:0:
423,216,8426,1,2,3:0:0:0:
335,269,8580,2,0,L|329:298,1,29.9999990844727,2|0,0:0|0:0,0:0:0:0:
326,311,8734,2,0,P|372:318|415:287,1,89.9999972534181,2|0,3:0|0:0,0:0:0:0:
407,296,9041,1,2,3:0:0:0:
94,256,9349,5,2,3:0:0:0:
27,96,9657,1,0,3:0:0:0:
65,32,9811,5,0,3:0:0:0:
65,32,9888,1,0,3:0:0:0:
65,32,9965,2,0,P|75:37|90:76,1,34.9999989318848,0|0,3:0|0:0,0:0:0:0:
0,219,10118,2,0,P|9:212|50:219,1,34.9999989318848,0|0,3:0|0:0,0:0:0:0:
174,251,10272,5,8,0:0:0:0:
156,89,10426,2,0,P|141:126|142:212,1,100,10|0,0:0|0:0,0:0:0:0:
318,327,10734,5,6,3:2:0:0:
425,160,10888,2,0,B|396:151|396:151|366:163,1,62.5,2|0,0:0|0:0,0:0:0:0:
277,195,11041,6,0,B|281:220|281:220|273:231|273:231|263:228|263:228|261:214|261:214|277:195,1,87.500000834465,14|0,0:3|0:0,0:0:0:0:
270,181,11118,6,0,L|218:165,1,43.7500004172325,6|0,0:3|0:0,0:0:0:0:
284,174,11195,2,0,L|300:122,1,43.7500004172325,6|0,0:3|0:0,0:0:0:0:
291,188,11272,2,0,L|343:204,1,43.7500004172325,6|0,0:3|0:0,0:0:0:0:
280,184,11349,6,0,L|247:304,1,125,6|2,3:0|0:0,0:0:0:0:
174,281,11580,2,0,P|165:250|190:214,1,62.5,0|10,0:0|0:0,0:0:0:0:
332,2,11811,6,0,L|318:50,1,50,2|0,0:0|0:0,0:0:0:0:
232,85,11965,1,0,3:0:0:0:
214,93,12041,1,0,0:0:0:0:
194,95,12118,1,2,0:0:0:0:
0,0,12272,6,0,P|51:27|58:98,1,100,8|2,0:0|0:0,0:0:0:0:
57,89,12503,1,0,0:0:0:0:
48,113,12580,2,0,P|29:134|5:145,1,50,0|0,3:0|0:0,0:0:0:0:
139,39,12734,6,0,L|153:-9,1,50,2|0,0:0|0:0,0:0:0:0:
107,163,12888,2,0,L|121:211,1,50,10|0,0:0|0:0,0:0:0:0:
127,230,13041,1,2,0:0:0:0:
133,249,13118,1,0,0:0:0:0:
139,268,13195,6,0,P|183:287|229:271,1,100,0|2,3:0|0:0,0:0:0:0:
305,211,13426,1,0,0:0:0:0:
326,206,13503,6,0,B|301:202|301:202|290:210|290:210|293:220|293:220|307:222|307:222|326:206,1,87.500000834465,14|0,0:3|0:0,0:0:0:0:
339,193,13580,6,0,L|329:150,1,37.5000014305115,6|0,0:3|0:0,0:0:0:0:
355,203,13657,2,0,L|364:245,1,37.5000014305115,6|0,0:3|0:0,0:0:0:0:
368,190,13734,2,0,L|404:182,1,37.5000014305115,6|0,0:3|0:0,0:0:0:0:
423,178,13811,5,6,3:0:0:0:
377,376,13965,6,0,P|368:345|393:309,1,62.5,2|0,0:0|0:0,0:0:0:0:
493,225,14118,1,10,0:0:0:0:
493,225,14195,1,0,0:0:0:0:
493,225,14272,2,0,L|502:176,1,50,2|0,0:0|0:0,0:0:0:0:
508,156,14426,6,0,P|503:143|475:128,1,25,2|0,3:0|0:0,0:0:0:0:
403,67,14580,1,2,0:0:0:0:
256,37,14734,2,0,P|232:28|186:27,1,50,10|0,0:0|0:0,0:0:0:0:
78,26,14888,1,2,0:0:0:0:
63,33,14965,1,0,0:0:0:0:
55,47,15041,5,2,3:0:0:0:
188,100,15195,2,0,P|212:109|258:110,1,50,10|0,0:0|0:0,0:0:0:0:
196,259,15349,2,0,P|172:250|126:249,1,50,10|0,0:0|0:0,0:0:0:0:
75,266,15503,1,2,0:0:0:0:
59,279,15580,1,0,0:0:0:0:
58,299,15657,6,0,P|45:222|71:183,1,125,6|2,3:2|0:0,0:0:0:0:
181,177,15888,1,0,0:0:0:0:
192,180,15965,6,0,L|257:196,1,43.7500004172325,14|0,0:3|0:0,0:0:0:0:
248,195,16041,2,0,L|290:205,1,43.7500004172325,6|0,0:3|0:0,0:0:0:0:
304,210,16118,6,0,P|329:211|307:198,1,68.7500006556511,6|0,0:3|0:0,0:0:0:0:
360,225,16195,2,0,P|385:226|363:213,1,68.7500006556511,6|0,0:3|0:0,0:0:0:0:
373,229,16272,6,0,L|494:258,1,125,6|2,3:0|0:0,0:0:0:0:
502,295,16503,1,0,0:0:0:0:
510,332,16580,1,10,0:0:0:0:
425,69,16734,6,0,P|408:85|404:120,1,50,2|0,0:0|0:0,0:0:0:0:
402,142,16888,2,0,P|443:143|492:102,1,100,2|2,3:0|0:0,0:0:0:0:
229,13,17195,2,0,P|248:49|308:70,1,100,10|2,0:0|0:0,0:0:0:0:
321,67,17426,1,2,0:0:0:0:
342,54,17503,5,2,3:0:0:0:
179,84,17657,1,2,0:0:0:0:
37,210,17811,1,10,0:0:0:0:
7,346,17965,2,0,L|18:286,1,50,2|0,0:0|0:0,0:0:0:0:
141,229,18118,6,0,P|114:253|107:329,1,100,0|2,3:0|0:0,0:0:0:0:
176,297,18349,1,0,0:0:0:0:
185,300,18426,6,0,L|227:310,1,43.7500004172325,14|0,0:3|0:0,0:0:0:0:
241,315,18503,2,0,P|266:316|244:303,1,68.7500006556511,6|0,0:3|0:0,0:0:0:0:
297,330,18580,6,0,L|339:340,1,43.7500004172325,6|0,0:3|0:0,0:0:0:0:
353,345,18657,2,0,P|378:346|356:333,1,68.7500006556511,6|0,0:3|0:0,0:0:0:0:
366,349,18734,6,0,L|487:378,1,125,6|2,3:0|0:0,0:0:0:0:
487,378,18965,1,0,0:0:0:0:
487,378,19041,1,10,0:0:0:0:
483,357,19118,1,0,0:0:0:0:
485,325,19195,2,0,P|496:298|512:286,1,50,2|0,0:0|0:0,0:0:0:0:
416,261,19349,6,0,L|388:254,1,25,2|0,3:0|0:0,0:0:0:0:
281,226,19503,1,2,0:0:0:0:
139,177,19657,2,0,P|110:156|99:132,1,50,10|0,0:0|0:0,0:0:0:0:
43,30,19811,1,2,0:0:0:0:
34,17,19888,1,0,0:0:0:0:
29,1,19965,5,2,3:0:0:0:
193,91,20118,2,0,P|208:123|205:149,1,50,10|0,0:0|0:0,0:0:0:0:
138,347,20272,2,0,P|123:315|126:289,1,50,10|0,0:0|0:0,0:0:0:0:
170,247,20426,1,2,0:0:0:0:
176,242,20502,1,0,0:0:0:0:
182,237,20580,6,0,L|294:225,1,100,6|2,3:2|0:0,0:0:0:0:
46,368,20888,1,6,3:0:0:0:
40,357,21195,5,6,3:0:0:0:
144,357,21349,1,0,0:0:0:0:
34,346,21503,1,2,3:0:0:0:
144,357,21657,1,2,0:0:0:0:
28,335,21811,5,2,3:0:0:0:
22,324,22118,5,2,3:0:0:0:
108,195,22426,6,0,L|54:261,1,75.0000028610231,2|2,3:0|0:0,0:0:0:0:
16,313,22734,5,2,3:0:0:0:
60,253,22888,1,2,0:0:0:0:
56,74,23041,6,0,L|68:0,1,75.0000028610231,2|2,3:0|0:0,0:0:0:0:
21,100,23349,2,0,P|34:89|64:90,3,37.5000014305115,6|6|6|6,3:0|0:3|0:3|0:3,0:0:0:0:
65,89,23657,1,6,3:0:0:0:
156,49,23811,1,0,0:0:0:0:
156,49,24118,6,0,L|156:204,1,150,2|0,0:0|0:0,0:0:0:0:
156,275,24426,2,0,P|184:302|211:346,1,75,2|0,1:2|0:0,0:0:0:0:
202,342,24580,2,0,P|239:331|290:329,1,75,2|0,3:0|0:0,0:0:0:0:
283,335,24734,2,0,P|292:297|316:251,1,75,2|0,1:2|0:0,0:0:0:0:
317,261,24888,2,0,P|289:234|261:190,1,75,2|0,3:0|0:0,0:0:0:0:
269,194,25041,2,0,P|231:204|180:206,1,75,0|0,1:0|0:0,0:0:0:0:
187,202,25195,2,0,P|177:239|139:303,2,100,2|2|2,3:0|1:2|3:0,0:0:0:0:
187,202,26272,5,2,0:0:0:0:
256,192,26580,1,2,0:0:0:0:
256,192,27349,5,0,3:0:0:0:
325,202,27965,1,0,3:0:0:0:
325,202,28734,6,0,B|242:151|242:151|208:214,1,150,2|0,0:0|0:0,0:0:0:0:
120,115,29041,2,0,L|180:108,1,50,6|0,3:2|0:0,0:0:0:0:
323,90,29195,2,0,L|383:83,1,50,2|0,3:0|0:0,0:0:0:0:
444,114,29349,6,0,P|453:131|443:179,1,50,2|0,1:2|0:0,0:0:0:0:
402,345,29503,6,0,B|365:354|392:331|333:346,3,50.0000019073487,10|8|8|2,1:0|0:1|0:1|3:0,0:0:0:0:
455,271,29734,1,8,1:0:0:0:
458,261,29811,2,0,L|408:266,1,50,2|8,3:0|1:0,0:0:0:0:
315,277,29965,2,0,L|265:282,1,50,2|0,3:0|0:0,0:0:0:0:
168,311,30118,5,10,1:0:0:0:
155,289,30195,1,8,1:0:0:0:
177,276,30272,1,8,1:0:0:0:
189,298,30349,1,8,1:0:0:0:
223,217,30426,6,0,L|123:227,1,100,6|0,3:2|0:0,0:0:0:0:
126,121,30657,1,0,0:0:0:0:
126,121,30734,2,0,P|103:131|79:126,1,50,14|6,0:3|0:3,0:0:0:0:
203,112,30888,2,0,P|228:117|253:103,1,50,6|6,0:3|0:3,0:0:0:0:
324,94,31041,6,0,B|349:75|349:75|360:104,1,62.5,6|0,3:0|0:0,0:0:0:0:
422,34,31195,2,0,L|435:59,1,25,2|0,0:0|0:0,0:0:0:0:
477,135,31349,2,0,P|488:148|473:138,1,37.5000014305115,10|0,0:0|0:0,0:0:0:0:
322,1,31503,2,0,L|296:14,1,25
288,19,31657,5,2,3:0:0:0:
174,21,31811,1,2,0:0:0:0:
185,26,31888,1,2,0:0:0:0:
196,32,31965,1,8,0:0:0:0:
182,167,32118,6,0,L|158:202,1,37.5000014305115,2|0,0:0|0:0,0:0:0:0:
187,192,32272,2,0,L|156:172,1,37.5000014305115,2|0,3:0|0:0,0:0:0:0:
62,123,32426,2,0,B|93:130|93:130|64:147,1,62.5,2|0,0:0|0:0,0:0:0:0:
255,109,32580,2,0,B|224:102|224:102|251:87,2,62.5,10|0|0,0:0|0:0|0:0,0:0:0:0:
326,154,32811,5,0,0:0:0:0:
338,189,32888,1,2,3:0:0:0:
338,189,33195,6,0,L|355:245,1,50,14|6,0:3|0:3,0:0:0:0:
259,211,33349,2,0,L|275:258,1,50,6|6,0:3|0:3,0:0:0:0:
325,344,33503,2,0,P|415:286|429:250,2,150.000005722046,6|2|8,3:0|0:0|0:0,0:0:0:0:
253,367,33888,1,0,0:0:0:0:
253,367,33965,2,0,B|203:380,1,50,2|0,0:0|0:0,0:0:0:0:
49,256,34272,6,0,B|88:245|88:245|145:341,1,150.000005722046,2|10,0:0|0:0,0:0:0:0:
89,157,34580,2,0,B|137:142,1,50,2|0,0:0|0:0,0:0:0:0:
236,111,34734,2,0,B|284:96,1,50,2|0,3:0|0:0,0:0:0:0:
202,221,34888,2,0,P|188:236|191:219,1,50,10|0,0:0|0:0,0:0:0:0:
369,166,35041,2,0,B|330:179|330:179|338:287,1,150.000005722046,10|0,0:0|0:0,0:0:0:0:
311,264,35349,2,0,B|361:273,1,50,6|0,3:2|0:0,0:0:0:0:
503,66,35657,6,0,P|488:49|495:71,1,62.5,14|6,0:3|0:3,0:0:0:0:
336,8,35811,2,0,P|359:5|340:17,1,62.5,6|6,0:3|0:3,0:0:0:0:
334,94,35965,2,0,B|358:119|387:119|387:119|410:142|445:135,1,125,6|2,3:0|0:0,0:0:0:0:
200,0,36272,6,1,B|235:-19|245:-2|290:-3|278:45|213:-5|215:2|218:28|223:38,1,125,10|0,0:0|0:0,0:0:0:0:
218,123,36503,1,0,0:0:0:0:
207,128,36580,2,0,P|229:115|217:135,1,62.5,2|0,3:0|0:0,0:0:0:0:
185,208,36734,2,0,B|154:206|154:206|125:217,1,62.5
65,159,36888,2,0,P|66:133|76:154,1,62.5,8|0,0:0|0:0,0:0:0:0:
189,212,37041,6,0,P|166:241|133:257,1,62.5,2|0,0:0|0:0,0:0:0:0:
247,293,37195,2,0,P|274:279|305:277,1,62.5,2|0,3:0|0:0,0:0:0:0:
320,179,37349,2,0,P|347:193|378:195,1,62.5,2|0,0:0|0:0,0:0:0:0:
454,94,37503,2,0,L|430:159,1,50,10|0,0:0|0:0,0:0:0:0:
414,112,37657,2,0,L|479:135,1,50
494,231,37811,6,0,B|473:300|473:300|499:307|499:307|479:369,1,150.000005722046,2|0,3:0|0:0,0:0:0:0:
483,355,38118,1,8,0:0:0:0:
381,320,38272,22,1,B|377:303|399:303|399:303|391:307|394:312|394:312|393:314|390:314|390:314|400:315|404:325|404:325|401:323|400:324|400:324|396:328|391:327|391:327|388:325|385:327|385:327|382:323|382:323|382:322|382:322|381:322|381:322|383:323|383:323|383:323|383:323|370:311|359:331|359:331|366:326|369:331|369:331|371:331|373:329|373:329|369:338|376:346|376:346|375:342|377:341|377:341|382:340|384:335|384:335|384:332|387:330|387:330|385:326|385:326|384:325|384:325|384:324|384:324|385:327|385:327|378:315,1,200,2|0,0:0|0:0,0:0:0:0:
272,276,38426,6,1,B|270:261|288:256|288:256|283:259|285:263|285:263|282:266|285:270|285:270|283:272|280:273|280:273|289:274|294:284|294:284|290:280|288:281|288:281|285:284|281:284|281:284|278:281|275:282|275:282|273:279|273:279|273:278|273:278|263:266|247:277|247:277|253:276|254:279|254:279|258:279|259:284|259:284|263:284|265:282|265:282|260:289|264:300|264:300|264:295|266:294|266:294|270:294|273:290|273:290|273:286|276:285|276:285|274:281|274:281|274:280|274:280|274:279|274:279|274:279|274:279|274:280|274:280|272:276,1,200,2|0,3:0|0:0,0:0:0:0:
178,184,38580,6,1,B|178:168|196:163|196:163|192:167|193:169|193:169|193:172|193:172|190:175|193:180|193:180|190:182|187:182|187:182|196:184|199:193|199:193|196:191|194:192|194:192|190:194|186:193|186:193|183:190|180:191|180:191|180:190|180:190|179:189|179:189|179:188|179:188|179:187|179:187|170:173|153:178|153:178|158:180|158:182|158:182|159:185|159:185|164:185|164:191|164:191|167:191|170:189|170:189|163:196|165:206|165:206|166:203|169:202|169:202|173:202|177:199|177:199|177:195|180:194|180:194|180:193|180:193|180:192|180:192|180:191|180:191|179:190|179:190|179:189|179:189|179:188|179:188|178:186,1,200,2|0,0:0|0:0,0:0:0:0:
118,33,38734,6,1,B|121:17|139:17|139:17|135:19|135:21|135:21|135:25|135:25|131:27|133:32|133:32|130:33|127:32|127:32|135:37|138:46|138:46|135:44|132:44|132:44|127:45|124:43|124:43|122:40|118:40|118:40|119:39|119:39|118:38|118:38|118:37|118:37|118:36|118:36|118:36|118:36|113:20|96:22|96:22|99:24|100:26|100:26|100:29|100:29|104:31|103:36|103:36|106:37|109:36|109:36|101:41|100:51|100:51|102:48|106:48|106:48|110:49|113:47|113:47|115:43|118:43|118:43|118:42|118:42|118:41|118:41|118:40|118:40|118:39|118:39|118:37|118:37|118:31,1,200,10|0,0:0|0:0,0:0:0:0:
126,38,38888,6,1,B|151:32|191:30|196:50|196:50|200:69|161:85|136:90|136:90|109:95|69:97|65:78|65:78|60:58|98:43|126:38,1,300,6|0,3:2|0:0,0:0:0:0:
76,124,39195,2,0,L|37:174,1,50,2|0,0:0|0:0,0:0:0:0:
203,88,39349,2,0,L|261:115,3,50,10|8|8|2,0:1|0:1|0:1|3:0,0:0:0:0:
261,29,39580,1,8,0:1:0:0:
261,29,39657,6,0,L|343:8,1,50,2|8,3:0|0:1,0:0:0:0:
256,192,39811,2,0,L|242:240,1,50,10|0,0:1|0:0,0:0:0:0:
204,361,39965,1,8,0:1:0:0:
236,262,40118,1,10,0:1:0:0:
36,325,40272,5,6,3:2:0:0:
125,303,40734,1,2,3:0:0:0:
125,303,40888,2,0,P|66:271|128:294,1,200,2|0,3:0|3:0,0:0:0:0:
51,301,41965,1,2,3:0:0:0:
0,242,42118,1,0,3:0:0:0:
99,114,42734,6,1,B|10:72|-45:163|20:270|81:167|125:277,1,300,2|2,3:0|3:0,0:0:0:0:
137,356,43349,1,2,3:0:0:0:
99,114,43965,6,1,B|170:46|251:116|222:237|132:158|124:277,1,300,0|2,3:0|3:0,0:0:0:0:
137,358,44580,2,0,P|149:348|154:330,1,25,0|0,3:0|0:0,0:0:0:0:
202,211,44734,5,2,3:0:0:0:
186,206,44811,2,0,B|211:202|211:202|222:210|222:210|219:220|219:220|205:222|205:222|186:206,1,87.500000834465,2|0,0:0|3:0,0:0:0:0:
11,137,44965,5,8,0:1:0:0:
27,132,45042,2,0,B|2:128|2:128|-9:136|-9:136|-6:146|-6:146|8:148|8:148|27:132,1,87.500000834465,10|8,0:1|0:1,0:0:0:0:
105,41,45195,6,0,B|116:92|116:92|100:131|100:131|113:188,1,150,6|0,3:2|0:0,0:0:0:0:
112,185,45503,1,10,0:0:0:0:
279,21,45657,1,2,3:0:0:0:
285,46,45734,2,0,B|247:79|247:79|185:67,1,100,8|8,0:1|0:1,0:0:0:0:
128,48,45965,1,2,3:0:0:0:
227,166,46118,1,10,0:0:0:0:
378,139,46272,6,0,P|426:167|410:292,1,168.000002050781,2|0,3:0|0:0,0:0:0:0:
370,218,46580,1,2,0:0:0:0:
315,95,46734,2,0,L|300:150,1,56.0000006835938,10|0,0:0|0:0,0:0:0:0:
293,274,46888,5,2,3:0:0:0:
329,307,46965,2,0,P|379:276|370:218,1,125,8|8,0:1|0:1,0:0:0:0:
287,227,47195,6,0,L|176:239,1,112.000001367188,2|8,3:0|0:0,0:0:0:0:
24,255,47503,1,6,3:2:0:0:
24,255,47811,2,0,L|35:195,1,50,2|0,0:0|0:0,0:0:0:0:
51,104,47965,5,10,0:1:0:0:
82,91,48041,1,8,0:1:0:0:
116,92,48118,2,0,P|136:102|152:117,1,43.5000003650665,2|8,3:0|0:1,0:0:0:0:
177,227,48272,1,10,3:2:0:0:
98,259,48426,6,0,L|109:199,1,43.5000003650665,10|0,0:0|0:0,0:0:0:0:
206,67,48580,1,10,0:1:0:0:
226,40,48656,1,8,0:1:0:0:
255,24,48734,6,0,P|274:22|293:25,1,37.5000014305115,10|0,0:1|0:0,0:0:0:0:
289,14,49041,6,0,P|273:21|258:33,1,37.5000014305115,0|0,3:0|0:0,0:0:0:0:
255,191,49349,6,0,P|267:209|276:230,1,43.5000003650665,2|0,3:0|0:0,0:0:0:0:
287,201,49503,2,0,P|267:210|250:223,1,43.5000003650665,2|0,3:0|0:0,0:0:0:0:
165,304,49657,6,0,L|239:292,1,50,2|0,0:0|0:0,0:0:0:0:
290,310,49811,2,0,L|323:302,1,25,2|0,0:0|0:0,0:0:0:0:
415,316,49965,2,0,L|489:304,1,50,2|0,0:0|0:0,0:0:0:0:
478,137,50118,6,0,P|436:228|340:207,1,179.999994506836,6|0,3:2|0:0,0:0:0:0:
296,96,50426,1,14,0:3:0:0:
332,75,50503,1,6,0:3:0:0:
373,83,50580,1,6,0:3:0:0:
400,114,50657,1,6,0:3:0:0:
401,156,50734,5,6,3:0:0:0:
225,81,50888,1,2,0:0:0:0:
117,238,51041,1,10,0:0:0:0:
207,7,51195,1,2,0:0:0:0:
205,215,51349,2,0,L|217:140,1,59.9999981689454,0|0,3:0|0:0,0:0:0:0:
207,7,51503,6,0,P|157:45|153:102,1,119.999996337891,2|8,0:0|0:0,0:0:0:0:
216,377,51811,2,0,P|266:339|270:282,1,119.999996337891,2|0,0:0|3:0,0:0:0:0:
100,161,52118,5,2,0:0:0:0:
214,156,52272,1,10,0:0:0:0:
318,223,52426,1,2,0:0:0:0:
318,223,52503,1,0,0:0:0:0:
318,223,52580,1,0,3:0:0:0:
316,108,52734,5,2,0:0:0:0:
114,233,52888,2,0,P|138:253|166:263,1,59.9999981689454,14|6,0:3|0:3,0:0:0:0:
218,160,53041,2,0,P|231:188|234:217,1,59.9999981689454,6|6,0:3|0:3,0:0:0:0:
208,253,53195,1,6,3:0:0:0:
46,301,53349,5,2,0:0:0:0:
62,317,53426,1,0,0:0:0:0:
82,329,53503,1,10,0:0:0:0:
147,364,53657,2,0,P|177:372|194:373,1,50,2|0,0:0|0:0,0:0:0:0:
293,375,53811,6,0,P|323:372|350:360,1,59.9999981689454,2|0,3:0|0:0,0:0:0:0:
337,233,53965,2,0,P|365:246|394:249,1,59.9999981689454,2|0,0:0|0:0,0:0:0:0:
461,357,54118,2,0,L|471:297,1,59.9999981689454,10|0,0:0|0:0,0:0:0:0:
498,186,54272,1,2,0:0:0:0:
498,186,54349,1,0,0:0:0:0:
498,186,54426,6,0,P|468:164|447:134,1,75.0000028610231,2|0,3:0|0:0,0:0:0:0:
341,0,54580,2,0,L|328:73,1,75.0000028610231,10|0,0:0|0:0,0:0:0:0:
188,232,54734,6,0,L|198:172,1,59.9999981689454,10|0,0:0|0:0,0:0:0:0:
262,106,54888,1,2,0:0:0:0:
261,113,54965,1,2,0:0:0:0:
260,121,55041,6,0,B|181:101|191:171|95:182,1,179.999994506836,4|0,3:2|0:0,0:0:0:0:
97,181,55349,1,14,0:3:0:0:
114,228,55426,1,6,0:3:0:0:
99,265,55503,1,6,0:3:0:0:
91,293,55580,1,6,0:3:0:0:
100,315,55657,5,6,3:0:0:0:
14,250,55811,1,2,0:0:0:0:
3,214,55888,1,0,0:0:0:0:
16,179,55965,1,10,0:0:0:0:
256,117,56118,5,2,0:0:0:0:
256,117,56272,2,0,L|197:128,1,59.9999981689454,0|0,3:0|0:0,0:0:0:0:
35,37,56426,2,0,P|64:86|121:88,1,119.999996337891,2|8,0:0|0:0,0:0:0:0:
210,23,56734,1,2,0:0:0:0:
216,12,56811,1,0,0:0:0:0:
219,0,56888,1,2,3:0:0:0:
347,45,57041,1,2,0:0:0:0:
369,168,57195,2,0,P|383:148|378:113,1,50,8|0,0:0|0:0,0:0:0:0:
347,45,57349,5,2,0:0:0:0:
423,57,57503,1,2,3:0:0:0:
306,110,57657,1,2,0:0:0:0:
297,241,57811,2,0,P|307:263|340:276,1,50,14|6,0:3|0:3,0:0:0:0:
473,289,57965,5,6,0:3:0:0:
486,268,58041,1,6,0:3:0:0:
486,244,58118,2,0,L|403:260,1,59.9999981689454,6|0,3:0|0:0,0:0:0:0:
328,275,58272,2,0,L|312:358,1,59.9999981689454,2|0,0:0|0:0,0:0:0:0:
313,358,58426,1,10,0:0:0:0:
14,314,58580,6,0,B|116:296|116:296|134:309|134:309|232:292,1,225.000008583069,6|0,3:2|0:0,0:0:0:0:
93,175,58888,2,0,P|70:192|68:222,1,59.9999981689454,0|0,3:0|0:0,0:0:0:0:
129,289,59041,2,0,P|145:275|147:253,3,39.9999987792969,8|8|8|2,0:1|0:1|0:1|3:0,0:0:0:0:
216,201,59272,1,8,0:1:0:0:
211,174,59349,2,0,B|189:55,1,119.999996337891,10|10,3:2|3:2,0:0:0:0:
189,55,59657,5,10,0:1:0:0:
237,82,59734,1,8,0:1:0:0:
284,108,59811,1,10,0:1:0:0:
321,69,59888,1,8,0:1:0:0:
358,30,59965,6,0,B|410:102|410:102|384:194,1,179.999994506836,6|0,3:2|0:0,0:0:0:0:
323,330,60272,1,14,0:3:0:0:
321,288,60349,1,6,0:3:0:0:
361,273,60426,1,6,0:3:0:0:
386,306,60503,1,6,0:3:0:0:
363,341,60580,5,6,3:0:0:0:
242,218,60734,2,0,L|317:202,1,59.9999981689454,2|0,0:0|0:0,0:0:0:0:
469,172,60888,1,10,0:0:0:0:
483,168,60964,1,0,0:0:0:0:
498,165,61041,6,0,P|510:264|461:327,1,179.999994506836,2|0,0:0|0:0,0:0:0:0:
392,358,61349,2,0,P|377:333|386:306,1,59.9999981689454,2|0,0:0|0:0,0:0:0:0:
304,289,61503,2,0,P|279:337|171:344,1,119.999996337891,8|2,0:0|0:0,0:0:0:0:
150,329,61734,1,0,0:0:0:0:
133,296,61811,1,0,3:0:0:0:
33,338,61965,5,2,0:0:0:0:
132,259,62118,1,10,0:0:0:0:
10,159,62272,2,0,P|13:188|31:212,1,59.9999981689454,2|0,0:0|0:0,0:0:0:0:
31,212,62426,2,0,P|146:200|176:146,1,179.999994506836,0|0,3:0|0:0,0:0:0:0:
67,24,62734,5,14,0:3:0:0:
56,77,62811,1,6,0:3:0:0:
84,122,62888,1,6,0:3:0:0:
135,135,62965,1,6,0:3:0:0:
183,113,63041,1,6,3:0:0:0:
261,3,63195,6,0,B|224:12|251:-11|192:4,2,50.0000019073487,2|0|10,0:0|0:0|0:0,0:0:0:0:
253,139,63503,1,2,0:0:0:0:
256,130,63580,1,0,0:0:0:0:
259,121,63657,6,0,P|303:140|320:171,1,59.9999981689454,2|0,3:0|0:0,0:0:0:0:
365,40,63811,2,0,P|393:78|392:113,1,59.9999981689454,2|0,0:0|0:0,0:0:0:0:
373,260,63965,2,0,L|381:192,1,59.9999981689454,10|0,0:0|0:0,0:0:0:0:
497,22,64118,1,2,0:0:0:0:
497,22,64195,1,0,0:0:0:0:
497,22,64272,6,0,P|502:68|483:98,1,75.0000028610231,2|0,3:0|0:0,0:0:0:0:
462,289,64426,2,0,L|471:215,1,75.0000028610231,10|0,0:0|0:0,0:0:0:0:
301,229,64580,2,0,L|292:303,1,59.9999981689454,10|0,0:0|0:0,0:0:0:0:
341,363,64734,2,0,P|363:340|353:308,2,39.9999987792969,2|2|2,0:0|0:0|0:0,0:0:0:0:
341,381,64888,6,0,L|191:381,1,119.999996337891,4|0,3:2|0:0,0:0:0:0:
197,342,65118,1,0,0:0:0:0:
193,296,65195,2,0,P|202:267|225:248,2,59.9999981689454,14|6|6,0:3|0:3|0:3,0:0:0:0:
155,322,65426,1,6,0:3:0:0:
110,315,65503,1,6,3:0:0:0:
42,105,65657,2,0,L|51:172,1,59.9999981689454,2|0,0:0|0:0,0:0:0:0:
62,248,65811,1,10,0:0:0:0:
42,105,65965,6,0,P|115:187|214:168,1,179.999994506836,2|0,0:0|0:0,0:0:0:0:
152,18,66272,1,2,0:0:0:0:
139,23,66349,1,0,0:0:0:0:
128,33,66426,2,0,P|129:63|144:89,1,59.9999981689454,8|0,0:0|0:0,0:0:0:0:
250,159,66580,5,2,0:0:0:0:
276,173,66657,1,0,0:0:0:0:
305,175,66734,1,2,3:0:0:0:
359,62,66888,2,0,L|219:80,2,119.999996337891,2|8|2,0:0|0:0|0:0,0:0:0:0:
385,95,67272,1,0,0:0:0:0:
376,136,67349,5,2,3:0:0:0:
246,281,67503,1,2,0:0:0:0:
436,240,67657,2,0,P|404:242|373:228,1,50,14|6,0:3|0:3,0:0:0:0:
258,162,67811,2,0,P|288:174|312:206,1,50,6|6,0:3|0:3,0:0:0:0:
355,331,67964,1,6,3:0:0:0:
237,358,68118,1,2,0:0:0:0:
213,352,68195,1,0,0:0:0:0:
193,336,68272,1,10,0:0:0:0:
97,216,68426,6,1,B|82:197|82:197|41:196|41:196|66:161|66:161|52:124|52:124|92:135|92:135|126:111|126:111|126:153|126:153|160:178|160:178|120:190|120:190|109:231,1,400,6|0,3:2|3:0,0:0:0:0:
126,309,68811,1,0,0:0:0:0:
52,283,68888,6,0,P|39:291|31:314,2,29.9999990844727,8|8|8,0:1|0:1|0:1,0:0:0:0:
126,309,69041,1,2,3:2:0:0:
156,262,69118,1,8,0:1:0:0:
212,257,69195,1,10,3:2:0:0:
248,215,69272,1,8,0:1:0:0:
243,166,69349,6,0,P|238:151|217:126,1,37.5000014305115,10|0,3:2|0:0,0:0:0:0:
283,290,69503,2,0,P|298:301|316:307,1,37.5000014305115,8|0,0:1|0:0,0:0:0:0:
334,297,69580,1,8,0:1:0:0:
353,288,69657,1,10,0:1:0:0:
363,276,69734,1,8,0:1:0:0:
365,267,69811,6,0,P|401:313|397:375,1,100,6|2,3:2|0:0,0:0:0:0:
403,352,70118,1,10,0:0:0:0:
480,176,70272,6,0,P|489:224|471:270,2,100,2|2|2,3:0|0:0|3:0,0:0:0:0:
418,128,70734,1,10,0:0:0:0:
256,192,70888,5,2,3:0:0:0:
495,96,71195,1,0,3:0:0:0:
347,75,71349,2,0,L|317:114,1,50,8|0,0:0|0:0,0:0:0:0:
248,201,71503,5,0,3:0:0:0:
309,123,71657,1,0,3:0:0:0:
151,189,71811,2,0,P|166:218|200:238,1,50,8|0,0:0|0:0,0:0:0:0:
286,293,71965,1,8,0:0:0:0:
256,24,72195,1,0,0:0:0:0:
256,24,72272,5,6,3:2:0:0:
137,41,72580,1,2,0:0:0:0:
30,95,72888,1,2,0:0:0:0:
1,211,73195,1,2,0:0:0:0:
70,309,73503,1,2,0:0:0:0:
186,339,73811,1,2,0:0:0:0:
320,333,74157,5,0,0:0:0:0:
450,297,74503,5,0,0:0:0:0:
508,158,74888,5,2,0:0:0:0:
422,0,75349,5,6,0:3:0:0:
442,118,75657,1,2,0:0:0:0:
424,236,75965,1,2,0:0:0:0:
358,336,76272,1,2,0:0:0:0:
247,382,76580,1,2,0:0:0:0:
97,366,76965,5,0,0:0:0:0:
10,243,77349,5,0,0:0:0:0:
32,109,77695,5,0,0:0:0:0:
156,0,78118,5,2,0:0:0:0:
126,116,78426,1,0,3:0:0:0:
144,234,78734,1,2,0:0:0:0:
248,291,79041,1,0,3:0:0:0:
364,260,79349,2,0,P|372:250|377:211,6,31.25,0|0|0|0|2|0|0,3:0|3:0|3:0|3:0|3:0|3:0|3:0,0:0:0:0:
375,217,79657,5,0,3:0:0:0:
269,217,79965,1,2,0:0:0:0:
178,164,80272,1,2,0:0:0:0:
215,47,80426,6,0,P|188:75|159:53,1,75.0000028610231,2|0,3:0|0:0,0:0:0:0:
315,22,80734,6,0,P|346:36|368:9,1,75.0000028610231,6|0,3:2|0:0,0:0:0:0:
280,90,80888,2,0,B|280:141|296:136|301:113|280:90,1,75.0000028610231,2|0,0:0|0:0,0:0:0:0:
275,199,81041,6,0,P|309:198|347:173,1,75.0000028610231,2|0,3:0|0:0,0:0:0:0:
387,105,81195,2,0,P|406:101|392:115,3,50.0000019073487,10|8|8|0,0:1|0:1|0:1|3:0,0:0:0:0:
159,169,81503,2,0,L|227:154,1,50,2|8,3:0|0:1,0:0:0:0:
239,304,81657,6,0,L|190:314,1,50,2|0,3:0|0:0,0:0:0:0:
69,326,81811,1,10,0:1:0:0:
67,294,81888,1,8,0:1:0:0:
97,282,81965,1,8,0:1:0:0:
115,308,82042,1,8,0:1:0:0:
99,333,82118,5,6,3:2:0:0:
316,288,82426,2,0,P|318:264|329:285,1,62.5,14|6,0:3|0:3,0:0:0:0:
484,252,82580,2,0,P|472:231|470:255,1,62.5,6|6,0:3|0:3,0:0:0:0:
470,329,82734,2,0,P|414:356|352:355,1,125,6|2,3:3|0:0,0:0:0:0:
280,166,83041,6,0,B|307:186|336:182|336:182|362:201|396:189,1,125,10|0,0:0|0:0,0:0:0:0:
472,145,83349,2,0,B|445:129|445:129|480:127,1,62.5,2|0,3:0|0:0,0:0:0:0:
332,166,83503,2,0,B|348:139|348:139|349:174,1,62.5
230,73,83657,2,0,B|257:89|257:89|221:90,1,62.5,8|0,0:0|0:0,0:0:0:0:
145,91,83811,6,0,B|157:149|157:149|187:159,1,75.0000028610231,2|0,0:0|0:0,0:0:0:0:
81,186,83965,2,0,B|67:182|67:182|55:124,1,75.0000028610231,2|0,3:0|0:0,0:0:0:0:
64,104,84118,2,0,B|102:102|102:102|131:78,1,75.0000028610231,2|0,0:0|0:0,0:0:0:0:
251,177,84272,2,0,L|14:271,1,225.000008583069,10|0,0:0|0:0,0:0:0:0:
43,275,84580,2,0,B|39:300|39:300|52:299|52:299|44:275,1,62.5,2|0,3:0|0:0,0:0:0:0:
170,376,84888,6,0,B|195:361|195:361|169:350|139:327,2,75.0000028610231,14|6|6,0:3|0:3|0:3,0:0:0:0:
266,342,85195,2,0,P|305:349|337:325,1,81.0000019775391,6|0,3:3|0:0,0:0:0:0:
381,188,85349,2,0,L|401:274,1,68.5000019336701,2|0,0:0|0:0,0:0:0:0:
400,265,85503,1,10,0:0:0:0:
512,269,85657,2,1,B|508:244|520:221|520:221|504:243|504:243|479:233|479:233|500:246|512:269,1,147.630004104338,2|0,0:0|0:0,0:0:0:0:
451,118,85965,6,1,P|378:146|300:134,2,160.000000000013,2|10|2,0:0|0:0|0:0,0:0:0:0:
279,59,86426,2,1,B|275:47|275:47|271:30|253:28|238:37|242:55|242:55|246:68,1,80,2|0,3:0|0:0,0:0:0:0:
451,118,86580,1,10,0:0:0:0:
441,80,86657,1,0,0:0:0:0:
459,40,86734,2,1,B|462:28|462:28|465:11|483:7|499:16|495:34|495:34|493:47,1,80,10|0,0:0|0:0,0:0:0:0:
184,218,87041,6,0,B|161:239|131:216|131:216|173:182|173:182|124:153|124:153|143:133|175:140,1,225.000008583069,6|0,3:2|0:0,0:0:0:0:
212,30,87349,2,0,L|245:66,1,50,14|6,0:3|0:3,0:0:0:0:
67,88,87503,2,0,L|42:123,1,43.5000003650665,6|6,0:3|0:3,0:0:0:0:
38,230,87657,6,0,L|21:305,1,50,6|0,3:3|0:0,0:0:0:0:
56,230,87811,2,0,L|44:278,1,50,2|0,0:0|0:0,0:0:0:0:
263,230,87965,2,0,L|251:278,1,50,10|0,0:0|0:0,0:0:0:0:
281,230,88118,2,0,L|269:278,1,50
100,360,88272,2,0,P|148:374|196:361,1,100,2|0,3:0|0:0,0:0:0:0:
204,348,88503,2,0,B|213:363|231:375|231:375|212:371|190:359,1,50,0|8,0:0|0:0,0:0:0:0:
281,230,88734,6,0,P|318:229|352:216,1,75.0000028610231,2|0,0:0|0:0,0:0:0:0:
440,198,88888,2,0,P|477:197|511:184,1,75.0000028610231,2|0,3:0|0:0,0:0:0:0:
358,321,89041,2,0,P|371:301|391:312,1,50,2|0,0:0|0:0,0:0:0:0:
485,366,89195,5,10,0:0:0:0:
485,366,89272,2,0,P|519:312|515:244,1,100
512,183,89503,1,2,3:0:0:0:
194,136,89811,6,0,B|230:136|255:123|255:123|272:145|307:156,1,125,8|2,0:0|0:0,0:0:0:0:
349,166,90041,1,0,0:0:0:0:
361,209,90118,6,0,L|347:300,1,62.5,2|0,3:0|0:0,0:0:0:0:
238,209,90272,2,0,L|224:300,1,62.5,2|0,0:0|0:0,0:0:0:0:
115,209,90426,2,0,L|101:300,1,62.5,10|0,0:0|0:0,0:0:0:0:
204,217,90580,6,0,B|272:225|272:225|225:289|225:289|195:217,1,225.000008583069,6|0,3:2|0:0,0:0:0:0:
81,245,90888,2,0,B|113:259|113:259|67:289,1,75.000002861023,2|0,3:0|0:0,0:0:0:0:
370,295,91041,2,0,B|337:280|337:280|370:259,3,75.0000028610231,10|8|8|2,0:1|0:1|0:1|3:0,0:0:0:0:
312,351,91272,1,8,0:1:0:0:
300,350,91349,5,2,3:0:0:0:
259,377,91426,1,8,0:1:0:0:
221,345,91503,1,10,0:1:0:0:
179,373,91580,1,0,0:0:0:0:
142,341,91657,1,8,0:1:0:0:
0,288,91811,1,10,0:1:0:0:
77,154,91965,6,1,B|42:124|51:74|51:74|85:81|108:107|108:107|133:80|167:91|167:91|174:57|199:35|199:35|233:73|217:117,1,375,6|2,3:2|3:0,0:0:0:0:
178,186,92580,2,0,B|207:180|227:172|235:129|201:104|175:104|159:116|136:148|134:176|134:201|156:226|211:222|211:245|260:182,1,300,2|2,3:0|0:0,0:0:0:0:
279,71,93195,1,0,3:0:0:0:
330,138,93349,2,0,P|390:82|325:132,1,250,2|2,0:0|3:0,0:0:0:0:
428,206,93811,2,1,B|419:229|437:249|437:249|450:237|454:219|454:219|472:225|485:211|485:211|498:225|516:228|516:228|520:202|502:186,1,200,0|0,3:0|0:0,0:0:0:0:
0,193,94426,6,0,B|20:203|22:273|22:273|20:175|90:186|90:186|99:278,1,300,2|2,3:0|3:0,0:0:0:0:
171,225,95041,2,0,B|197:296|197:296|232:252|244:237|244:237|201:332|148:340,1,300,2|2,3:0|0:0,0:0:0:0:
343,257,95657,2,0,B|295:263|280:250|227:291|238:370|316:402|346:360|348:270|348:270|358:322|397:348,1,375,0|2,3:0|3:0,0:0:0:0:
406,189,96272,6,0,B|388:193|388:193|371:180|371:180|350:180|350:180|337:163,1,75.0000028610231,8|0,3:0|0:0,0:0:0:0:
275,105,96426,2,0,B|306:103|306:103|277:89,1,62.5,10|8,0:1|0:1,0:0:0:0:
500,174,96580,2,0,B|472:160|472:160|503:159,1,62.5,0|8,3:0|0:1,0:0:0:0:
467,66,96734,1,10,0:1:0:0:
458,42,96811,1,8,0:1:0:0:
449,18,96888,6,0,B|415:3|415:3|339:21|339:21|301:6,1,150,6|0,3:2|0:0,0:0:0:0:
234,13,97195,1,10,0:0:0:0:
88,21,97349,1,2,3:0:0:0:
80,45,97426,2,0,B|63:94|63:94|96:134,1,100,8|8,0:1|0:1,0:0:0:0:
145,190,97657,1,2,3:0:0:0:
38,294,97811,1,10,0:0:0:0:
15,143,97965,6,0,P|66:205|145:189,1,168.000002050781,2|0,3:0|0:0,0:0:0:0:
212,147,98272,2,0,P|255:182|252:282,1,112.000001367188,2|10,0:0|0:0,0:0:0:0:
143,348,98580,1,2,3:0:0:0:
171,308,98657,2,0,P|244:313|275:358,1,125,8|8,0:1|0:1,0:0:0:0:
346,367,98888,6,0,B|358:369|358:369|369:360|369:360|384:360|384:360|393:349,1,56.0000006835938,2|0,3:0|0:0,0:0:0:0:
498,301,99041,1,10,0:0:0:0:
352,217,99195,6,0,L|478:410,1,200,6|2,3:2|3:0,0:0:0:0:
398,312,99657,2,0,L|423:271,3,33.3333333333333,10|8|8|2,0:1|0:1|0:1|3:0,0:0:0:0:
437,251,99888,1,8,0:1:0:0:
460,220,99964,2,0,L|487:177,1,50,2|8,3:0|0:1,0:0:0:0:
487,101,100118,1,10,0:1:0:0:
339,96,100272,1,10,0:1:0:0:
339,96,100349,1,8,0:1:0:0:
339,96,100426,6,0,B|364:112|413:110|409:104|405:93|405:93|420:59|416:48|364:14|338:56|331:92,1,225.000008583069,10|4,0:1|0:3,0:0:0:0:
317,170,100734,2,0,P|316:188|325:173,1,50,0|0,3:0|0:0,0:0:0:0:
366,180,100811,2,0,P|366:198|374:182,1,50
101,269,101041,6,1,B|110:245|132:231|132:231|107:242|107:242|90:221|90:221|102:243|101:269,1,147.630004104338,2|0,3:0|0:0,0:0:0:0:
145,148,101195,6,1,B|155:149|155:149|162:137|160:122|160:122|176:121|176:121|181:122|184:126|184:126|186:113|186:113|181:112|157:111|157:111|149:106|150:97|150:97|146:101|141:101|136:97|136:97|138:103|136:110|136:110|133:111|133:111|136:112|136:112|124:166|124:166|120:166|120:166|124:168|124:168|121:175|121:175|125:176|125:176|125:171|125:171|128:171|128:171|134:152,1,254.999996595383,6|0,3:0|0:0,0:0:0:0:
90,309,101349,2,0,B|94:334|94:334|86:345|86:345|76:342|76:342|74:328|74:328|90:309,1,87.500000834465,2|0,0:0|0:0,0:0:0:0:
79,234,101503,6,0,B|69:227|62:231|44:235|50:256|69:283|89:271|99:269|99:269|106:276|118:296|148:280|162:265|149:253|144:247|134:247,1,175.00000166893,6|0,3:1|0:0,0:0:0:0:
480,221,101811,6,0,P|438:312|342:291,1,179.999994506836,6|0,3:2|0:0,0:0:0:0:
270,239,102118,5,14,0:3:0:0:
265,283,102195,1,6,0:3:0:0:
287,322,102272,1,6,0:3:0:0:
331,331,102349,1,6,0:3:0:0:
368,312,102426,5,6,3:0:0:0:
230,373,102580,1,0,0:0:0:0:
134,247,102734,1,8,0:0:0:0:
347,154,102888,1,2,0:0:0:0:
296,46,103041,6,0,L|288:105,1,59.9999981689454,0|0,3:0|0:0,0:0:0:0:
305,216,103195,2,0,P|352:183|422:209,1,119.999996337891,2|8,0:0|0:0,0:0:0:0:
214,66,103503,2,0,P|167:99|97:73,1,119.999996337891,2|0,0:0|3:0,0:0:0:0:
265,283,103811,5,2,0:0:0:0:
138,251,103965,1,10,0:0:0:0:
11,219,104118,1,2,0:0:0:0:
11,219,104195,1,0,0:0:0:0:
11,219,104272,1,0,3:0:0:0:
255,189,104426,5,2,0:0:0:0:
29,322,104580,2,0,P|73:322|88:308,1,59.9999981689454,14|6,0:3|0:3,0:0:0:0:
142,254,104734,2,0,P|103:277|97:296,1,59.9999981689454,6|6,0:3|0:3,0:0:0:0:
135,374,104888,1,6,3:0:0:0:
207,291,105041,5,2,0:0:0:0:
218,276,105118,1,0,0:0:0:0:
223,258,105195,1,10,0:0:0:0:
194,142,105349,2,0,P|171:129|111:127,1,50,2|0,0:0|0:0,0:0:0:0:
73,73,105503,6,0,P|53:88|33:141,1,59.9999981689454,2|0,3:0|0:0,0:0:0:0:
155,31,105657,2,0,P|187:26|210:-10,1,59.9999981689454,2|0,0:0|0:0,0:0:0:0:
298,189,105811,2,0,L|305:129,1,59.9999981689454,10|0,0:0|0:0,0:0:0:0:
288,10,105965,1,2,0:0:0:0:
296,3,106041,1,0,0:0:0:0:
306,0,106118,6,0,P|330:27|339:63,1,75.0000028610231,2|0,3:0|0:0,0:0:0:0:
456,111,106272,2,0,P|423:129|402:159,1,75.0000028610231,10|0,0:0|0:0,0:0:0:0:
287,277,106426,2,0,L|279:336,1,59.9999981689454,10|0,0:0|0:0,0:0:0:0:
415,328,106580,1,2,0:0:0:0:
417,310,106656,1,2,0:0:0:0:
419,292,106734,6,0,B|295:259|330:394|181:358,1,239.999992675781,4|14,3:2|0:3,0:0:0:0:
162,342,107118,1,6,0:3:0:0:
171,298,107195,1,6,0:3:0:0:
149,269,107272,1,6,0:3:0:0:
153,245,107349,5,6,3:0:0:0:
86,359,107503,1,0,0:0:0:0:
63,328,107580,1,0,0:0:0:0:
25,321,107657,1,10,0:0:0:0:
45,198,107811,6,0,P|79:177|111:182,1,59.9999981689454,2|0,0:0|0:0,0:0:0:0:
98,177,107965,1,0,3:0:0:0:
208,68,108118,1,2,0:0:0:0:
209,53,108194,1,0,0:0:0:0:
206,40,108272,2,0,P|187:15|146:9,1,59.9999981689454,8|0,0:0|0:0,0:0:0:0:
178,147,108426,6,0,P|232:190|351:138,1,179.999994506836,2|0,0:0|0:0,0:0:0:0:
378,30,108734,2,0,P|368:58|345:76,1,59.9999981689454,2|0,0:0|0:0,0:0:0:0:
411,203,108888,2,0,P|420:174|444:157,1,59.9999981689454,8|0,0:0|0:0,0:0:0:0:
512,125,109041,5,2,0:0:0:0:
512,125,109118,1,0,0:0:0:0:
512,125,109195,1,2,3:0:0:0:
485,259,109349,1,2,0:0:0:0:
336,352,109503,2,0,P|312:361|288:366,1,50,14|6,0:3|0:3,0:0:0:0:
153,376,109657,1,6,0:3:0:0:
113,371,109733,1,6,0:3:0:0:
79,350,109811,2,0,P|56:333|35:293,1,59.9999981689454,6|0,3:0|0:0,0:0:0:0:
94,313,109965,5,2,0:0:0:0:
128,334,110042,1,2,0:0:0:0:
168,339,110118,1,10,0:0:0:0:
208,332,110195,1,2,0:0:0:0:
238,304,110272,2,0,B|223:191|223:191|114:248,1,225.000008583069,6|0,3:2|0:0,0:0:0:0:
53,215,110580,6,0,P|56:183|83:164,1,59.9999981689454,0|0,3:0|0:0,0:0:0:0:
277,138,110734,2,0,P|293:149|295:170,3,39.9999987792969,8|8|8|2,0:1|0:1|0:1|3:0,0:0:0:0:
190,187,110965,1,8,0:1:0:0:
197,149,111041,2,0,L|214:61,1,59.9999981689454,2|8,3:0|0:1,0:0:0:0:
144,20,111195,6,0,B|123:44|123:44|135:82,1,62.5,10|0,3:2|0:0,0:0:0:0:
283,61,111350,1,10,0:1:0:0:
321,54,111426,1,8,0:1:0:0:
360,48,111503,1,10,0:1:0:0:
398,42,111580,1,8,0:1:0:0:
437,36,111657,6,0,B|500:110|500:110|460:209,1,194.999991073609,6|0,3:2|0:0,0:0:0:0:
425,291,111965,1,14,0:3:0:0:
380,269,112042,1,6,0:3:0:0:
347,307,112119,1,6,0:3:0:0:
302,286,112196,1,6,0:3:0:0:
270,323,112272,6,0,L|206:336,1,64.9999970245363,6|0,3:0|0:0,0:0:0:0:
190,187,112426,2,0,L|126:200,1,64.9999970245363,2|0,0:0|0:0,0:0:0:0:
16,280,112580,2,0,L|79:266,1,64.9999970245363,10|0,0:0|0:0,0:0:0:0:
190,187,112734,1,2,0:0:0:0:
69,353,112888,5,0,3:0:0:0:
40,199,113041,1,2,0:0:0:0:
84,48,113195,1,8,0:0:0:0:
24,104,113349,6,0,P|7:77|7:21,1,64.9999970245363,2|0,0:0|0:0,0:0:0:0:
160,70,113503,1,0,3:0:0:0:
5,157,113657,2,0,P|88:163|118:203,1,129.999994049073,2|10,0:0|0:0,0:0:0:0:
329,52,113965,6,0,P|246:46|216:6,1,129.999994049073,2|6,0:0|3:0,0:0:0:0:
367,32,114195,1,6,0:3:0:0:
410,36,114272,1,6,0:3:0:0:
437,69,114349,1,6,0:3:0:0:
439,112,114426,1,14,0:3:0:0:
262,212,114580,5,2,0:0:0:0:
264,195,114656,1,0,0:0:0:0:
266,179,114733,1,0,3:0:0:0:
430,191,114888,6,0,L|423:245,1,55.0000016784668,2|0,0:0|0:0,0:0:0:0:
317,347,115041,1,10,0:0:0:0:
358,281,115195,2,0,P|334:267|308:270,1,55.0000016784668,2|0,0:0|0:0,0:0:0:0:
194,251,115349,6,0,P|161:248|104:272,1,64.9999970245363,2|0,3:0|0:0,0:0:0:0:
35,168,115503,2,0,P|67:171|98:163,1,64.9999970245363,2|0,0:0|0:0,0:0:0:0:
172,51,115657,2,0,L|156:139,1,64.9999970245363,10|0,0:0|0:0,0:0:0:0:
130,255,115811,1,2,0:0:0:0:
96,277,115888,1,2,0:0:0:0:
67,308,115965,6,0,P|53:277|3:240,1,80,2|0,3:0|0:0,0:0:0:0:
30,27,116118,2,0,P|43:57|93:94,1,80,10|0,0:0|0:0,0:0:0:0:
233,176,116272,2,0,L|244:112,1,64.9999970245363,10|0,0:0|0:0,0:0:0:0:
319,0,116426,1,2,0:0:0:0:
316,16,116503,1,2,0:0:0:0:
313,32,116580,6,0,P|341:122|439:125,1,194.999991073609,4|0,3:2|0:0,0:0:0:0:
494,93,116888,1,14,0:3:0:0:
469,128,116965,1,6,0:3:0:0:
495,167,117041,1,6,0:3:0:0:
470,202,117118,1,6,0:3:0:0:
445,237,117195,6,0,L|393:309,1,64.9999970245363,6|0,3:0|0:0,0:0:0:0:
315,250,117349,2,0,L|263:322,1,64.9999970245363,2|0,0:0|0:0,0:0:0:0:
185,263,117503,2,0,L|133:335,1,64.9999970245363,10|0,0:0|0:0,0:0:0:0:
98,384,117657,6,0,B|20:254|20:254|51:211,1,194.999991073609,2|0,0:0|0:0,0:0:0:0:
54,54,117965,2,0,B|105:140|105:140|89:164,1,129.999994049073,2|8,0:0|0:0,0:0:0:0:
67,189,118195,1,2,0:0:0:0:
1,152,118272,5,2,0:0:0:0:
181,177,118426,1,2,3:0:0:0:
292,33,118580,1,2,0:0:0:0:
205,318,118734,2,0,L|213:239,1,64.9999970245363,8|0,0:0|0:0,0:0:0:0:
236,91,118888,1,2,0:0:0:0:
236,91,118965,1,0,0:0:0:0:
236,91,119041,6,0,P|256:106|297:116,1,64.9999970245363,6|6,3:0|0:3,0:0:0:0:
479,25,119195,2,0,P|464:53|439:74,1,64.9999970245363,6|6,0:3|0:3,0:0:0:0:
377,131,119349,1,14,0:3:0:0:
211,253,119503,6,0,L|282:231,1,64.9999970245363,2|0,0:0|0:0,0:0:0:0:
377,131,119657,1,2,3:0:0:0:
509,130,119811,6,0,L|446:149,1,64.9999970245363,2|0,0:0|0:0,0:0:0:0:
377,131,119965,1,10,0:0:0:0:
374,169,120041,1,0,0:0:0:0:
371,207,120118,6,0,B|362:328|362:328|233:366,1,240,6|0,3:2|0:0,0:0:0:0:
214,232,120426,2,0,P|256:236|274:261,1,64.9999970245363,0|0,3:0|0:0,0:0:0:0:
174,383,120580,2,0,P|148:380|138:365,3,43.3333313496908,8|8|8|2,0:1|0:1|0:1|3:0,0:0:0:0:
152,293,120811,1,8,0:1:0:0:
134,288,120888,5,10,3:2:0:0:
86,300,120964,1,8,0:1:0:0:
39,313,121041,2,0,L|-9:325,1,50,10|0,3:2|0:0,0:0:0:0:
1,306,121195,5,8,0:1:0:0:
40,295,121272,1,8,0:1:0:0:
80,285,121348,1,10,0:1:0:0:
119,274,121426,1,8,0:1:0:0:
159,264,121502,1,6,3:2:0:0:
256,85,121811,5,10,0:0:0:0:
256,85,121965,2,0,P|295:56|407:68,1,150.000005722046,2|2,3:0|3:0,0:0:0:0:
193,31,122426,1,10,0:0:0:0:
278,169,122580,1,2,3:0:0:0:
119,46,122888,6,0,L|33:64,1,75.0000028610231,2|8,3:0|0:0,0:0:0:0:
92,160,123195,1,2,3:0:0:0:
94,152,123349,1,2,0:0:0:0:
96,144,123503,1,2,3:0:0:0:
98,136,123657,1,8,0:0:0:0:
100,128,123811,1,2,3:0:0:0:
256,300,123965,5,2,3:0:0:0:
231,209,124426,6,1,B|213:211|175:226|180:246|180:246|184:265|224:263|251:258|251:258|276:253|315:237|311:218|311:218|306:198|266:200|241:206,1,300,2|2,3:0|3:0,0:0:0:0:
144,160,125041,5,2,3:0:0:0:
163,144,125117,1,0,0:0:0:0:
330,113,125349,6,0,L|301:38,1,50,0|0,3:0|0:0,0:0:0:0:
252,1,125657,5,0,3:0:0:0:
252,1,125811,2,0,B|218:32|218:65|218:65|251:45|251:2,1,150.000005722046,0|0,3:0|0:0,0:0:0:0:
