osu file format v14

[General]
AudioFilename: audio.mp3
AudioLeadIn: 0
PreviewTime: 43471
Countdown: 0
SampleSet: None
StackLeniency: 0.7
Mode: 3
LetterboxInBreaks: 0
SpecialStyle: 0
WidescreenStoryboard: 1

[Editor]
DistanceSpacing: 1.2
BeatDivisor: 4
GridSize: 4
TimelineZoom: 2

[Metadata]
Title:Energy trixxx
TitleUnicode:Energy trixxx
Artist:Kah
ArtistUnicode:Kah
Creator:SaltedFISSH
Version:xxxx INSANE xxxx
Source:G2R2018
Tags:G2R 2018 Kah energy trixxx G2R2018
BeatmapID:2549022
BeatmapSetID:964321

[Difficulty]
HPDrainRate:8
CircleSize:4
OverallDifficulty:8
ApproachRate:5
SliderMultiplier:1.4
SliderTickRate:1

[Events]
//Background and Video events
0,0,"14A26E4DC793B0132B327B9EEF0AC088.png",0,0
//Break Periods
//Storyboard Layer 0 (Background)
//Storyboard Layer 1 (Fail)
//Storyboard Layer 2 (Pass)
//Storyboard Layer 3 (Foreground)
//Storyboard Layer 4 (Overlay)
//Storyboard Sound Samples

[TimingPoints]
1471,375,4,2,0,30,1,0
97471,-100,4,2,0,30,0,1
124471,-100,4,2,0,30,0,0

[HitObjects]
192,192,1471,5,0,0:0:0:0:
64,192,1471,1,0,0:0:0:0:
320,192,1471,1,0,0:0:0:0:
448,192,1564,1,0,0:0:0:0:
192,192,1752,1,0,0:0:0:0:
320,192,1752,1,0,0:0:0:0:
448,192,1752,1,0,0:0:0:0:
64,192,2033,1,0,0:0:0:0:
192,192,2033,1,0,0:0:0:0:
320,192,2033,1,0,0:0:0:0:
448,192,2127,1,0,0:0:0:0:
192,192,2314,1,0,0:0:0:0:
320,192,2314,1,0,0:0:0:0:
448,192,2314,1,0,0:0:0:0:
64,192,2596,1,0,0:0:0:0:
320,192,2689,1,0,0:0:0:0:
64,192,2783,1,0,0:0:0:0:
448,192,2971,1,0,0:0:0:0:
320,192,2971,1,0,0:0:0:0:
192,192,2971,1,0,0:0:0:0:
64,192,3064,1,0,0:0:0:0:
64,192,3252,1,0,0:0:0:0:
320,192,3252,1,0,0:0:0:0:
192,192,3252,1,0,0:0:0:0:
448,192,3533,1,0,0:0:0:0:
320,192,3533,1,0,0:0:0:0:
192,192,3533,1,0,0:0:0:0:
64,192,3627,1,0,0:0:0:0:
64,192,3814,1,0,0:0:0:0:
320,192,3814,1,0,0:0:0:0:
192,192,3814,1,0,0:0:0:0:
448,192,3908,1,0,0:0:0:0:
192,192,4002,1,0,0:0:0:0:
448,192,4096,1,0,0:0:0:0:
192,192,4189,1,0,0:0:0:0:
448,192,4283,1,0,0:0:0:0:
320,192,4471,1,0,0:0:0:0:
64,192,4471,1,0,0:0:0:0:
192,192,4471,1,0,0:0:0:0:
448,192,4564,1,0,0:0:0:0:
192,192,4752,1,0,0:0:0:0:
320,192,4752,1,0,0:0:0:0:
448,192,4752,1,0,0:0:0:0:
64,192,5033,1,0,0:0:0:0:
192,192,5033,1,0,0:0:0:0:
320,192,5033,1,0,0:0:0:0:
448,192,5127,1,0,0:0:0:0:
192,192,5314,1,0,0:0:0:0:
320,192,5314,1,0,0:0:0:0:
448,192,5314,1,0,0:0:0:0:
64,192,5596,1,0,0:0:0:0:
192,192,5596,1,0,0:0:0:0:
448,192,5596,1,0,0:0:0:0:
448,192,5783,1,0,0:0:0:0:
320,192,5783,1,0,0:0:0:0:
64,192,5783,1,0,0:0:0:0:
64,192,5971,1,0,0:0:0:0:
192,192,5971,1,0,0:0:0:0:
448,192,5971,1,0,0:0:0:0:
192,192,6346,1,0,0:0:0:0:
320,192,6346,1,0,0:0:0:0:
64,192,6346,128,0,7377:0:0:0:0:
448,192,6346,1,0,0:0:0:0:
448,192,6721,1,0,0:0:0:0:
192,192,6908,1,0,0:0:0:0:
320,192,7096,1,0,0:0:0:0:
448,192,7096,1,0,0:0:0:0:
320,192,7471,1,0,0:0:0:0:
448,192,7471,1,0,0:0:0:0:
64,192,7471,1,0,0:0:0:0:
192,192,7471,1,0,0:0:0:0:
192,192,8596,1,0,0:0:0:0:
320,192,9346,1,0,0:0:0:0:
192,192,10096,1,0,0:0:0:0:
320,192,10846,1,0,0:0:0:0:
192,192,11596,1,0,0:0:0:0:
320,192,12346,1,0,0:0:0:0:
64,192,13096,1,0,0:0:0:0:
448,192,13096,1,0,0:0:0:0:
192,192,13283,1,0,0:0:0:0:
320,192,13471,1,0,0:0:0:0:
192,192,13658,1,0,0:0:0:0:
320,192,13846,1,0,0:0:0:0:
64,192,13846,1,0,0:0:0:0:
192,192,14033,1,0,0:0:0:0:
320,192,14221,1,0,0:0:0:0:
192,192,14408,1,0,0:0:0:0:
320,192,14596,1,0,0:0:0:0:
64,192,14596,1,0,0:0:0:0:
448,192,14783,1,0,0:0:0:0:
64,192,14971,1,0,0:0:0:0:
448,192,15158,1,0,0:0:0:0:
192,192,15346,1,0,0:0:0:0:
64,192,15346,1,0,0:0:0:0:
448,192,15533,1,0,0:0:0:0:
64,192,15721,1,0,0:0:0:0:
448,192,15908,1,0,0:0:0:0:
64,192,16096,1,0,0:0:0:0:
320,192,16096,1,0,0:0:0:0:
64,192,16283,1,0,0:0:0:0:
320,192,16283,1,0,0:0:0:0:
64,192,16471,1,0,0:0:0:0:
320,192,16471,1,0,0:0:0:0:
320,192,16658,1,0,0:0:0:0:
64,192,16658,1,0,0:0:0:0:
192,192,16846,1,0,0:0:0:0:
448,192,16846,1,0,0:0:0:0:
64,192,16846,1,0,0:0:0:0:
192,192,17033,1,0,0:0:0:0:
448,192,17033,1,0,0:0:0:0:
448,192,17221,1,0,0:0:0:0:
192,192,17221,1,0,0:0:0:0:
192,192,17408,1,0,0:0:0:0:
448,192,17408,1,0,0:0:0:0:
448,192,17596,1,0,0:0:0:0:
320,192,17596,1,0,0:0:0:0:
64,192,17596,1,0,0:0:0:0:
320,192,17783,1,0,0:0:0:0:
64,192,17783,1,0,0:0:0:0:
64,192,19471,1,0,0:0:0:0:
192,192,19471,1,0,0:0:0:0:
448,192,19471,1,0,0:0:0:0:
320,192,19471,1,0,0:0:0:0:
320,192,19564,1,0,0:0:0:0:
192,192,19658,1,0,0:0:0:0:
64,192,19658,1,0,0:0:0:0:
448,192,19752,1,0,0:0:0:0:
320,192,19846,1,0,0:0:0:0:
64,192,19846,1,0,0:0:0:0:
192,192,19939,1,0,0:0:0:0:
320,192,20033,1,0,0:0:0:0:
448,192,20033,1,0,0:0:0:0:
192,192,20127,1,0,0:0:0:0:
448,192,20221,1,0,0:0:0:0:
64,192,20221,1,0,0:0:0:0:
320,192,20314,1,0,0:0:0:0:
192,192,20408,1,0,0:0:0:0:
64,192,20408,1,0,0:0:0:0:
320,192,20502,1,0,0:0:0:0:
448,192,20596,1,0,0:0:0:0:
192,192,20596,1,0,0:0:0:0:
64,192,20689,1,0,0:0:0:0:
320,192,20783,1,0,0:0:0:0:
448,192,20783,1,0,0:0:0:0:
192,192,20877,1,0,0:0:0:0:
64,192,20971,1,0,0:0:0:0:
448,192,20971,1,0,0:0:0:0:
320,192,21064,1,0,0:0:0:0:
192,192,21158,1,0,0:0:0:0:
64,192,21158,1,0,0:0:0:0:
320,192,21252,1,0,0:0:0:0:
448,192,21346,1,0,0:0:0:0:
64,192,21346,1,0,0:0:0:0:
192,192,21439,1,0,0:0:0:0:
320,192,21533,1,0,0:0:0:0:
448,192,21533,1,0,0:0:0:0:
192,192,21627,1,0,0:0:0:0:
64,192,21721,1,0,0:0:0:0:
320,192,21721,1,0,0:0:0:0:
448,192,21814,1,0,0:0:0:0:
192,192,21908,1,0,0:0:0:0:
64,192,21908,1,0,0:0:0:0:
320,192,22002,1,0,0:0:0:0:
448,192,22096,128,0,22471:0:0:0:0:
64,192,22096,1,0,0:0:0:0:
320,192,22471,1,0,0:0:0:0:
192,192,22471,1,0,0:0:0:0:
64,192,22471,1,0,0:0:0:0:
448,192,22564,1,0,0:0:0:0:
192,192,22658,1,0,0:0:0:0:
64,192,22658,1,0,0:0:0:0:
320,192,22752,1,0,0:0:0:0:
448,192,22846,1,0,0:0:0:0:
64,192,22846,1,0,0:0:0:0:
192,192,22939,1,0,0:0:0:0:
320,192,23033,1,0,0:0:0:0:
448,192,23033,1,0,0:0:0:0:
192,192,23127,1,0,0:0:0:0:
64,192,23221,1,0,0:0:0:0:
320,192,23221,1,0,0:0:0:0:
448,192,23314,1,0,0:0:0:0:
192,192,23408,1,0,0:0:0:0:
64,192,23408,1,0,0:0:0:0:
320,192,23502,1,0,0:0:0:0:
448,192,23596,1,0,0:0:0:0:
192,192,23596,1,0,0:0:0:0:
64,192,23689,1,0,0:0:0:0:
320,192,23783,1,0,0:0:0:0:
448,192,23783,1,0,0:0:0:0:
192,192,23877,1,0,0:0:0:0:
64,192,23971,1,0,0:0:0:0:
448,192,23971,1,0,0:0:0:0:
320,192,23971,1,0,0:0:0:0:
192,192,24064,1,0,0:0:0:0:
320,192,24158,1,0,0:0:0:0:
448,192,24252,1,0,0:0:0:0:
192,192,24346,1,0,0:0:0:0:
64,192,24346,1,0,0:0:0:0:
320,192,24346,1,0,0:0:0:0:
448,192,24439,1,0,0:0:0:0:
192,192,24533,1,0,0:0:0:0:
64,192,24627,1,0,0:0:0:0:
192,192,24721,1,0,0:0:0:0:
448,192,24721,1,0,0:0:0:0:
320,192,24721,1,0,0:0:0:0:
64,192,24814,1,0,0:0:0:0:
320,192,24908,1,0,0:0:0:0:
448,192,25002,1,0,0:0:0:0:
192,192,25096,1,0,0:0:0:0:
64,192,25096,1,0,0:0:0:0:
320,192,25096,1,0,0:0:0:0:
448,192,25189,1,0,0:0:0:0:
64,192,25283,1,0,0:0:0:0:
192,192,25377,1,0,0:0:0:0:
64,192,25471,1,0,0:0:0:0:
320,192,25471,1,0,0:0:0:0:
448,192,25471,1,0,0:0:0:0:
192,192,25564,1,0,0:0:0:0:
320,192,25658,1,0,0:0:0:0:
320,192,25752,1,0,0:0:0:0:
64,192,25846,1,0,0:0:0:0:
320,192,25939,1,0,0:0:0:0:
192,192,26033,1,0,0:0:0:0:
192,192,26127,1,0,0:0:0:0:
448,192,26221,1,0,0:0:0:0:
64,192,26314,1,0,0:0:0:0:
448,192,26408,1,0,0:0:0:0:
448,192,26502,1,0,0:0:0:0:
192,192,26596,1,0,0:0:0:0:
64,192,26596,1,0,0:0:0:0:
320,192,26689,1,0,0:0:0:0:
64,192,26783,1,0,0:0:0:0:
64,192,26877,1,0,0:0:0:0:
320,192,26971,1,0,0:0:0:0:
448,192,26971,1,0,0:0:0:0:
192,192,27064,1,0,0:0:0:0:
320,192,27158,1,0,0:0:0:0:
320,192,27252,1,0,0:0:0:0:
64,192,27346,1,0,0:0:0:0:
448,192,27439,1,0,0:0:0:0:
192,192,27533,1,0,0:0:0:0:
192,192,27627,1,0,0:0:0:0:
320,192,27721,1,0,0:0:0:0:
64,192,27814,1,0,0:0:0:0:
448,192,27908,1,0,0:0:0:0:
448,192,28002,1,0,0:0:0:0:
192,192,28096,1,0,0:0:0:0:
64,192,28096,1,0,0:0:0:0:
320,192,28189,1,0,0:0:0:0:
64,192,28283,1,0,0:0:0:0:
64,192,28377,1,0,0:0:0:0:
320,192,28471,1,0,0:0:0:0:
448,192,28471,1,0,0:0:0:0:
192,192,28517,1,0,0:0:0:0:
64,192,28564,1,0,0:0:0:0:
448,192,28611,1,0,0:0:0:0:
320,192,28658,1,0,0:0:0:0:
192,192,28752,1,0,0:0:0:0:
448,192,28846,1,0,0:0:0:0:
448,192,28939,1,0,0:0:0:0:
64,192,29033,1,0,0:0:0:0:
64,192,29127,1,0,0:0:0:0:
320,192,29221,1,0,0:0:0:0:
448,192,29221,1,0,0:0:0:0:
192,192,29267,1,0,0:0:0:0:
64,192,29314,1,0,0:0:0:0:
320,192,29361,1,0,0:0:0:0:
448,192,29408,1,0,0:0:0:0:
192,192,29502,1,0,0:0:0:0:
320,192,29596,1,0,0:0:0:0:
64,192,29596,1,0,0:0:0:0:
448,192,29642,1,0,0:0:0:0:
192,192,29689,1,0,0:0:0:0:
320,192,29736,1,0,0:0:0:0:
64,192,29783,1,0,0:0:0:0:
192,192,29877,1,0,0:0:0:0:
320,192,29924,1,0,0:0:0:0:
448,192,29971,1,0,0:0:0:0:
64,192,29971,1,0,0:0:0:0:
192,192,30064,1,0,0:0:0:0:
448,192,30158,1,0,0:0:0:0:
192,192,30252,1,0,0:0:0:0:
320,192,30346,1,0,0:0:0:0:
64,192,30439,1,0,0:0:0:0:
320,192,30533,1,0,0:0:0:0:
64,192,30627,1,0,0:0:0:0:
320,192,30721,1,0,0:0:0:0:
64,192,31096,1,0,0:0:0:0:
448,192,31096,1,0,0:0:0:0:
192,192,31471,128,0,31846:0:0:0:0:
64,192,31471,1,0,0:0:0:0:
448,192,31471,1,0,0:0:0:0:
320,192,31471,128,0,31846:0:0:0:0:
448,192,31846,1,0,0:0:0:0:
192,192,32033,1,0,0:0:0:0:
64,192,32221,1,0,0:0:0:0:
448,192,32221,1,0,0:0:0:0:
320,192,32221,1,0,0:0:0:0:
320,192,32408,1,0,0:0:0:0:
192,192,32596,1,0,0:0:0:0:
64,192,32596,1,0,0:0:0:0:
448,192,32596,1,0,0:0:0:0:
320,192,32596,1,0,0:0:0:0:
64,192,32689,1,0,0:0:0:0:
320,192,32783,1,0,0:0:0:0:
64,192,32877,1,0,0:0:0:0:
448,192,32971,1,0,0:0:0:0:
192,192,33064,1,0,0:0:0:0:
448,192,33158,1,0,0:0:0:0:
192,192,33252,1,0,0:0:0:0:
448,192,33346,1,0,0:0:0:0:
64,192,33346,128,0,33439:0:0:0:0:
320,192,33439,1,0,0:0:0:0:
448,192,33533,1,0,0:0:0:0:
192,192,33721,1,0,0:0:0:0:
64,192,33721,1,0,0:0:0:0:
320,192,33721,1,0,0:0:0:0:
448,192,33908,1,0,0:0:0:0:
64,192,34096,1,0,0:0:0:0:
448,192,34096,1,0,0:0:0:0:
320,192,34096,128,0,34189:0:0:0:0:
192,192,34283,1,0,0:0:0:0:
64,192,34471,1,0,0:0:0:0:
192,192,34471,1,0,0:0:0:0:
320,192,34471,1,0,0:0:0:0:
448,192,34471,1,0,0:0:0:0:
448,192,34564,1,0,0:0:0:0:
192,192,34658,1,0,0:0:0:0:
448,192,34752,1,0,0:0:0:0:
64,192,34846,1,0,0:0:0:0:
192,192,34846,128,0,34939:0:0:0:0:
320,192,34939,1,0,0:0:0:0:
64,192,35033,1,0,0:0:0:0:
320,192,35127,1,0,0:0:0:0:
64,192,35221,1,0,0:0:0:0:
192,192,35221,1,0,0:0:0:0:
448,192,35221,1,0,0:0:0:0:
320,192,35314,1,0,0:0:0:0:
64,192,35408,1,0,0:0:0:0:
192,192,35502,1,0,0:0:0:0:
448,192,35596,1,0,0:0:0:0:
64,192,35596,1,0,0:0:0:0:
320,192,35596,128,0,35689:0:0:0:0:
192,192,35783,1,0,0:0:0:0:
448,192,35971,1,0,0:0:0:0:
320,192,35971,1,0,0:0:0:0:
192,192,36158,1,0,0:0:0:0:
448,192,36346,128,0,36439:0:0:0:0:
320,192,36346,1,0,0:0:0:0:
64,192,36439,1,0,0:0:0:0:
320,192,36533,1,0,0:0:0:0:
64,192,36627,1,0,0:0:0:0:
192,192,36721,1,0,0:0:0:0:
320,192,36721,1,0,0:0:0:0:
448,192,36721,1,0,0:0:0:0:
448,192,36908,1,0,0:0:0:0:
64,192,37096,128,0,37189:0:0:0:0:
192,192,37096,1,0,0:0:0:0:
448,192,37189,1,0,0:0:0:0:
192,192,37283,1,0,0:0:0:0:
448,192,37377,1,0,0:0:0:0:
320,192,37471,1,0,0:0:0:0:
192,192,37471,1,0,0:0:0:0:
64,192,37471,1,0,0:0:0:0:
448,192,37564,1,0,0:0:0:0:
192,192,37658,1,0,0:0:0:0:
64,192,37658,1,0,0:0:0:0:
320,192,37752,1,0,0:0:0:0:
448,192,37846,1,0,0:0:0:0:
192,192,37846,1,0,0:0:0:0:
64,192,37846,1,0,0:0:0:0:
320,192,37939,1,0,0:0:0:0:
64,192,38033,1,0,0:0:0:0:
448,192,38033,1,0,0:0:0:0:
192,192,38127,1,0,0:0:0:0:
64,192,38221,1,0,0:0:0:0:
320,192,38221,1,0,0:0:0:0:
448,192,38221,1,0,0:0:0:0:
192,192,38314,1,0,0:0:0:0:
320,192,38408,1,0,0:0:0:0:
448,192,38408,1,0,0:0:0:0:
64,192,38502,1,0,0:0:0:0:
192,192,38596,1,0,0:0:0:0:
320,192,38596,1,0,0:0:0:0:
448,192,38596,1,0,0:0:0:0:
64,192,38689,1,0,0:0:0:0:
192,192,38783,1,0,0:0:0:0:
448,192,38783,1,0,0:0:0:0:
320,192,38877,1,0,0:0:0:0:
192,192,38971,1,0,0:0:0:0:
64,192,38971,1,0,0:0:0:0:
448,192,38971,1,0,0:0:0:0:
320,192,39064,1,0,0:0:0:0:
64,192,39158,1,0,0:0:0:0:
192,192,39158,1,0,0:0:0:0:
320,192,39252,1,0,0:0:0:0:
448,192,39346,1,0,0:0:0:0:
64,192,39346,1,0,0:0:0:0:
192,192,39346,1,0,0:0:0:0:
320,192,39439,1,0,0:0:0:0:
448,192,39533,1,0,0:0:0:0:
64,192,39533,1,0,0:0:0:0:
192,192,39627,1,0,0:0:0:0:
64,192,39721,1,0,0:0:0:0:
320,192,39721,1,0,0:0:0:0:
448,192,39721,1,0,0:0:0:0:
192,192,39814,1,0,0:0:0:0:
320,192,39908,1,0,0:0:0:0:
448,192,39908,1,0,0:0:0:0:
64,192,40002,1,0,0:0:0:0:
192,192,40096,1,0,0:0:0:0:
320,192,40096,1,0,0:0:0:0:
448,192,40096,1,0,0:0:0:0:
64,192,40189,1,0,0:0:0:0:
192,192,40283,1,0,0:0:0:0:
448,192,40283,1,0,0:0:0:0:
320,192,40377,1,0,0:0:0:0:
192,192,40471,1,0,0:0:0:0:
64,192,40471,1,0,0:0:0:0:
448,192,40471,128,0,40658:0:0:0:0:
448,192,40846,128,0,41033:0:0:0:0:
192,192,41127,128,0,41314:0:0:0:0:
192,192,41408,128,0,41596:0:0:0:0:
192,192,41689,128,0,41783:0:0:0:0:
320,192,41971,128,0,42158:0:0:0:0:
320,192,42346,128,0,42533:0:0:0:0:
320,192,42627,128,0,42814:0:0:0:0:
320,192,42908,128,0,43002:0:0:0:0:
64,192,43471,1,0,0:0:0:0:
320,192,43471,1,0,0:0:0:0:
448,192,43471,1,0,0:0:0:0:
192,192,43471,1,0,0:0:0:0:
320,192,43658,1,0,0:0:0:0:
192,192,43752,1,0,0:0:0:0:
64,192,43846,1,0,0:0:0:0:
448,192,43846,1,0,0:0:0:0:
320,192,43846,1,0,0:0:0:0:
192,192,44033,1,0,0:0:0:0:
64,192,44033,1,0,0:0:0:0:
320,192,44127,1,0,0:0:0:0:
448,192,44221,1,0,0:0:0:0:
192,192,44314,1,0,0:0:0:0:
64,192,44314,1,0,0:0:0:0:
320,192,44408,1,0,0:0:0:0:
448,192,44408,1,0,0:0:0:0:
192,192,44502,1,0,0:0:0:0:
64,192,44596,1,0,0:0:0:0:
320,192,44596,1,0,0:0:0:0:
448,192,44596,1,0,0:0:0:0:
192,192,44689,1,0,0:0:0:0:
320,192,44783,1,0,0:0:0:0:
64,192,44971,1,0,0:0:0:0:
192,192,44971,1,0,0:0:0:0:
448,192,44971,1,0,0:0:0:0:
320,192,45158,1,0,0:0:0:0:
192,192,45252,1,0,0:0:0:0:
64,192,45346,1,0,0:0:0:0:
320,192,45346,1,0,0:0:0:0:
448,192,45346,1,0,0:0:0:0:
320,192,45533,1,0,0:0:0:0:
192,192,45533,1,0,0:0:0:0:
448,192,45533,1,0,0:0:0:0:
64,192,45721,1,0,0:0:0:0:
320,192,45814,1,0,0:0:0:0:
448,192,45814,1,0,0:0:0:0:
192,192,45908,1,0,0:0:0:0:
64,192,45908,1,0,0:0:0:0:
320,192,46002,1,0,0:0:0:0:
192,192,46096,1,0,0:0:0:0:
64,192,46096,1,0,0:0:0:0:
448,192,46096,1,0,0:0:0:0:
320,192,46189,1,0,0:0:0:0:
192,192,46283,1,0,0:0:0:0:
64,192,46377,1,0,0:0:0:0:
192,192,46471,1,0,0:0:0:0:
320,192,46471,1,0,0:0:0:0:
448,192,46471,1,0,0:0:0:0:
448,192,46658,1,0,0:0:0:0:
320,192,46752,1,0,0:0:0:0:
192,192,46846,1,0,0:0:0:0:
64,192,46846,1,0,0:0:0:0:
448,192,46846,1,0,0:0:0:0:
320,192,47033,1,0,0:0:0:0:
64,192,47033,1,0,0:0:0:0:
192,192,47221,1,0,0:0:0:0:
320,192,47314,1,0,0:0:0:0:
448,192,47408,1,0,0:0:0:0:
192,192,47408,1,0,0:0:0:0:
64,192,47596,1,0,0:0:0:0:
320,192,47596,1,0,0:0:0:0:
448,192,47596,1,0,0:0:0:0:
192,192,47689,1,0,0:0:0:0:
320,192,47783,1,0,0:0:0:0:
448,192,47783,1,0,0:0:0:0:
192,192,47877,1,0,0:0:0:0:
64,192,47877,1,0,0:0:0:0:
320,192,47971,1,0,0:0:0:0:
448,192,47971,1,0,0:0:0:0:
192,192,48064,1,0,0:0:0:0:
64,192,48064,1,0,0:0:0:0:
320,192,48158,1,0,0:0:0:0:
448,192,48252,1,0,0:0:0:0:
192,192,48252,1,0,0:0:0:0:
320,192,48346,1,0,0:0:0:0:
64,192,48346,1,0,0:0:0:0:
448,192,48346,1,0,0:0:0:0:
192,192,48439,1,0,0:0:0:0:
320,192,48533,1,0,0:0:0:0:
448,192,48533,1,0,0:0:0:0:
64,192,48627,1,0,0:0:0:0:
192,192,48721,1,0,0:0:0:0:
320,192,48721,1,0,0:0:0:0:
64,192,48814,1,0,0:0:0:0:
448,192,48908,1,0,0:0:0:0:
64,192,49002,1,0,0:0:0:0:
192,192,49096,1,0,0:0:0:0:
320,192,49096,1,0,0:0:0:0:
448,192,49096,1,0,0:0:0:0:
64,192,49471,1,0,0:0:0:0:
192,192,49471,1,0,0:0:0:0:
448,192,49471,1,0,0:0:0:0:
320,192,49471,1,0,0:0:0:0:
