osu file format v14

[General]
AudioFilename: audio.mp3
AudioLeadIn: 0
PreviewTime: 57572
Countdown: 0
SampleSet: Soft
StackLeniency: 0.7
Mode: 0
LetterboxInBreaks: 0
WidescreenStoryboard: 0

[Editor]
Bookmarks: 85655
DistanceSpacing: 0.4
BeatDivisor: 8
GridSize: 32
TimelineZoom: 1.5

[Metadata]
Title:Kodou (TV Size)
TitleUnicode:鼓動 (TV Size)
Artist:Kagura Nana
ArtistUnicode:カグラナナ
Creator:Saggin
Version:courage
Source:探偵はもう、死んでいる。
Tags:japanese anime pop j-pop jpop tantei wa mou shindeiru たんもし tanmoshi la detective is already dead esta está muerta ed ending 40mp ななかぐら nanakagura vtuber virtual youtuber kaguranana siesta
BeatmapID:3090777
BeatmapSetID:1509265

[Difficulty]
HPDrainRate:5
CircleSize:4.4
OverallDifficulty:8
ApproachRate:9
SliderMultiplier:1.7
SliderTickRate:1

[Events]
//Background and Video events
0,0,"Siesta.png",0,0
//Break Periods
//Storyboard Layer 0 (Background)
//Storyboard Layer 1 (Fail)
//Storyboard Layer 2 (Pass)
//Storyboard Layer 3 (Foreground)
//Storyboard Layer 4 (Overlay)
//Storyboard Sound Samples

[TimingPoints]
-1511,666.666666666667,4,2,1,30,1,0
489,-200,4,2,1,30,0,0
1155,-100,4,2,1,30,0,0
5822,-133.333333333333,4,2,1,30,0,0
6489,-100,4,2,1,30,0,0
11155,-133.333333333333,4,2,1,30,0,0
11822,-100,4,2,1,30,0,0
16489,-200,4,2,1,30,0,0
17072,-200,4,2,1,5,0,0
17155,-200,4,2,1,30,0,0
19822,-200,4,2,1,20,0,0
22489,666.666666666667,4,2,1,60,1,0
22489,-50,4,2,1,60,0,0
22739,-50,4,2,1,5,0,0
22822,-50,4,2,1,60,0,0
24489,-100,4,2,1,30,0,0
25155,-50,4,2,1,60,0,0
25405,-50,4,2,1,5,0,0
25489,-50,4,2,1,60,0,0
29822,-50,4,2,1,30,0,0
30489,-50,4,2,1,60,0,0
30739,-50,4,2,1,5,0,0
30822,-50,4,2,1,60,0,0
33405,-50,4,2,1,5,0,0
33489,-50,4,2,1,60,0,0
35155,-100,4,2,1,30,0,0
35822,-50,4,2,1,60,0,0
36405,-50,4,2,1,5,0,0
36489,-50,4,2,1,60,0,0
38739,-50,4,2,1,5,0,0
38822,-50,4,2,1,60,0,0
39405,-50,4,2,1,5,0,0
39489,-50,4,2,1,60,0,0
40072,-50,4,2,1,5,0,0
40155,-50,4,2,1,60,0,0
41405,-50,4,2,1,5,0,0
41489,-50,4,2,1,60,0,0
42489,666.666666666667,4,2,1,50,1,0
42489,-55.5555555555556,4,2,1,50,0,0
50739,-55.5555555555556,4,2,1,5,0,0
50822,-55.5555555555556,4,2,1,50,0,0
54489,-55.5555555555556,4,2,1,60,0,0
55822,-45.4545454545455,4,2,1,70,0,0
56072,-45.4545454545455,4,2,1,5,0,0
56155,-45.4545454545455,4,2,1,80,0,0
57655,-100,4,2,1,30,0,0
58489,-41.6666666666667,4,2,1,75,0,0
62739,-41.6666666666667,4,2,1,5,0,0
62822,-41.6666666666667,4,2,1,75,0,0
65405,-41.6666666666667,4,2,1,5,0,0
65489,-41.6666666666667,4,2,1,75,0,0
66739,-41.6666666666667,4,2,1,5,0,0
66822,-41.6666666666667,4,2,1,75,0,0
70739,-41.6666666666667,4,2,1,5,0,0
70822,-41.6666666666667,4,2,1,75,0,0
71822,-37.037037037037,4,2,1,75,0,0
72072,-37.037037037037,4,2,1,5,0,0
72155,-37.037037037037,4,2,1,75,0,0
72739,-37.037037037037,4,2,1,5,0,0
72822,-33.3333333333333,4,2,1,75,0,0
73405,-33.3333333333333,4,2,1,5,0,0
73489,-41.6666666666667,4,2,1,75,0,0
73572,-41.6666666666667,4,2,1,5,0,0
73655,-41.6666666666667,4,2,1,75,0,0
76072,-41.6666666666667,4,2,1,5,0,0
76155,-41.6666666666667,4,2,1,75,0,0
77155,-166.666666666667,4,2,1,75,0,0
79489,-100,4,2,1,30,0,0
83489,-200,4,2,1,40,0,0
85155,-200,4,2,1,20,0,0

[Colours]
Combo1 : 223,223,223
Combo2 : 136,255,255

[HitObjects]
405,115,266,5,0,0:0:0:0:
405,115,489,2,0,P|399:162|398:173,1,42.5
443,305,1155,6,0,P|408:277|353:273,1,85,2|0,0:0|1:0,0:0:0:0:
369,270,1822,1,2,0:0:0:0:
230,353,2489,6,0,P|271:336|302:291,1,85,2|0,0:0|1:0,0:0:0:0:
296,306,3155,1,2,0:0:0:0:
185,188,3822,5,2,0:0:0:0:
185,188,4155,1,0,1:0:0:0:
232,132,4489,1,0,1:0:0:0:
146,40,4822,2,0,P|90:42|54:164,1,170,2|0,0:0|1:0,0:0:0:0:
2,232,5822,6,0,P|36:238|75:258,1,63.7500024318696
210,348,6489,6,0,P|169:315|164:278,1,85,2|0,0:0|1:0,0:0:0:0:
163,285,7155,1,2,0:0:0:0:
264,172,7822,6,0,P|255:224|226:246,1,85,2|0,0:0|1:0,0:0:0:0:
233,243,8489,1,2,0:0:0:0:
119,141,9155,5,2,0:0:0:0:
119,141,9489,1,0,1:0:0:0:
78,77,9822,1,0,1:0:0:0:
134,24,10155,2,0,B|230:23|180:96|280:101,1,170,2|0,0:0|1:0,0:0:0:0:
387,20,11155,6,0,P|381:70|380:102,1,63.7500024318696
475,178,11822,6,0,P|430:188|403:222,1,85,2|0,0:0|1:0,0:0:0:0:
405,216,12489,1,2,0:0:0:0:
328,325,13155,6,0,P|341:281|325:240,1,85,2|0,1:2|1:0,0:0:0:0:
329,245,13822,1,2,0:0:0:0:
167,114,14266,5,0,0:0:0:0:
221,65,14489,2,0,P|265:78|283:118,1,85,2|0,0:0|1:0,0:0:0:0:
282,110,15155,1,2,0:0:0:0:
189,273,15489,6,0,B|97:269|147:194|24:212,1,170,2|0,0:0|1:0,0:0:0:0:
203,43,16489,6,0,P|195:101|194:122,1,74.375,2|0,0:0|0:0,0:0:0:0:
196,136,17155,5,2,1:2:0:0:
196,136,17489,1,0,1:0:0:0:
291,232,18489,5,2,1:2:0:0:
291,232,18822,1,0,1:2:0:0:
404,140,19822,5,0,1:0:0:0:
404,140,20155,1,0,1:0:0:0:
512,244,21155,5,0,1:0:0:0:
512,244,21489,1,0,1:0:0:0:
512,244,21822,1,2,2:0:0:0:
504,257,22489,6,0,B|436:260|474:299|384:314,1,127.5,6|0,1:2|0:0,0:0:0:0:
333,268,22822,2,0,P|321:230|335:182,1,85,0|0,1:2|0:0,0:0:0:0:
505,120,23155,2,0,P|456:113|426:10,1,170,10|0,0:0|1:0,0:0:0:0:
224,121,23655,5,0,0:0:0:0:
268,66,23822,2,0,P|317:80|369:86,1,85,10|0,0:0|0:0,0:0:0:0:
245,239,24155,1,6,0:0:0:0:
245,239,24489,6,0,P|238:213|231:187,2,42.5,2|2|2,0:0|0:0|0:0,0:0:0:0:
245,239,24989,1,0,0:0:0:0:
79,357,25155,6,0,P|134:340|137:257,1,127.5,2|0,1:2|0:0,0:0:0:0:
131,206,25489,2,0,P|93:216|42:221,1,85,0|0,1:0|0:0,0:0:0:0:
208,366,25822,1,10,0:0:0:0:
208,366,26155,6,0,B|305:372|256:291|381:303,2,170,2|0|2,1:2|1:0|1:2,0:0:0:0:
341,377,26989,1,0,0:0:0:0:
217,246,27155,2,0,P|230:196|218:155,1,85,8|0,0:0|0:0,0:0:0:0:
98,71,27489,5,0,1:0:0:0:
145,130,27655,1,0,1:0:0:0:
275,25,27822,6,0,P|222:38|189:40,1,85,2|0,1:2|0:0,0:0:0:0:
301,158,28155,1,0,1:0:0:0:
301,158,28489,5,10,0:0:0:0:
360,197,28655,1,2,0:0:0:0:
419,158,28822,2,0,P|433:121|420:76,1,85,2|0,0:0|0:0,0:0:0:0:
247,213,29155,2,0,P|256:269|257:319,1,85,2|0,1:2|0:0,0:0:0:0:
333,87,29489,5,6,0:0:0:0:
327,74,29822,5,2,0:0:0:0:
327,74,29989,1,2,0:0:0:0:
316,57,30489,6,0,P|260:62|223:129,1,127.5,2|0,1:2|0:0,0:0:0:0:
199,187,30822,2,0,P|248:198|302:223,1,85,0|0,1:0|0:0,0:0:0:0:
178,30,31155,1,10,0:0:0:0:
178,30,31489,6,0,B|85:29|135:101|5:101,2,170,2|0|2,1:2|1:0|1:2,0:0:0:0:
46,24,32322,1,0,0:0:0:0:
155,182,32489,2,0,P|173:138|158:95,1,85,4|0,1:2|0:0,0:0:0:0:
14,228,32822,5,8,0:0:0:0:
146,340,32989,1,8,0:0:0:0:
79,180,33155,6,0,P|85:235|78:337,1,127.5,6|0,1:2|0:0,0:0:0:0:
38,360,33489,2,0,P|-7:338|-15:288,1,85,0|0,1:0|0:0,0:0:0:0:
157,180,33822,2,0,P|202:198|341:221,1,170,10|0,0:0|1:0,0:0:0:0:
443,328,34322,1,0,0:0:0:0:
398,191,34489,2,0,P|389:239|383:295,1,85,10|0,0:0|0:0,0:0:0:0:
242,374,34822,1,6,0:0:0:0:
242,374,35155,6,0,P|219:366|188:360,2,42.5,2|2|2,0:0|0:0|0:0,0:0:0:0:
242,374,35655,1,0,0:0:0:0:
156,195,35822,6,0,P|116:206|96:252,1,85,2|0,1:2|0:0,0:0:0:0:
270,160,36155,2,0,P|255:108|279:11,1,127.5
276,22,36489,1,10,0:0:0:0:
93,237,36822,6,0,B|200:239|135:317|265:321,1,170,2|0,1:2|1:0,0:0:0:0:
233,318,37489,2,0,P|284:303|330:304,1,85,2|2,0:0|0:0,0:0:0:0:
436,177,37822,1,10,0:0:0:0:
382,227,37989,1,2,0:0:0:0:
444,344,38155,2,0,P|446:296|457:244,1,85,2|2,1:2|0:0,0:0:0:0:
335,60,38489,6,0,P|281:68|246:154,1,127.5,2|0,1:2|0:0,0:0:0:0:
199,181,38822,2,0,P|205:229|203:288,1,85,0|0,1:2|0:0,0:0:0:0:
32,166,39155,2,0,P|18:121|51:35,1,127.5,10|0,0:0|0:0,0:0:0:0:
102,7,39489,2,0,P|147:22|188:27,1,85,0|0,1:0|1:0,0:0:0:0:
276,189,39822,6,0,B|352:181|314:134|414:128,1,127.5,2|0,1:2|0:0,0:0:0:0:
448,90,40155,2,0,P|462:50|448:11,1,85,0|0,1:0|0:0,0:0:0:0:
295,100,40489,5,10,0:0:0:0:
349,53,40655,1,0,0:0:0:0:
476,183,40822,2,0,P|428:189|380:216,1,85,0|8,1:0|0:0,0:0:0:0:
227,368,41155,6,0,P|254:310|218:221,1,127.5,2|0,1:2|0:0,0:0:0:0:
234,236,41489,1,8,0:0:0:0:
234,236,41822,5,8,0:0:0:0:
67,116,41989,1,8,0:0:0:0:
233,7,42155,1,0,1:0:0:0:
233,7,42489,6,0,L|221:166,2,152.999995330811,6|2|10,1:2|0:0|0:0,0:0:0:0:
435,128,43489,6,0,P|385:136|282:201,1,152.999995330811,2|0,1:2|1:0,0:0:0:0:
161,273,43989,1,0,0:0:0:0:
161,273,44155,2,0,B|251:279|200:334|312:357,1,152.999995330811,2|8,1:2|0:0,0:0:0:0:
434,265,44655,5,2,0:0:0:0:
468,203,44822,1,2,0:0:0:0:
433,139,44989,1,2,0:0:0:0:
506,267,45155,6,0,P|442:225|367:209,1,152.999995330811,2|0,1:2|1:0,0:0:0:0:
226,115,45655,1,2,0:0:0:0:
317,269,45822,2,0,P|297:221|322:97,1,152.999995330811,10|0,0:0|0:0,0:0:0:0:
340,58,46322,1,2,0:0:0:0:
181,184,46489,5,2,1:2:0:0:
181,184,46822,1,2,1:2:0:0:
43,57,47155,5,6,1:2:0:0:
43,57,47822,6,0,P|57:147|64:231,2,152.999995330811,6|2|10,1:2|0:0|0:0,0:0:0:0:
253,6,48822,6,0,P|307:-5|374:135,1,229.499992996216,2|0,1:2|0:0,0:0:0:0:
213,227,49489,5,2,0:0:0:0:
306,71,49655,2,0,P|296:141|291:248,1,152.999995330811,2|0,0:0|0:0,0:0:0:0:
154,353,50155,1,2,0:0:0:0:
167,284,50322,5,2,1:2:0:0:
167,284,50405,1,0,1:0:0:0:
167,284,50489,2,0,B|232:287|195:336|300:338,1,114.749996498108,0|0,1:2|0:0,0:0:0:0:
335,372,50822,2,0,P|346:328|328:288,1,76.4999976654053,0|0,1:0|0:0,0:0:0:0:
219,149,51155,1,8,0:0:0:0:
219,140,51489,5,2,1:2:0:0:
219,140,51655,1,0,1:2:0:0:
65,187,51822,2,0,P|119:196|160:222,1,76.4999976654053,2|0,1:2|0:0,0:0:0:0:
215,34,52155,2,0,P|179:48|141:52,1,76.4999976654053,2|0,1:2|0:0,0:0:0:0:
288,212,52489,1,10,0:0:0:0:
288,212,52822,6,0,P|271:164|287:52,1,152.999995330811,2|0,0:0|1:0,0:0:0:0:
423,146,53322,1,2,0:0:0:0:
358,13,53489,2,0,P|362:59|362:117,1,76.4999976654053,2|0,1:2|0:0,0:0:0:0:
507,221,53822,2,0,B|458:232|414:252|415:252,1,76.4999976654053,8|0,0:0|0:0,0:0:0:0:
330,354,54155,5,0,1:0:0:0:
353,333,54266,2,0,P|361:299|351:273,1,50.9999984436036,0|0,1:0|1:0,0:0:0:0:
430,130,54489,2,0,P|379:137|275:191,1,152.999995330811,8|0,0:0|1:0,0:0:0:0:
146,108,54989,5,0,1:0:0:0:
146,108,55072,1,0,1:0:0:0:
146,108,55155,1,8,0:0:0:0:
37,217,55322,1,8,0:0:0:0:
228,105,55489,1,0,1:0:0:0:
45,0,55655,1,0,1:0:0:0:
190,219,55822,6,0,B|243:238|243:238|259:267|259:267|322:287,1,140.25000428009,4|0,0:0|0:0,0:0:0:0:
374,247,56155,2,0,B|390:200|390:200|374:153,1,93.5000028533936,8|0,0:0|0:0,0:0:0:0:
307,48,56489,5,0,1:0:0:0:
254,29,56600,1,0,1:0:0:0:
210,50,56711,1,0,1:0:0:0:
198,61,56822,5,0,1:0:0:0:
180,68,56933,1,0,1:0:0:0:
162,61,57044,1,0,1:0:0:0:
112,5,57155,5,8,0:0:0:0:
109,11,57655,6,0,P|114:63|115:86,2,42.5,2|2|2,0:0|0:0|0:0,0:0:0:0:
29,138,58155,5,2,0:0:0:0:
29,138,58322,1,2,0:0:0:0:
29,138,58489,6,0,B|102:160|102:160|120:201|120:201|205:232,1,203.999993774414,6|0,0:0|1:0,0:0:0:0:
370,131,58989,1,2,0:0:0:0:
210,21,59155,1,8,0:0:0:0:
309,188,59322,1,2,0:0:0:0:
412,24,59489,2,0,P|359:36|308:40,1,101.999996887207,2|2,0:0|0:0,0:0:0:0:
470,155,59822,5,0,1:0:0:0:
470,155,59989,1,0,1:0:0:0:
321,260,60155,2,0,P|371:264|419:281,1,101.999996887207,0|2,1:0|0:0,0:0:0:0:
275,105,60489,2,0,P|259:162|284:213,1,101.999996887207,10|2,0:0|0:0,0:0:0:0:
382,354,60822,1,2,1:2:0:0:
492,227,60989,1,2,0:0:0:0:
292,347,61155,6,0,B|260:286|186:304|186:304|164:337|93:347,1,203.999993774414,2|2,1:2|0:0,0:0:0:0:
0,197,61655,1,2,0:0:0:0:
76,153,61822,2,0,P|67:216|68:270,1,101.999996887207,8|0,0:0|0:0,0:0:0:0:
192,128,62155,1,2,1:2:0:0:
51,24,62322,1,2,1:2:0:0:
185,202,62489,6,0,B|269:202|237:129|345:135,1,152.999995330811,0|0,1:0|0:0,0:0:0:0:
376,101,62822,2,0,P|392:55|370:4,1,101.999996887207,0|2,1:0|0:0,0:0:0:0:
192,128,63155,1,10,0:0:0:0:
356,236,63322,1,2,0:0:0:0:
260,76,63489,1,2,1:2:0:0:
260,76,63655,1,2,0:0:0:0:
114,245,63822,6,0,P|137:190|103:41,1,203.999993774414,2|0,1:2|0:0,0:0:0:0:
54,3,64322,1,2,0:0:0:0:
214,131,64489,1,10,0:0:0:0:
40,240,64655,1,2,0:0:0:0:
220,116,64822,2,0,P|279:133|324:135,1,101.999996887207,2|2,1:2|0:0,0:0:0:0:
229,348,65155,6,0,B|120:346|207:258|56:299|57:299,1,152.999995330811,2|0,1:2|0:0,0:0:0:0:
35,246,65489,2,0,P|23:214|40:147,1,101.999996887207,2|0,1:2|0:0,0:0:0:0:
182,21,65822,1,10,0:0:0:0:
20,77,65989,2,0,P|76:82|115:123,1,101.999996887207,2|0,0:0|1:0,0:0:0:0:
233,267,66322,5,0,1:0:0:0:
233,267,66405,1,0,1:0:0:0:
233,267,66489,2,0,P|292:260|329:169,1,152.999995330811,2|0,1:2|0:0,0:0:0:0:
389,140,66822,2,0,P|377:84|375:29,1,101.999996887207,2|0,1:2|0:0,0:0:0:0:
179,157,67155,2,0,P|187:215|196:360,1,203.999993774414,10|2,0:0|1:2,0:0:0:0:
322,203,67655,6,0,P|378:219|434:226,1,101.999996887207,2|0,0:0|1:0,0:0:0:0:
266,43,67989,2,0,P|217:57|166:65,1,101.999996887207,2|0,1:2|1:0,0:0:0:0:
21,216,68322,5,2,0:0:0:0:
194,132,68489,1,10,0:0:0:0:
31,18,68655,1,10,0:0:0:0:
147,199,68822,1,2,1:2:0:0:
147,199,68989,1,2,1:2:0:0:
253,15,69155,6,0,B|327:47|327:47|340:80|340:80|426:118,1,203.999993774414,6|0,1:2|0:0,0:0:0:0:
484,66,69655,1,2,0:0:0:0:
303,188,69822,1,10,0:0:0:0:
496,309,69989,1,2,0:0:0:0:
388,186,70155,2,0,P|395:242|392:296,1,101.999996887207,2|2,1:2|0:0,0:0:0:0:
190,55,70489,6,0,P|122:69|97:159,1,152.999995330811,2|0,1:2|0:0,0:0:0:0:
60,212,70822,2,0,P|115:220|176:243,1,101.999996887207,2|0,1:2|0:0,0:0:0:0:
320,67,71155,6,0,P|338:119|320:174,1,101.999996887207,10|0,0:0|0:0,0:0:0:0:
221,321,71489,1,2,0:0:0:0:
244,248,71655,5,0,1:2:0:0:
244,248,71739,1,0,1:2:0:0:
244,248,71822,2,0,B|339:247|295:341|427:319,1,172.125000656605,6|0,1:2|0:0,0:0:0:0:
384,243,72155,1,0,1:0:0:0:
123,377,72322,5,0,1:0:0:0:
123,377,72405,1,0,1:0:0:0:
123,377,72489,2,0,P|118:317|92:173,1,172.125000656605,6|0,1:2|1:2,0:0:0:0:
97,187,72822,1,2,1:2:0:0:
197,318,72989,1,2,1:2:0:0:
24,148,73155,6,0,B|94:125|94:125|116:93|116:93|223:63,1,191.250007295609,4|0,1:2|0:0,0:0:0:0:
256,41,73489,2,0,P|265:78|251:97,1,50.9999984436036,8|0,0:0|0:0,0:0:0:0:
336,163,73655,5,2,0:0:0:0:
386,104,73822,1,10,0:0:0:0:
213,227,73989,1,10,0:0:0:0:
397,331,74155,1,0,1:2:0:0:
324,361,74322,5,0,1:2:0:0:
324,361,74405,1,0,1:2:0:0:
324,361,74489,2,0,P|306:297|340:147,1,203.999993774414,6|0,1:2|1:0,0:0:0:0:
396,119,74989,5,2,0:0:0:0:
273,8,75155,2,0,P|335:22|384:27,1,101.999996887207,10|0,0:0|0:0,0:0:0:0:
259,142,75489,1,2,1:2:0:0:
157,23,75655,1,2,1:2:0:0:
341,173,75822,6,0,B|243:176|305:227|207:235,1,152.999995330811,0|0,1:0|0:0,0:0:0:0:
154,199,76155,2,0,P|138:150|156:98,1,101.999996887207,2|0,1:2|0:0,0:0:0:0:
54,244,76489,5,8,0:0:0:0:
5,186,76655,1,2,0:0:0:0:
172,296,76822,5,8,0:0:0:0:
0,384,76989,1,8,0:0:0:0:
220,166,77155,6,0,B|350:177|260:261|439:283|439:283|387:267|359:224,1,356.999989105225,6|0,1:2|0:0,0:0:0:0:
354,228,79822,6,0,P|359:178|372:134,2,85,2|2|2,0:0|0:0|0:0,0:0:0:0:
427,358,80822,2,0,P|389:335|262:367,1,170,2|2,0:0|0:0,0:0:0:0:
97,256,81822,5,2,0:0:0:0:
68,188,81989,1,2,0:0:0:0:
105,127,82155,1,2,0:0:0:0:
105,127,82489,6,0,P|100:77|87:33,2,85,2|2|2,0:0|0:0|0:0,0:0:0:0:
22,252,83489,6,0,P|98:217|245:210,1,212.5,2|2,0:0|0:0,0:0:0:0:
