osu file format v14

[General]
AudioFilename: audio.mp3
AudioLeadIn: 0
PreviewTime: 57572
Countdown: 0
SampleSet: Soft
StackLeniency: 0.7
Mode: 0
LetterboxInBreaks: 0
WidescreenStoryboard: 1

[Editor]
Bookmarks: 85655
DistanceSpacing: 1
BeatDivisor: 4
GridSize: 32
TimelineZoom: 1.5

[Metadata]
Title:Kodou (TV Size)
TitleUnicode:鼓動 (TV Size)
Artist:Kagura Nana
ArtistUnicode:カグラナナ
Creator:Saggin
Version:normal
Source:探偵はもう、死んでいる。
Tags:japanese anime pop j-pop jpop tantei wa mou shindeiru たんもし tanmoshi la detective is already dead esta está muerta ed ending 40mp ななかぐら nanakagura vtuber virtual youtuber kaguranana siesta
BeatmapID:3092668
BeatmapSetID:1509265

[Difficulty]
HPDrainRate:3
CircleSize:3
OverallDifficulty:4.5
ApproachRate:5.5
SliderMultiplier:2
SliderTickRate:1

[Events]
//Background and Video events
0,0,"Siesta.png",0,0
//Break Periods
//Storyboard Layer 0 (Background)
//Storyboard Layer 1 (Fail)
//Storyboard Layer 2 (Pass)
//Storyboard Layer 3 (Foreground)
//Storyboard Layer 4 (Overlay)
//Storyboard Sound Samples

[TimingPoints]
-1511,666.666666666667,4,2,1,30,1,0
1155,-111.111111111111,4,2,1,30,0,0
17072,-111.111111111111,4,2,1,5,0,0
17155,-111.111111111111,4,2,1,30,0,0
19822,-111.111111111111,4,2,1,20,0,0
22489,666.666666666667,4,2,1,60,1,0
22739,-100,4,2,1,5,0,0
22822,-100,4,2,1,60,0,0
24489,-100,4,2,1,30,0,0
25155,-100,4,2,1,60,0,0
25405,-100,4,2,1,5,0,0
25489,-100,4,2,1,60,0,0
29822,-100,4,2,1,30,0,0
30489,-100,4,2,1,60,0,0
30739,-100,4,2,1,5,0,0
30822,-100,4,2,1,60,0,0
33405,-100,4,2,1,5,0,0
33489,-100,4,2,1,60,0,0
35155,-100,4,2,1,30,0,0
35822,-100,4,2,1,60,0,0
36405,-100,4,2,1,5,0,0
36489,-100,4,2,1,60,0,0
38739,-100,4,2,1,5,0,0
38822,-100,4,2,1,60,0,0
39405,-100,4,2,1,5,0,0
39489,-100,4,2,1,60,0,0
40072,-100,4,2,1,5,0,0
40155,-100,4,2,1,60,0,0
41405,-100,4,2,1,5,0,0
41489,-100,4,2,1,60,0,0
42489,666.666666666667,4,2,1,50,1,0
50739,-100,4,2,1,5,0,0
50822,-100,4,2,1,50,0,0
54489,-100,4,2,1,60,0,0
55822,-100,4,2,1,70,0,0
56072,-100,4,2,1,5,0,0
56155,-100,4,2,1,80,0,0
57655,-100,4,2,1,30,0,0
58489,-100,4,2,1,75,0,0
62739,-100,4,2,1,5,0,0
62822,-100,4,2,1,75,0,0
65405,-100,4,2,1,5,0,0
65489,-100,4,2,1,75,0,0
66739,-100,4,2,1,5,0,0
66822,-100,4,2,1,75,0,0
70739,-100,4,2,1,5,0,0
70822,-100,4,2,1,75,0,0
72072,-100,4,2,1,5,0,0
72155,-100,4,2,1,75,0,0
72739,-100,4,2,1,5,0,0
72822,-100,4,2,1,75,0,0
73405,-100,4,2,1,5,0,0
73489,-100,4,2,1,75,0,0
73572,-100,4,2,1,5,0,0
73655,-100,4,2,1,75,0,0
76072,-100,4,2,1,5,0,0
76155,-100,4,2,1,75,0,0
79155,-111.111111111111,4,2,1,30,0,0
83489,-111.111111111111,4,2,1,40,0,0
85155,-111.111111111111,4,2,1,25,0,0

[Colours]
Combo1 : 223,223,223
Combo2 : 136,255,255

[HitObjects]
426,115,1155,6,0,P|416:176|414:207,2,89.9999972534181,2|0|2,0:0|1:0|0:0,0:0:0:0:
285,228,2489,2,0,P|295:289|296:333,2,89.9999972534181,2|0|2,0:0|1:0|0:0,0:0:0:0:
180,101,3822,2,0,P|130:117|89:125,2,89.9999972534181,2|0|0,0:0|1:0|1:0,0:0:0:0:
242,35,4822,2,0,P|300:27|357:135,1,179.999994506836,2|0,0:0|1:0,0:0:0:0:
159,296,6489,6,0,P|157:246|151:202,2,89.9999972534181,2|0|2,0:0|1:0|0:0,0:0:0:0:
273,195,7822,2,0,P|274:145|281:100,2,89.9999972534181,2|0|2,0:0|1:0|0:0,0:0:0:0:
365,340,9155,2,0,P|418:326|460:320,2,89.9999972534181,2|0|0,0:0|1:0|1:0,0:0:0:0:
278,365,10155,2,0,B|175:370|228:285|77:317,1,179.999994506836,2|0,0:0|1:0,0:0:0:0:
321,138,11822,6,0,P|312:201|312:254,2,89.9999972534181,2|0|2,0:0|1:0|0:0,0:0:0:0:
156,64,13155,2,0,P|163:113|165:157,2,89.9999972534181,2|0|2,1:2|1:0|0:0,0:0:0:0:
326,6,14489,2,0,P|380:20|402:75,1,89.9999972534181,2|0,0:0|1:0,0:0:0:0:
458,113,15155,1,2,0:0:0:0:
398,180,15489,2,0,P|351:189|210:242,1,179.999994506836,2|0,0:0|1:0,0:0:0:0:
152,284,16489,2,0,P|167:231|134:168,1,89.9999972534181,2|0,0:0|0:0,0:0:0:0:
115,119,17155,5,2,1:2:0:0:
420,310,18489,1,2,1:2:0:0:
256,192,18655,12,2,21822,2:0:0:0:
426,82,22489,6,0,P|357:91|327:117,1,100,6|0,1:2|1:2,0:0:0:0:
287,196,23155,2,0,P|218:187|188:161,1,100,10|0,0:0|1:0,0:0:0:0:
163,130,23655,1,0,0:0:0:0:
163,130,23822,1,10,0:0:0:0:
78,76,24155,1,6,0:0:0:0:
20,319,25155,6,0,P|80:301|102:261,1,100,2|0,1:2|1:0,0:0:0:0:
155,189,25822,1,10,0:0:0:0:
245,146,26155,2,0,P|237:220|233:352,1,200,2|2,1:2|1:2,0:0:0:0:
331,362,27155,2,0,P|381:342|429:338,1,100,8|0,0:0|1:0,0:0:0:0:
473,355,27655,1,0,1:0:0:0:
473,355,27822,6,0,P|455:302|469:248,1,100,2|0,1:2|1:0,0:0:0:0:
490,163,28489,2,0,P|508:110|494:56,1,100,10|2,0:0|0:0,0:0:0:0:
471,26,28989,1,0,0:0:0:0:
471,26,29155,1,2,1:2:0:0:
380,68,29489,1,6,0:0:0:0:
84,17,30489,6,0,P|145:34|161:82,1,100,2|0,1:2|1:0,0:0:0:0:
107,148,31155,1,10,0:0:0:0:
166,228,31489,2,0,P|230:207|367:182,1,200,2|2,1:2|1:2,0:0:0:0:
461,232,32489,2,0,P|475:286|451:334,1,100,4|8,1:2|0:0,0:0:0:0:
418,354,32989,1,8,0:0:0:0:
418,354,33155,6,0,P|373:331|323:328,1,100,6|0,1:2|1:0,0:0:0:0:
298,231,33822,2,0,P|253:254|203:257,1,100,10|0,0:0|1:0,0:0:0:0:
154,248,34322,1,0,0:0:0:0:
154,248,34489,1,10,0:0:0:0:
89,171,34822,1,6,0:0:0:0:
355,32,35822,6,0,P|407:55|458:61,1,100,2|0,1:2|0:0,0:0:0:0:
507,142,36489,1,10,0:0:0:0:
432,208,36822,2,0,P|382:215|337:237,1,100,2|0,1:2|1:0,0:0:0:0:
270,311,37489,2,0,P|241:299|208:296,1,50,2|2,0:0|0:0,0:0:0:0:
199,251,37822,2,0,P|170:263|137:266,1,50,10|2,0:0|0:0,0:0:0:0:
105,247,38155,1,2,1:2:0:0:
28,182,38489,6,0,P|46:134|95:114,1,100,2|0,1:2|1:2,0:0:0:0:
158,43,39155,2,0,P|217:58|269:60,1,100,10|0,0:0|1:0,0:0:0:0:
296,30,39655,1,0,1:0:0:0:
296,30,39822,2,0,P|281:104|279:167,1,100,2|0,1:2|1:0,0:0:0:0:
216,206,40489,2,0,P|191:197|164:196,2,50,10|0|0,0:0|0:0|1:0,0:0:0:0:
247,245,40989,1,8,0:0:0:0:
247,245,41155,5,2,1:2:0:0:
322,310,41489,1,8,0:0:0:0:
405,254,41822,2,0,P|411:221|416:204,1,50,8|8,0:0|0:0,0:0:0:0:
432,158,42155,1,0,1:0:0:0:
374,75,42489,6,0,P|324:57|248:171,1,200,6|10,1:2|0:0,0:0:0:0:
318,221,43489,2,0,P|310:272|305:346,1,100,2|0,1:2|1:0,0:0:0:0:
213,358,44155,2,0,P|160:338|106:334,1,100,2|8,1:2|0:0,0:0:0:0:
27,287,44822,2,0,L|40:232,1,50,2|2,0:0|0:0,0:0:0:0:
63,195,45155,6,0,P|57:155|35:77,1,100,2|0,1:2|1:0,0:0:0:0:
117,31,45822,2,0,P|176:55|198:103,1,100,10|0,0:0|0:0,0:0:0:0:
252,165,46489,2,0,P|243:221|244:283,2,100,2|2|6,1:2|1:2|1:2,0:0:0:0:
334,108,47489,1,0,0:0:0:0:
269,32,47822,6,0,B|166:31|221:112|75:110,1,200,6|10,1:2|0:0,0:0:0:0:
18,42,48822,2,0,P|42:90|8:230,1,200,2|2,1:2|0:0,0:0:0:0:
9,280,49655,1,2,0:0:0:0:
9,280,49822,1,8,0:0:0:0:
92,334,50155,2,0,P|123:320|153:318,1,50,2|2,0:0|1:2,0:0:0:0:
184,296,50489,6,0,L|165:190,2,100,0|0|8,1:2|1:0|0:0,0:0:0:0:
284,338,51489,2,0,P|312:344|352:347,1,50,2|0,1:2|1:2,0:0:0:0:
381,358,51822,2,0,P|401:305|386:260,1,100,2|2,1:2|1:2,0:0:0:0:
332,182,52489,1,10,0:0:0:0:
251,122,52822,2,0,L|260:69,1,50,2|0,0:0|0:0,0:0:0:0:
289,32,53155,6,0,P|343:39|378:82,1,100,0|2,1:0|1:2,0:0:0:0:
467,104,53822,2,0,P|460:165|461:209,1,100,8|0,0:0|1:0,0:0:0:0:
390,274,54489,1,8,0:0:0:0:
313,209,54822,1,0,1:0:0:0:
235,271,55155,2,0,P|214:257|184:254,1,50,8|8,0:0|0:0,0:0:0:0:
154,217,55489,2,0,P|133:231|103:234,1,50,0|0,1:0|1:0,0:0:0:0:
67,206,55822,5,4,0:0:0:0:
10,123,56155,1,8,0:0:0:0:
86,43,56489,2,0,P|119:56|159:62,2,50,0|0|0,1:0|0:0|1:0,0:0:0:0:
36,17,56989,1,0,0:0:0:0:
36,17,57155,1,8,0:0:0:0:
382,297,58489,6,0,B|324:306|324:306|297:335|297:335|210:351,1,150,6|2,0:0|0:0,0:0:0:0:
203,310,59155,2,0,P|196:287|204:253,1,50,8|2,0:0|0:0,0:0:0:0:
248,235,59489,2,0,P|255:212|247:178,1,50,2|2,0:0|0:0,0:0:0:0:
211,148,59822,1,0,1:0:0:0:
145,60,60155,1,0,1:0:0:0:
243,9,60489,6,0,L|296:20,1,50,10|2,0:0|0:0,0:0:0:0:
319,67,60822,2,0,L|367:56,1,50,2|2,1:2|0:0,0:0:0:0:
411,22,61155,2,0,P|401:90|401:142,1,100,2|2,1:2|0:0,0:0:0:0:
392,175,61655,1,2,0:0:0:0:
392,175,61822,1,8,0:0:0:0:
461,260,62155,2,0,P|470:295|462:324,1,50,2|2,1:2|1:2,0:0:0:0:
433,351,62489,2,0,P|385:330|324:328,1,100,0|0,1:0|1:0,0:0:0:0:
247,263,63155,6,0,P|243:239|249:207,1,50,10|2,0:0|0:0,0:0:0:0:
295,187,63489,2,0,P|299:162|295:137,1,50,2|2,1:2|0:0,0:0:0:0:
260,94,63822,2,0,P|207:107|154:110,1,100,2|0,1:2|0:0,0:0:0:0:
52,94,64489,6,0,P|50:138|69:163,1,50,10|2,0:0|0:0,0:0:0:0:
99,170,64822,2,0,P|101:214|82:239,1,50,2|2,1:2|0:0,0:0:0:0:
65,261,65155,1,2,1:2:0:0:
144,337,65489,1,2,1:2:0:0:
232,271,65822,2,0,L|290:285,1,50,10|2,0:0|0:0,0:0:0:0:
334,295,66155,1,0,1:0:0:0:
436,336,66489,6,0,P|416:284|437:232,1,100,2|2,1:2|1:2,0:0:0:0:
507,166,67155,2,0,P|459:152|430:112,1,100,10|2,0:0|1:2,0:0:0:0:
403,65,67655,2,0,P|354:80|306:87,1,100,2|2,0:0|1:2,0:0:0:0:
201,73,68322,1,2,0:0:0:0:
201,73,68489,2,0,P|205:117|204:149,1,50,10|10,0:0|0:0,0:0:0:0:
243,162,68822,2,0,P|239:206|240:238,1,50,2|2,1:2|1:2,0:0:0:0:
263,261,69155,6,0,P|210:234|77:221,1,150,6|2,1:2|0:0,0:0:0:0:
73,245,69822,1,10,0:0:0:0:
1,175,70155,2,0,L|9:117,1,50,2|2,1:2|0:0,0:0:0:0:
22,77,70489,1,2,1:2:0:0:
98,12,70822,1,2,1:2:0:0:
171,80,71155,1,10,0:0:0:0:
250,18,71489,2,0,L|309:28,1,50,2|0,0:0|1:2,0:0:0:0:
330,65,71822,6,0,P|314:161|312:207,1,100,6|0,1:2|1:0,0:0:0:0:
220,199,72489,2,0,P|236:295|238:341,1,100,6|2,1:2|1:2,0:0:0:0:
201,333,72989,1,2,1:2:0:0:
201,333,73155,2,0,P|255:350|306:369,1,100,4|8,1:2|0:0,0:0:0:0:
371,299,73822,1,10,0:0:0:0:
371,299,73989,1,10,0:0:0:0:
371,299,74155,2,0,B|365:234|365:235,1,50,0|0,1:2|1:2,0:0:0:0:
353,200,74489,6,0,B|416:217|416:217|431:245|431:245|526:271,1,150,6|2,1:2|0:0,0:0:0:0:
510,217,75155,1,10,0:0:0:0:
466,126,75489,2,0,P|455:85|465:60,1,50,2|2,1:2|1:2,0:0:0:0:
423,40,75822,2,0,P|371:55|345:99,1,100,0|2,1:0|1:2,0:0:0:0:
301,180,76489,2,0,P|307:214|313:249,1,50,8|2,0:0|0:0,0:0:0:0:
321,280,76822,1,8,0:0:0:0:
321,280,76989,1,8,0:0:0:0:
321,280,77155,5,6,1:2:0:0:
256,192,77322,12,0,79155,0:0:0:0:
77,61,79822,6,0,P|125:78|180:89,1,89.9999972534181,2|2,0:0|0:0,0:0:0:0:
242,42,80489,1,2,0:0:0:0:
311,99,80822,2,0,P|303:160|301:295,1,179.999994506836,2|2,0:0|0:0,0:0:0:0:
236,342,81822,2,0,P|204:328|178:327,2,44.999998626709,2|2|2,0:0|0:0|0:0,0:0:0:0:
322,368,82489,2,0,P|373:353|420:346,1,89.9999972534181,2|2,0:0|0:0,0:0:0:0:
468,278,83155,1,2,0:0:0:0:
414,205,83489,1,2,0:0:0:0:
256,192,83655,12,2,85155,0:0:0:0:
