osu file format v14

[General]
AudioFilename: audio.mp3
AudioLeadIn: 0
PreviewTime: 57655
Countdown: 0
SampleSet: Normal
StackLeniency: 0.7
Mode: 1
LetterboxInBreaks: 0
WidescreenStoryboard: 1

[Editor]
DistanceSpacing: 0.8
BeatDivisor: 4
GridSize: 32
TimelineZoom: 1

[Metadata]
Title:Kodou (TV Size)
TitleUnicode:鼓動 (TV Size)
Artist:Kagura Nana
ArtistUnicode:カグラナナ
Creator:KennethBBG
Version:Futsuu
Source:探偵はもう、死んでいる。
Tags:iredi La detective está esta muerta. 神楽七奈 40mP japanese anime pop j-pop jpop j-rock jrock たんもし tanmoshi the detective is already dead ed ending Vtuber Virtual Youtuber Siesta 40meterp 40meter-p Tantei wa Mou, Shindeiru. バーチャル ユーチューバー ななかぐら
BeatmapID:3875599
BeatmapSetID:1882413

[Difficulty]
HPDrainRate:8
CircleSize:3
OverallDifficulty:3
ApproachRate:5
SliderMultiplier:1.7
SliderTickRate:1

[Events]
//Background and Video events
0,0,"BG.jpg",0,60
Video,-350,"output.mp4"
//Break Periods
//Storyboard Layer 0 (Background)
//Storyboard Layer 1 (Fail)
//Storyboard Layer 2 (Pass)
//Storyboard Layer 3 (Foreground)
//Storyboard Layer 4 (Overlay)
//Storyboard Sound Samples

[TimingPoints]
1155,666.666666666667,4,1,0,60,1,0
22488,-100,4,1,0,70,0,0
42489,666.666666666667,4,1,0,70,1,0
58489,666.666666666667,4,1,0,80,1,1
58489,-100,4,1,0,80,0,1
77155,-100,4,1,0,60,0,0
83655,-100,4,1,0,60,0,0
84322,-100,4,1,0,50,0,0
84989,-100,4,1,0,40,0,0
85655,-100,4,1,0,30,0,0
86322,-100,4,1,0,20,0,0
86989,-100,4,1,0,10,0,0

[HitObjects]
426,115,1155,5,8,1:0:0:0:
419,143,1822,1,0,1:0:0:0:
419,143,2488,1,8,1:0:0:0:
419,143,2821,1,8,1:0:0:0:
418,144,3155,1,0,1:0:0:0:
418,145,3822,1,0,1:0:0:0:
416,148,4489,1,0,1:0:0:0:
415,148,4822,1,8,1:0:0:0:
426,115,6489,1,8,1:0:0:0:
419,143,7156,1,0,1:0:0:0:
419,143,7821,1,8,1:0:0:0:
419,143,8155,1,8,1:0:0:0:
418,144,8489,1,0,1:0:0:0:
418,145,9156,1,8,1:0:0:0:
416,148,9822,1,0,1:0:0:0:
416,148,10155,1,8,1:0:0:0:
414,149,11155,1,0,1:0:0:0:
416,148,11822,1,8,1:0:0:0:
416,148,12489,1,0,1:0:0:0:
416,148,13155,1,8,1:0:0:0:
416,148,13488,1,0,1:0:0:0:
416,148,13821,1,8,1:0:0:0:
416,148,14489,1,8,1:0:0:0:
416,148,15155,1,0,1:0:0:0:
416,148,15489,1,8,1:0:0:0:
416,148,16489,1,8,1:0:0:0:
115,119,17155,1,8,0:0:0:0:
416,148,17489,1,0,1:0:0:0:
115,119,18489,1,0,1:0:0:0:
314,197,18821,1,0,0:0:0:0:
256,192,19821,12,0,21821,0:0:0:0:
512,0,22488,5,4,1:0:0:0:
419,143,22821,1,0,1:0:0:0:
115,119,23155,1,8,1:0:0:0:
163,130,23821,1,0,1:0:0:0:
78,76,24155,1,8,1:0:0:0:
115,119,25155,1,0,1:0:0:0:
115,119,25822,1,8,1:0:0:0:
115,119,26155,1,0,1:0:0:0:
115,119,26821,1,0,1:0:0:0:
115,119,27155,1,8,1:0:0:0:
115,119,27489,1,0,1:0:0:0:
115,119,27822,1,0,1:0:0:0:
416,148,27988,1,0,1:0:0:0:
416,148,28155,1,0,1:0:0:0:
115,119,28489,1,8,1:0:0:0:
471,26,29155,1,0,1:0:0:0:
380,68,29488,1,8,1:0:0:0:
78,76,30489,1,8,1:0:0:0:
107,148,31155,1,8,1:0:0:0:
78,76,31489,1,0,1:0:0:0:
171,129,32155,1,0,1:0:0:0:
171,129,32489,1,8,1:0:0:0:
171,129,32821,1,8,1:0:0:0:
418,354,32988,1,8,1:0:0:0:
512,0,33155,1,4,1:0:0:0:
208,172,33821,1,8,1:0:0:0:
163,130,34488,1,0,1:0:0:0:
78,76,34821,1,8,1:0:0:0:
78,76,35822,1,0,1:0:0:0:
78,76,36489,1,8,1:0:0:0:
78,76,36822,1,0,1:0:0:0:
78,76,37489,1,0,1:0:0:0:
78,76,37655,1,0,1:0:0:0:
78,76,37822,1,8,1:0:0:0:
115,119,38488,1,0,1:0:0:0:
115,119,38821,1,0,1:0:0:0:
115,119,39155,1,8,1:0:0:0:
115,119,39822,1,0,1:0:0:0:
115,119,40155,1,0,1:0:0:0:
115,119,40488,1,8,1:0:0:0:
115,119,40655,1,8,1:0:0:0:
115,119,40822,1,8,1:0:0:0:
115,119,41155,1,0,1:0:0:0:
322,310,41489,1,8,1:0:0:0:
115,119,41821,1,8,1:0:0:0:
508,0,42488,1,4,1:0:0:0:
115,119,43155,1,8,1:0:0:0:
115,119,43489,1,0,1:0:0:0:
115,119,44155,1,0,1:0:0:0:
115,119,44489,1,8,1:0:0:0:
115,119,44655,1,0,1:0:0:0:
115,119,44822,1,8,1:0:0:0:
115,119,45155,1,0,1:0:0:0:
115,119,45655,1,8,1:0:0:0:
115,119,45822,1,0,1:0:0:0:
115,119,46322,1,0,1:0:0:0:
115,119,46489,1,8,1:0:0:0:
115,119,46822,1,0,1:0:0:0:
512,0,47155,1,12,1:0:0:0:
512,0,47822,1,4,1:0:0:0:
115,119,48488,1,8,1:0:0:0:
115,119,48822,1,0,1:0:0:0:
115,119,49488,1,0,1:0:0:0:
9,280,49655,1,0,1:0:0:0:
9,280,49822,1,8,1:0:0:0:
115,119,50155,1,8,1:0:0:0:
115,119,50489,1,0,1:0:0:0:
115,119,50822,1,0,1:0:0:0:
115,119,51155,1,8,1:0:0:0:
115,119,51822,1,0,1:0:0:0:
115,119,52155,1,0,1:0:0:0:
332,182,52489,1,8,1:0:0:0:
115,119,53155,1,8,1:0:0:0:
115,119,53489,1,0,1:0:0:0:
115,119,53822,1,8,1:0:0:0:
390,274,54489,1,8,1:0:0:0:
313,209,54822,1,0,1:0:0:0:
115,119,55155,1,8,1:0:0:0:
115,119,55322,1,8,1:0:0:0:
115,119,55488,1,0,1:0:0:0:
512,0,55822,1,12,1:0:0:0:
115,119,56155,1,8,1:0:0:0:
115,119,56489,1,0,1:0:0:0:
115,119,56655,1,0,1:0:0:0:
115,119,56822,1,0,1:0:0:0:
36,17,57155,1,8,1:0:0:0:
512,0,58489,1,4,1:0:0:0:
115,119,59155,1,0,1:0:0:0:
115,119,59322,1,8,1:0:0:0:
115,119,59488,1,8,1:0:0:0:
115,119,59822,1,0,1:0:0:0:
115,119,60488,1,8,1:0:0:0:
115,119,60822,1,0,1:0:0:0:
115,119,60988,1,0,1:0:0:0:
115,119,61155,1,8,1:0:0:0:
115,119,61489,1,0,1:0:0:0:
115,119,61822,1,8,1:0:0:0:
115,119,62155,1,8,1:0:0:0:
115,119,62322,1,0,1:0:0:0:
115,119,62488,1,0,1:0:0:0:
115,119,63155,1,8,1:0:0:0:
115,119,63322,1,8,1:0:0:0:
115,119,63488,1,8,1:0:0:0:
115,119,63822,1,0,1:0:0:0:
115,119,64488,1,8,1:0:0:0:
115,119,64655,1,8,1:0:0:0:
115,119,64822,1,8,1:0:0:0:
65,261,65155,1,0,1:0:0:0:
144,337,65489,1,0,1:0:0:0:
115,119,65822,1,8,1:0:0:0:
115,119,65988,1,0,1:0:0:0:
115,119,66488,1,0,1:0:0:0:
115,119,66822,1,0,1:0:0:0:
115,119,67155,1,8,1:0:0:0:
115,119,67488,1,8,1:0:0:0:
115,119,67655,1,8,1:0:0:0:
115,119,67989,1,0,1:0:0:0:
115,119,68488,1,8,1:0:0:0:
115,119,68655,1,8,1:0:0:0:
115,119,68822,1,0,1:0:0:0:
512,0,69155,1,12,1:0:0:0:
115,119,69822,1,8,1:0:0:0:
115,119,70155,1,0,1:0:0:0:
115,119,70322,1,0,1:0:0:0:
22,77,70489,1,8,1:0:0:0:
98,12,70822,1,0,1:0:0:0:
171,80,71155,1,8,1:0:0:0:
115,119,71488,1,8,1:0:0:0:
115,119,71655,1,8,1:0:0:0:
512,0,71822,1,4,1:0:0:0:
512,0,72488,1,12,1:0:0:0:
115,119,72822,1,0,1:0:0:0:
115,119,73155,1,12,1:0:0:0:
115,119,73488,1,0,1:0:0:0:
371,299,73822,1,8,1:0:0:0:
371,299,73989,1,8,1:0:0:0:
115,119,74155,1,0,1:0:0:0:
512,0,74489,1,4,1:0:0:0:
115,119,74988,1,0,1:0:0:0:
115,119,75155,1,8,1:0:0:0:
115,119,75488,1,0,1:0:0:0:
115,119,75655,1,8,1:0:0:0:
115,119,75822,1,8,1:0:0:0:
115,119,76155,1,0,1:0:0:0:
115,119,76489,1,8,1:0:0:0:
115,119,76656,1,8,1:0:0:0:
115,119,76822,1,0,1:0:0:0:
512,0,77155,5,4,1:0:0:0:
115,119,79822,1,0,1:0:0:0:
242,42,80489,1,8,1:0:0:0:
115,119,80822,1,8,1:0:0:0:
115,119,81488,1,8,1:0:0:0:
115,119,81822,1,8,1:0:0:0:
115,119,81989,1,8,1:0:0:0:
115,119,82155,1,0,1:0:0:0:
115,119,82488,1,0,1:0:0:0:
468,278,83155,1,8,1:0:0:0:
414,205,83489,1,0,1:0:0:0:
256,192,83655,12,0,87822,1:0:0:0:
