osu file format v14

[General]
AudioFilename: audio.mp3
AudioLeadIn: 0
PreviewTime: 57655
Countdown: 0
SampleSet: Soft
StackLeniency: 0.7
Mode: 0
LetterboxInBreaks: 0
WidescreenStoryboard: 1

[Editor]
Bookmarks: 1155,6489,11822,17155,22489,42489,47822,58489,69155,77155,79822,85155
DistanceSpacing: 1.1
BeatDivisor: 4
GridSize: 32
TimelineZoom: 1.3

[Metadata]
Title:Kodou (TV Size)
TitleUnicode:鼓動 (TV Size)
Artist:Kagura Nana
ArtistUnicode:カグラナナ
Creator:Crysisters
Version:Normal
Source:探偵はもう、死んでいる。
Tags:LeomineXD japanese anime pop j-pop jpop tantei wa mou shindeiru たんもし tanmoshi the detective is already dead La esta está muerta ed ending 40mp ななかぐら nanakagura kaguranana singer vtuber virtual youtuber シエスタ siesta 君塚君彦 kimihiko kimizuka 夏凪渚 natsunagi nagisa シャーロット・有坂・アンダーソン arisaka anderson
BeatmapID:3268125
BeatmapSetID:1595938

[Difficulty]
HPDrainRate:3
CircleSize:3.2
OverallDifficulty:4
ApproachRate:5
SliderMultiplier:1.8
SliderTickRate:1

[Events]
//Background and Video events
0,0,"BG.jpg",0,0
Video,0,"ED.m4v"
//Break Periods
//Storyboard Layer 0 (Background)
//Storyboard Layer 1 (Fail)
//Storyboard Layer 2 (Pass)
//Storyboard Layer 3 (Foreground)
//Storyboard Layer 4 (Overlay)
//Storyboard Sound Samples

[TimingPoints]
-1511,666.666666666667,4,2,1,50,1,0
1155,-111.111111111111,4,2,1,58,0,0
3822,-111.111111111111,4,2,1,58,0,0
5655,-111.111111111111,4,2,1,58,0,0
6489,-111.111111111111,4,2,1,58,0,0
9155,-111.111111111111,4,2,1,58,0,0
10989,-111.111111111111,4,2,1,58,0,0
11822,-111.111111111111,4,2,1,58,0,0
14489,-111.111111111111,4,2,1,58,0,0
15155,-111.111111111111,4,2,1,58,0,0
16155,-111.111111111111,4,2,1,58,0,0
17155,-111.111111111111,4,2,1,55,0,0
21822,-111.111111111111,4,2,1,5,0,0
22489,-100,4,2,1,70,0,0
23822,-100,4,2,1,70,0,0
24072,-100,4,2,1,70,0,0
24155,-100,4,2,1,70,0,0
24489,-100,4,2,1,60,0,0
25155,-100,4,2,1,70,0,0
29155,-100,4,2,1,70,0,0
29489,-100,4,2,1,70,0,0
29822,-100,4,2,1,60,0,0
30489,-100,4,2,1,70,0,0
32489,-100,4,2,1,70,0,0
32822,-100,4,2,1,70,0,0
33155,-100,4,2,1,70,0,0
34489,-100,4,2,1,70,0,0
34822,-100,4,2,1,70,0,0
35155,-100,4,2,1,60,0,0
35822,-100,4,2,1,70,0,0
38489,-100,4,2,1,70,0,0
38822,-100,4,2,1,70,0,0
39155,-100,4,2,1,70,0,0
42489,666.666666666667,4,2,1,65,1,0
42489,-100,4,2,1,65,0,0
45155,-100,4,2,1,65,0,0
46489,-100,4,2,1,65,0,0
47822,-100,4,2,1,70,0,0
52489,-100,4,2,1,70,0,0
52822,-100,4,2,1,70,0,0
53155,-100,4,2,1,73,0,0
55822,-100,4,2,1,78,0,0
56489,-100,4,2,1,78,0,0
57655,-100,4,2,1,68,0,0
58489,-100,4,2,1,68,0,0
58530,-90.9090909090909,4,2,1,85,0,0
68489,-90.9090909090909,4,2,1,85,0,0
69155,-90.9090909090909,4,2,1,85,0,0
71822,-90.9090909090909,4,2,1,85,0,0
73655,-90.9090909090909,4,2,1,85,0,0
74489,-100,4,2,1,85,0,0
77155,-100,4,2,1,75,0,0
79822,-111.111111111111,4,2,1,58,0,0
83489,-111.111111111111,4,2,1,58,0,0
87822,-111.111111111111,4,2,1,55,0,0

[Colours]
Combo1 : 117,117,255
Combo2 : 170,170,170
Combo3 : 97,203,243
Combo4 : 170,170,170

[HitObjects]
80,59,1155,6,0,B|150:15|150:15|240:33,1,161.999995056153,2|2,1:2|0:0,0:0:0:0:
319,183,2489,1,2,1:2:0:0:
150,126,3155,1,2,0:2:0:0:
77,296,3822,2,0,B|35:316|35:316|-7:316,2,80.9999975280763,2|2|2,1:2|1:2|0:0,0:0:0:0:
153,250,4822,2,0,B|190:290|190:340|190:340|213:314|254:304,1,161.999995056153,2|0,0:0|1:2,0:0:0:0:
508,336,6489,6,0,P|445:378|354:353,1,161.999995056153,2|2,1:2|0:0,0:0:0:0:
209,274,7822,1,2,1:2:0:0:
384,245,8489,1,2,0:0:0:0:
451,78,9155,2,0,B|435:38|435:38|437:-8,2,80.9999975280763,2|2|2,1:2|1:2|0:0,0:0:0:0:
499,152,10155,2,0,P|428:126|348:164,1,161.999995056153,2|0,0:0|1:2,0:0:0:0:
184,367,11822,6,0,B|171:291|171:291|180:280|180:280|192:202,1,161.999995056153,2|2,1:2|0:0,0:0:0:0:
287,62,13155,1,2,1:2:0:0:
110,35,13822,1,2,0:2:0:0:
0,188,14489,2,0,P|42:189|78:217,1,80.9999975280763,2|2,1:2|1:2,0:0:0:0:
122,285,15155,1,2,0:0:0:0:
165,362,15489,2,0,B|241:320|247:382|326:331,1,161.999995056153,2|2,0:0|1:2,0:0:0:0:
405,310,16489,2,0,P|390:271|397:226,1,80.9999975280763,2|2,0:0|0:0,0:0:0:0:
444,159,17155,5,2,1:2:0:0:
113,290,18489,1,2,1:2:0:0:
256,192,18655,12,0,21822,0:0:0:0:
256,192,22489,6,0,P|216:220|170:221,1,90,4|2,1:2|1:2,0:0:0:0:
91,170,23155,2,0,B|46:180|46:180|20:224,1,90,8|2,0:0|0:0,0:0:0:0:
35,270,23655,1,10,0:0:0:0:
35,270,23822,1,0,1:0:0:0:
74,360,24155,1,2,1:2:0:0:
359,347,25155,6,0,P|347:296|310:258,1,90,2|2,1:2|1:2,0:0:0:0:
234,223,25822,1,10,0:0:0:0:
169,298,26155,2,0,B|108:329|57:322|57:322|46:294|47:255,1,180,2|0,1:2|1:0,0:0:0:0:
92,171,27155,2,0,P|75:129|72:83,1,90,10|2,0:0|0:0,0:0:0:0:
101,48,27655,1,0,0:0:0:0:
101,48,27822,6,0,B|152:58|135:82|184:89,1,90,2|2,1:2|1:2,0:0:0:0:
268,43,28489,2,0,P|316:35|363:53,1,90,8|2,0:0|0:0,0:0:0:0:
393,78,28989,1,2,0:0:0:0:
393,78,29155,1,0,1:0:0:0:
431,169,29489,1,2,1:2:0:0:
170,320,30489,6,0,B|195:281|195:281|190:223,1,90,2|2,1:2|1:2,0:0:0:0:
248,156,31155,1,10,0:0:0:0:
157,114,31489,2,0,P|100:165|8:132,1,180,2|2,1:2|1:2,0:0:0:0:
25,36,32489,2,0,B|68:48|68:48|123:41,1,90,14|8,0:0|0:0,0:0:0:0:
154,15,32989,1,10,0:0:0:0:
154,15,33155,6,0,L|257:37,1,90,4|2,1:2|0:2,0:0:0:0:
276,126,33822,2,0,P|322:108|350:58,1,90,8|2,0:0|0:0,0:0:0:0:
374,37,34322,1,10,0:0:0:0:
374,37,34489,1,0,1:0:0:0:
468,65,34822,1,2,1:2:0:0:
398,353,35822,6,0,P|361:325|301:323,1,90,2|2,1:2|1:2,0:0:0:0:
229,363,36489,1,10,0:0:0:0:
152,300,36822,2,0,P|111:329|65:333,1,90,2|0,1:2|1:0,0:0:0:0:
12,254,37489,2,0,L|22:190,1,45,2|2,1:2|0:0,0:0:0:0:
46,167,37822,2,0,L|39:119,2,45,8|2|2,0:0|0:0|0:0,0:0:0:0:
117,233,38489,5,0,1:0:0:0:
203,184,38822,1,2,1:2:0:0:
261,263,39155,2,0,P|308:269|349:295,1,90,10|2,0:0|0:0,0:0:0:0:
366,334,39655,1,2,0:0:0:0:
366,334,39822,2,0,P|400:329|440:285,1,90,2|2,1:2|1:2,0:0:0:0:
492,208,40489,2,0,L|486:152,1,45,10|2,0:0|0:0,0:0:0:0:
449,130,40822,2,0,L|454:67,1,45,2|0,0:0|0:0,0:0:0:0:
438,37,41155,6,0,P|394:26|344:50,1,90,4|8,1:1|0:0,0:0:0:0:
269,94,41822,2,0,L|216:101,1,45,8|10,0:0|0:0,0:0:0:0:
179,122,42155,1,2,3:2:0:0:
81,86,42489,6,0,P|96:126|89:177,1,90,4|2,1:2|1:2,0:0:0:0:
44,259,43155,1,8,0:0:0:0:
109,336,43489,2,0,B|142:369|142:369|205:341|186:257,1,180,2|2,3:2|1:2,0:0:0:0:
260,191,44489,2,0,P|252:164|249:132,2,45,8|2|2,0:0|0:0|0:0,0:0:0:0:
290,229,44989,1,2,0:0:0:0:
290,229,45155,6,0,B|343:234|321:263|373:270,1,90,0|2,1:0|1:2,0:0:0:0:
446,329,45822,2,0,P|494:307|513:243,1,90,8|2,0:0|0:0,0:0:0:0:
488,179,46489,2,0,B|479:139|479:139|470:128|470:128|458:79,2,90,2|2|4,1:2|1:2|3:2,0:0:0:0:
371,14,47822,6,0,P|320:22|285:67,1,90,4|2,1:2|1:2,0:0:0:0:
375,103,48489,1,8,0:0:0:0:
334,193,48822,2,0,B|243:131|246:224|153:150,1,180,2|2,1:2|1:2,0:0:0:0:
135,133,49655,1,2,0:0:0:0:
135,133,49822,1,8,0:0:0:0:
44,92,50155,2,0,P|36:121|32:156,1,45,2|2,0:0|0:0,0:0:0:0:
50,182,50489,6,0,P|58:229|57:283,2,90,2|0|8,1:2|1:0|0:0,0:0:0:0:
135,133,51489,2,0,L|195:143,1,45,2|2,0:0|0:0,0:0:0:0:
209,179,51822,2,0,P|257:163|315:163,1,90,2|2,1:2|1:2,0:0:0:0:
362,234,52489,1,10,0:0:0:0:
321,321,52822,2,0,L|257:315,1,45,2|0,0:0|0:0,0:0:0:0:
237,347,53155,6,0,P|251:296|237:249,1,90,0|2,1:0|1:2,0:0:0:0:
191,175,53822,2,0,P|177:124|191:77,1,90,8|0,0:0|1:0,0:0:0:0:
251,15,54489,1,10,0:0:0:0:
337,58,54822,1,0,3:0:0:0:
423,10,55155,2,0,L|432:59,1,45,8|10,0:0|0:0,0:0:0:0:
467,82,55489,2,0,L|461:133,1,45,0|10,1:0|0:0,0:0:0:0:
425,160,55822,6,0,P|435:214|430:274,1,90,4|8,0:0|0:0,0:0:0:0:
397,341,56489,2,0,L|353:331,2,45,0|0|0,3:0|0:0|1:0,0:0:0:0:
443,370,56989,1,0,0:0:0:0:
443,370,57155,1,8,0:0:0:0:
167,70,58489,6,0,B|142:118|149:163|149:163|196:185,1,135,4|2,1:2|0:0,0:0:0:0:
220,220,59155,2,0,P|248:211|282:209,2,49.5000015106202,10|2|2,0:0|0:0|0:0,0:0:0:0:
183,260,59655,1,2,0:0:0:0:
183,260,59822,2,0,P|175:314|169:384,1,99.0000030212403,0|0,1:0|1:0,0:0:0:0:
70,309,60489,6,0,L|62:249,1,49.5000015106202,10|2,0:0|0:0,0:0:0:0:
22,224,60822,2,0,L|28:157,1,49.5000015106202,2|2,0:0|0:0,0:0:0:0:
66,137,61155,2,0,P|46:88|60:31,1,99.0000030212403,2|2,1:2|1:2,0:0:0:0:
80,11,61655,1,2,0:0:0:0:
80,11,61822,1,8,0:0:0:0:
163,80,62155,2,0,L|231:75,1,49.5000015106202,2|2,0:0|0:0,0:0:0:0:
267,72,62489,1,0,1:0:0:0:
349,0,62822,1,0,1:0:0:0:
424,78,63155,6,0,L|484:65,2,49.5000015106202,10|2|2,0:0|0:0|0:0,0:0:0:0:
385,115,63655,1,2,0:0:0:0:
385,115,63822,2,0,P|368:160|398:199,1,99.0000030212403,0|0,1:0|1:0,0:0:0:0:
492,190,64489,6,0,L|486:248,1,49.5000015106202,10|2,0:0|0:0,0:0:0:0:
447,277,64822,2,0,L|451:332,1,49.5000015106202,2|2,0:0|0:0,0:0:0:0:
464,379,65155,1,0,1:0:0:0:
366,316,65489,1,2,1:2:0:0:
270,367,65822,1,10,0:0:0:0:
270,367,65989,2,0,L|163:350,1,99.0000030212403,2|0,0:0|1:2,0:0:0:0:
118,360,66489,6,0,P|129:314|103:252,1,99.0000030212403,2|2,1:2|1:2,0:0:0:0:
76,163,67155,2,0,P|116:184|176:173,1,99.0000030212403,10|2,0:0|0:0,0:0:0:0:
215,150,67655,1,2,1:2:0:0:
177,47,67989,1,2,0:0:0:0:
289,34,68322,1,2,0:0:0:0:
289,34,68489,2,0,L|281:96,1,49.5000015106202,8|10,0:0|0:0,0:0:0:0:
311,129,68822,2,0,L|317:184,1,49.5000015106202,2|2,3:2|3:2,0:0:0:0:
288,225,69155,6,0,B|373:228|337:288|422:288,1,148.50000453186,4|2,1:2|0:0,0:0:0:0:
456,325,69822,2,0,P|482:315|518:315,2,49.5000015106202,10|2|2,0:0|0:0|0:0,0:0:0:0:
428,373,70322,1,2,0:0:0:0:
428,373,70489,1,2,1:2:0:0:
328,317,70822,1,2,1:2:0:0:
231,367,71155,1,10,0:0:0:0:
126,334,71489,2,0,L|113:271,1,49.5000015106202,2|2,0:0|1:2,0:0:0:0:
77,246,71822,6,0,P|129:244|177:211,1,99.0000030212403,12|2,0:0|0:0,0:0:0:0:
268,263,72489,2,0,P|281:218|262:151,1,99.0000030212403,12|2,0:0|3:2,0:0:0:0:
243,127,72989,1,2,3:2:0:0:
243,127,73155,2,0,P|194:115|129:131,2,99.0000030212403,4|10|8,0:0|0:0|0:0,0:0:0:0:
287,93,73989,1,10,0:0:0:0:
287,93,74155,2,0,P|312:85|353:83,1,49.5000015106202,10|2,0:0|1:2,0:0:0:0:
372,106,74489,6,0,B|361:161|361:161|368:192|368:192|358:248,1,135,4|2,1:2|0:0,0:0:0:0:
353,287,75155,1,8,0:0:0:0:
273,345,75489,2,0,L|223:331,1,45,2|2,0:0|0:0,0:0:0:0:
196,295,75822,2,0,P|151:319|98:318,1,90,0|2,1:0|1:2,0:0:0:0:
41,252,76489,2,0,L|47:192,1,45,10|2,0:0|0:0,0:0:0:0:
77,169,76822,2,0,L|71:109,1,45,10|8,0:0|0:0,0:0:0:0:
45,82,77155,5,4,0:0:0:0:
256,190,79822,6,0,P|220:220|176:223,2,80.9999975280763,2|2|2,1:2|1:2|0:0,0:0:0:0:
309,118,80822,2,0,P|348:105|424:195,1,161.999995056153,2|2,0:0|1:2,0:0:0:0:
404,266,81822,2,0,L|414:324,2,40.4999987640381,2|2|2,0:0|0:0|0:0,0:0:0:0:
327,220,82489,2,0,B|285:222|285:222|241:240,1,80.9999975280763,2|2,1:2|1:2,0:0:0:0:
226,324,83155,1,2,0:0:0:0:
144,289,83489,6,0,B|77:277|27:333|27:333|-8:273|23:206|23:206|48:184|48:184|69:131|41:67,1,404.999987640381,2|0,0:0|1:0,0:0:0:0:
256,192,85322,12,0,87822,1:0:0:0:
