osu file format v14

[General]
AudioFilename: audio.mp3
AudioLeadIn: 0
PreviewTime: 57655
Countdown: 0
SampleSet: Soft
StackLeniency: 0.7
Mode: 0
LetterboxInBreaks: 0
WidescreenStoryboard: 0

[Editor]
Bookmarks: 1155,6489,11822,17155,22489,42489,47822,58489,69155,77155,79822,85155
DistanceSpacing: 1.1
BeatDivisor: 16
GridSize: 32
TimelineZoom: 1.3

[Metadata]
Title:Kodou (TV Size)
TitleUnicode:鼓動 (TV Size)
Artist:Kagura Nana
ArtistUnicode:カグラナナ
Creator:Crysisters
Version:Heartbeat
Source:探偵はもう、死んでいる。
Tags:LeomineXD japanese anime pop j-pop jpop tantei wa mou shindeiru たんもし tanmoshi the detective is already dead La esta está muerta ed ending 40mp ななかぐら nanakagura kaguranana singer vtuber virtual youtuber シエスタ siesta 君塚君彦 kimihiko kimizuka 夏凪渚 natsunagi nagisa シャーロット・有坂・アンダーソン arisaka anderson
BeatmapID:3259632
BeatmapSetID:1595938

[Difficulty]
HPDrainRate:5
CircleSize:4
OverallDifficulty:8
ApproachRate:9
SliderMultiplier:2
SliderTickRate:1

[Events]
//Background and Video events
0,0,"BG.jpg",0,0
Video,0,"ED.m4v"
//Break Periods
//Storyboard Layer 0 (Background)
//Storyboard Layer 1 (Fail)
//Storyboard Layer 2 (Pass)
//Storyboard Layer 3 (Foreground)
//Storyboard Layer 4 (Overlay)
//Storyboard Sound Samples

[TimingPoints]
-1511,666.666666666667,4,2,1,50,1,0
322,-111.111111111111,4,2,1,50,0,0
1155,-100,4,2,1,58,0,0
3822,-83.3333333333333,4,2,1,58,0,0
5655,-111.111111111111,4,2,1,58,0,0
6489,-100,4,2,1,58,0,0
9155,-83.3333333333333,4,2,1,58,0,0
10989,-111.111111111111,4,2,1,58,0,0
11822,-100,4,2,1,58,0,0
14489,-83.3333333333333,4,2,1,58,0,0
14822,-83.3333333333333,4,2,1,58,0,0
15155,-76.9230769230769,4,2,1,58,0,0
15489,-71.4285714285714,4,2,1,58,0,0
16155,-100,4,2,1,58,0,0
17155,-100,4,2,1,55,0,0
21822,-100,4,2,1,5,0,0
22489,-66.6666666666667,4,2,1,70,0,0
23822,-58.8235294117647,4,2,1,70,0,0
24072,-58.8235294117647,4,2,1,5,0,0
24155,-58.8235294117647,4,2,1,70,0,0
24405,-58.8235294117647,4,2,1,5,0,0
24489,-66.6666666666667,4,2,1,60,0,0
25155,-66.6666666666667,4,2,1,70,0,0
29155,-58.8235294117647,4,2,1,70,0,0
29405,-58.8235294117647,4,2,1,5,0,0
29489,-58.8235294117647,4,2,1,70,0,0
29822,-66.6666666666667,4,2,1,60,0,0
30489,-66.6666666666667,4,2,1,70,0,0
32489,-55.5555555555556,4,2,1,70,0,0
32739,-55.5555555555556,4,2,1,5,0,0
32822,-55.5555555555556,4,2,1,70,0,0
33155,-66.6666666666667,4,2,1,70,0,0
34489,-58.8235294117647,4,2,1,70,0,0
34739,-58.8235294117647,4,2,1,5,0,0
34822,-58.8235294117647,4,2,1,70,0,0
35072,-66.6666666666667,4,2,1,5,0,0
35155,-66.6666666666667,4,2,1,60,0,0
35822,-66.6666666666667,4,2,1,70,0,0
38405,-58.8235294117647,4,2,1,5,0,0
38489,-58.8235294117647,4,2,1,70,0,0
38739,-66.6666666666667,4,2,1,5,0,0
38822,-58.8235294117647,4,2,1,70,0,0
39155,-66.6666666666667,4,2,1,70,0,0
42489,666.666666666667,4,2,1,65,1,0
42489,-76.9230769230769,4,2,1,65,0,0
45155,-71.4285714285714,4,2,1,65,0,0
46489,-71.4285714285714,4,2,1,65,0,0
47822,-71.4285714285714,4,2,1,70,0,0
52489,-66.6666666666667,4,2,1,70,0,0
52822,-55.5555555555556,4,2,1,70,0,0
53072,-55.5555555555556,4,2,1,5,0,0
53155,-66.6666666666667,4,2,1,73,0,0
53822,-62.5,4,2,1,73,0,0
55822,-58.8235294117647,4,2,1,78,0,0
57655,-58.8235294117647,4,2,1,68,0,0
58489,-50,4,2,1,68,0,0
58530,-50,4,2,1,85,0,0
66489,-43.4782608695652,4,2,1,85,0,0
66739,-43.4782608695652,4,2,1,5,0,0
66822,-50,4,2,1,85,0,0
67155,-43.4782608695652,4,2,1,85,0,0
67405,-43.4782608695652,4,2,1,5,0,0
67489,-50,4,2,1,85,0,0
68822,-50,4,2,1,85,0,0
69155,-50,4,2,1,85,0,0
70489,-50,4,2,1,85,0,0
71155,-47.6190476190476,4,2,1,85,0,0
71822,-43.4782608695652,4,2,1,85,0,0
72489,-40,4,2,1,85,0,0
73155,-34.4827586206897,4,2,1,85,0,0
73405,-34.4827586206897,4,2,1,5,0,0
73489,-37.037037037037,4,2,1,85,0,0
73822,-43.4782608695652,4,2,1,85,0,0
74489,-50,4,2,1,85,0,0
75155,-55.5555555555556,4,2,1,85,0,0
77155,-55.5555555555556,4,2,1,75,0,0
79822,-83.3333333333333,4,2,1,58,0,0
83489,-100,4,2,1,58,0,0
87822,-100,4,2,1,55,0,0

[Colours]
Combo1 : 117,117,255
Combo2 : 170,170,170
Combo3 : 97,203,243
Combo4 : 170,170,170

[HitObjects]
121,16,322,5,2,0:0:0:0:
77,90,489,2,0,P|122:97|176:83,1,89.9999972534181,2|2,0:0|0:0,0:0:0:0:
341,7,1155,6,0,L|347:61,2,50,2|2|2,1:2|0:0|1:2,0:0:0:0:
280,191,1822,1,2,0:0:0:0:
280,191,2323,1,2,0:0:0:0:
304,212,2489,6,0,P|257:227|203:227,1,100,2|2,1:2|1:2,0:0:0:0:
47,184,3155,2,0,P|55:118|144:111,1,150,2|2,0:2|0:0,0:0:0:0:
123,261,3822,6,0,L|110:381,1,119.999996337891,2|2,1:2|1:2,0:0:0:0:
332,360,4489,1,2,0:0:0:0:
287,277,4655,1,2,0:0:0:0:
355,206,4822,2,0,P|409:200|481:233,2,119.999996337891,2|0|2,0:0|1:0|1:2,0:0:0:0:
278,70,5655,5,2,0:0:0:0:
238,147,5822,2,0,P|192:133|139:136,1,89.9999972534181,2|2,0:0|0:0,0:0:0:0:
17,58,6489,6,0,L|7:115,2,50,2|2|2,1:2|0:0|1:2,0:0:0:0:
56,253,7155,1,2,0:0:0:0:
56,253,7655,1,2,0:0:0:0:
32,280,7822,6,0,P|83:281|147:268,1,100,2|2,1:2|1:2,0:0:0:0:
271,161,8489,2,0,P|213:202|229:271,1,150,2|2,0:0|0:0,0:0:0:0:
343,338,9155,6,0,P|408:337|453:303,1,119.999996337891,2|2,1:2|1:2,0:0:0:0:
374,71,9822,1,2,0:0:0:0:
328,167,9989,1,2,0:0:0:0:
430,215,10155,2,0,P|480:207|512:144,2,119.999996337891,2|0|2,0:0|1:0|1:2,0:0:0:0:
245,227,10989,5,2,0:0:0:0:
293,149,11155,2,0,P|243:133|201:146,1,89.9999972534181,2|2,0:0|0:0,0:0:0:0:
111,320,11822,6,0,P|136:282|132:215,1,100,2|2,1:2|1:2,0:0:0:0:
95,71,12489,1,2,0:0:0:0:
95,71,12989,1,2,0:0:0:0:
75,97,13155,6,0,P|125:106|176:91,1,100,2|2,1:2|1:2,0:0:0:0:
325,26,13822,2,0,B|276:10|276:10|265:49|265:49|282:82|272:124,1,150,2|2,0:2|0:0,0:0:0:0:
339,252,14489,6,0,L|346:329,1,59.9999981689454,2|0,1:2|0:0,0:0:0:0:
245,361,14822,2,0,L|254:281,1,59.9999981689454,2|0,1:2|0:0,0:0:0:0:
444,231,15155,2,0,L|435:314,1,64.9999970245363,2|0,0:0|0:0,0:0:0:0:
259,205,15489,2,0,P|306:161|395:182,1,139.999995727539,2|0,0:0|1:0,0:0:0:0:
151,288,16155,6,0,L|159:235,1,50,2|2,1:2|0:0,0:0:0:0:
166,106,16489,5,2,0:0:0:0:
65,83,16655,1,2,0:0:0:0:
0,164,16822,1,2,0:0:0:0:
58,250,16989,1,2,0:0:0:0:
161,195,17155,6,0,P|211:181|258:208,1,100,2|2,1:2|1:2,0:0:0:0:
350,319,17822,2,0,L|341:368,1,50,2|2,0:0|0:0,0:0:0:0:
449,171,18322,1,2,0:0:0:0:
449,171,18489,5,2,1:2:0:0:
512,304,18822,1,0,1:0:0:0:
324,190,19155,1,2,0:0:0:0:
487,42,19489,1,2,0:0:0:0:
256,192,19655,12,0,21822,0:0:0:0:
243,81,22489,6,0,B|159:50|159:50|131:80|102:90,1,150.000005722046,4|2,1:2|1:2,0:0:0:0:
22,58,22989,1,2,0:0:0:0:
170,216,23155,6,0,B|241:205|241:205|252:211|252:211|344:193,1,150.000005722046,8|2,0:0|0:0,0:0:0:0:
443,120,23655,1,10,0:0:0:0:
458,239,23822,6,0,P|468:171|443:120,1,127.50000243187,0|0,1:0|0:0,0:0:0:0:
367,90,24155,2,0,P|303:115|271:162,1,127.50000243187,2|0,1:2|0:0,0:0:0:0:
269,241,24489,6,0,P|313:276|360:280,2,75.0000028610231,0|0|2,0:0|0:0|0:0,0:0:0:0:
151,189,24989,1,2,0:0:0:0:
169,56,25155,6,0,B|109:61|109:61|78:78|78:78|9:86,1,150.000005722046,2|2,1:2|1:2,0:0:0:0:
6,223,25655,1,0,0:0:0:0:
151,189,25822,6,0,P|119:169|73:171,1,75.0000028610231,10|0,0:0|0:0,0:0:0:0:
0,325,26155,2,0,B|44:345|44:345|150:309,1,150.000005722046,2|0,1:2|1:0,0:0:0:0:
320,215,26656,1,2,0:2:0:0:
227,265,26823,1,0,1:0:0:0:
152,189,26989,1,2,0:0:0:0:
391,262,27155,6,0,B|412:199|382:154|382:154|339:138,1,150.000005722046,10|2,0:0|0:0,0:0:0:0:
277,340,27655,1,0,0:0:0:0:
381,382,27822,6,0,B|422:364|469:376|469:376|470:337|501:312,1,150.000005722046,2|2,1:2|1:2,0:0:0:0:
390,263,28322,1,0,0:0:0:0:
488,91,28489,5,8,0:0:0:0:
402,142,28655,1,2,0:2:0:0:
329,75,28822,2,0,L|339:-12,1,75.0000028610231,2|2,0:0|0:0,0:0:0:0:
299,192,29155,6,0,P|243:211|179:184,1,127.50000243187,0|0,1:0|0:0,0:0:0:0:
149,115,29489,2,0,P|154:71|188:37,1,85.0000016212464,2|0,1:2|0:0,0:0:0:0:
79,199,29822,6,0,P|43:180|-3:182,2,75.0000028610231,0|0|2,0:0|0:0|0:0,0:0:0:0:
224,307,30322,1,2,0:0:0:0:
162,369,30489,6,0,B|210:353|224:307|224:307|237:338|278:356,1,150.000005722046,2|2,1:2|1:2,0:0:0:0:
135,249,30989,1,0,0:0:0:0:
307,231,31155,6,0,P|276:206|230:200,1,75.0000028610231,10|2,0:0|0:0,0:0:0:0:
375,307,31489,2,0,P|410:330|506:273,1,150.000005722046,2|0,1:2|1:0,0:0:0:0:
428,90,31989,1,2,0:2:0:0:
451,179,32155,1,2,1:2:0:0:
499,35,32322,1,2,0:0:0:0:
369,220,32489,6,0,B|300:206|300:206|234:253,1,134.999995880127,14|0,0:0|0:0,0:0:0:0:
191,294,32822,1,8,0:0:0:0:
401,229,32989,1,10,0:0:0:0:
163,317,33155,6,0,P|101:341|25:289,1,150.000005722046,4|2,1:2|0:2,0:0:0:0:
2,204,33655,1,0,0:0:0:0:
87,50,33822,6,0,B|55:45|36:25|36:25|5:66|7:125,1,150.000005722046,8|2,0:0|0:0,0:0:0:0:
86,204,34322,1,10,0:0:0:0:
193,151,34489,6,0,P|125:164|86:205,1,127.50000243187,0|0,1:0|0:0,0:0:0:0:
81,282,34822,2,0,P|126:334|181:347,1,127.50000243187,2|0,1:2|0:0,0:0:0:0:
251,311,35155,6,0,P|268:261|256:220,2,75.0000028610231,0|0|2,0:0|0:0|0:0,0:0:0:0:
464,303,35655,1,2,0:0:0:0:
397,213,35822,6,0,B|409:163|385:123|385:123|396:102|396:102|385:70,1,150.000005722046,2|2,1:2|1:2,0:0:0:0:
292,56,36322,1,0,0:0:0:0:
489,123,36489,6,0,L|499:49,1,75.0000028610231,10|0,0:0|0:0,0:0:0:0:
397,213,36822,2,0,B|359:246|359:246|311:224|247:232,1,150.000005722046,2|0,1:2|1:0,0:0:0:0:
80,106,37489,2,0,L|90:183,1,75.0000028610231,2|2,1:2|0:0,0:0:0:0:
18,334,37822,5,8,0:0:0:0:
127,264,37989,1,2,0:0:0:0:
213,369,38155,2,0,P|267:381|323:353,1,112.500004291535,2|0,0:0|0:0,0:0:0:0:
354,287,38489,6,0,P|322:234|257:234,1,127.50000243187,0|0,1:0|0:0,0:0:0:0:
198,279,38822,1,2,1:2:0:0:
486,22,39155,6,0,P|428:67|354:44,1,150.000005722046,10|2,0:0|0:0,0:0:0:0:
234,10,39655,1,2,0:0:0:0:
140,95,39822,2,0,L|61:114,1,75.0000028610231,2|0,1:2|0:0,0:0:0:0:
70,252,40155,2,0,L|166:259,1,75.0000028610231,2|0,1:2|0:0,0:0:0:0:
301,129,40489,5,10,0:0:0:0:
174,166,40655,1,2,0:0:0:0:
252,291,40822,2,0,L|266:193,1,75.0000028610231,2|0,0:0|0:0,0:0:0:0:
289,35,41155,5,4,1:1:0:0:
262,216,41489,1,8,0:0:0:0:
428,66,41822,5,8,0:0:0:0:
466,270,41989,1,10,0:0:0:0:
379,168,42155,1,2,3:2:0:0:
256,360,42489,6,0,P|202:338|119:365,2,129.999994049073,4|2|8,1:2|1:2|0:0,0:0:0:0:
0,239,43489,2,0,B|39:295|39:295|83:240|83:240|43:188|56:123,1,259.999988098145,2|2,3:2|1:2,0:0:0:0:
265,29,44489,6,0,L|192:18,1,64.9999970245363,8|2,0:0|0:0,0:0:0:0:
125,87,44822,1,2,0:0:0:0:
193,165,44989,1,2,0:0:0:0:
297,112,45155,6,0,P|331:160|298:231,1,139.999995727539,0|2,1:0|1:2,0:0:0:0:
227,313,45655,1,2,0:0:0:0:
380,288,45822,6,0,B|434:268|434:268|468:278|468:278|521:262,1,139.999995727539,8|2,0:0|0:0,0:0:0:0:
366,382,46322,1,2,0:0:0:0:
498,172,46489,5,2,1:2:0:0:
318,234,46822,1,2,1:2:0:0:
299,25,47155,1,4,3:2:0:0:
314,47,47822,6,0,B|284:35|284:35|255:49|255:49|217:26|164:45,2,139.999995727539,4|2|8,1:2|1:2|0:0,0:0:0:0:
92,88,48822,2,0,B|81:69|75:42|75:42|51:91|79:144|90:120|122:177|105:218|105:218|99:194|83:179,1,279.999991455078,2|2,1:2|1:2,0:0:0:0:
128,299,49655,1,2,0:0:0:0:
0,239,49822,6,0,P|-7:277|1:312,1,69.9999978637696,8|0,0:0|0:0,0:0:0:0:
63,381,50155,1,2,0:0:0:0:
106,216,50322,1,2,0:0:0:0:
231,354,50489,6,0,B|270:343|270:343|312:369|312:369|341:358|390:371,2,139.999995727539,2|0|8,1:2|1:0|0:0,0:0:0:0:
444,331,51489,1,2,0:0:0:0:
478,248,51655,1,2,0:0:0:0:
355,125,51822,6,0,L|285:131,1,69.9999978637696,2|0,1:2|0:0,0:0:0:0:
467,155,52155,1,2,1:2:0:0:
424,54,52322,1,0,0:0:0:0:
289,229,52489,6,0,P|251:241|211:244,1,75.0000028610231,10|2,0:0|0:0,0:0:0:0:
66,96,52822,2,0,B|92:74|92:74|85:117|85:117|86:128|86:128|77:174,1,134.999995880127,2|0,0:0|0:0,0:0:0:0:
28,234,53155,6,0,B|22:275|22:275|23:282|23:282|19:327,1,75.0000028610231,0|2,1:0|0:0,0:0:0:0:
229,355,53489,1,2,1:2:0:0:
125,272,53655,1,0,0:0:0:0:
326,226,53822,6,0,P|362:244|407:255,1,80,8|0,0:0|0:0,0:0:0:0:
512,103,54155,2,0,L|503:156,2,53.3333333333333,0|0|10,1:0|1:0|0:0,0:0:0:0:
459,16,54489,6,0,B|411:9|378:54|403:57|376:97|329:95,1,160,10|0,0:0|3:0,0:0:0:0:
205,13,55155,5,8,0:0:0:0:
237,151,55322,1,10,0:0:0:0:
42,203,55489,5,0,1:0:0:0:
153,96,55655,1,10,0:0:0:0:
258,315,55822,6,0,B|327:281|327:281|340:290|340:290|425:281,1,170.000003242493,4|8,0:0|0:0,0:0:0:0:
344,110,56489,6,0,B|313:117|313:117|293:133,2,56.6666677474976,0|0|0,3:0|3:0|3:0,0:0:0:0:
227,192,56822,6,0,P|196:187|157:173,2,56.6666677474976,0|0|0,1:0|1:0|1:0,0:0:0:0:
111,104,57155,5,8,0:0:0:0:
104,118,57655,5,2,0:0:0:0:
238,52,57822,1,2,0:0:0:0:
307,185,57989,1,2,0:0:0:0:
174,255,58155,5,2,0:0:0:0:
328,170,58322,1,2,0:0:0:0:
60,25,58489,6,0,B|61:44|69:69|69:69|47:100|47:100|53:124|54:157|54:157|31:181|29:224,1,200,4|0,1:2|1:0,0:0:0:0:
63,332,58989,1,2,0:0:0:0:
175,148,59155,2,0,P|204:188|210:239,1,100,10|2,0:0|0:0,0:0:0:0:
119,221,59489,1,2,0:0:0:0:
265,115,59655,1,2,0:0:0:0:
299,355,59822,6,0,B|274:379|238:387|238:387|252:356|251:311|251:311|281:294|294:258,1,200,0|0,1:0|1:0,0:0:0:0:
358,122,60322,1,2,0:0:0:0:
451,306,60489,2,0,P|448:252|417:199,1,100,10|2,0:0|0:0,0:0:0:0:
340,101,60822,1,2,0:0:0:0:
287,274,60989,1,2,0:0:0:0:
218,43,61155,6,0,B|179:40|151:30|151:30|110:72|110:72|125:108|125:161,1,200,2|2,1:2|1:2,0:0:0:0:
273,277,61655,1,2,0:0:0:0:
88,228,61822,2,0,P|35:237|-7:275,1,100,8|2,0:0|0:0,0:0:0:0:
170,339,62155,1,2,0:0:0:0:
230,174,62322,1,2,0:0:0:0:
95,55,62489,6,0,B|35:36|0:72|0:72|6:130|76:137,1,200,0|0,1:0|1:0,0:0:0:0:
183,3,62989,1,2,0:0:0:0:
147,158,63155,1,10,0:0:0:0:
303,197,63322,1,2,0:0:0:0:
334,40,63489,5,2,0:0:0:0:
132,173,63655,1,2,0:0:0:0:
388,99,63822,6,0,B|446:80|494:156|448:202|448:202|428:183|397:182,1,200,0|0,1:0|1:0,0:0:0:0:
448,328,64322,1,2,0:0:0:0:
261,275,64489,2,0,B|306:267|306:267|314:271|314:271|359:263,1,100,10|2,0:0|0:0,0:0:0:0:
141,360,64822,1,2,0:0:0:0:
175,252,64989,1,2,0:0:0:0:
70,184,65155,6,0,P|39:227|35:283,1,100,0|2,1:0|0:0,0:0:0:0:
204,119,65489,2,0,P|243:154|258:208,1,100,2|0,1:2|0:0,0:0:0:0:
96,45,65822,2,0,B|114:6|157:-7|191:12|191:12|219:50|276:41,1,200,10|2,0:0|1:2,0:0:0:0:
346,60,66239,1,0,1:0:0:0:
357,55,66322,1,0,1:2:0:0:
369,53,66405,1,0,1:0:0:0:
383,50,66489,6,0,P|430:112|384:209,1,172.500003290176,2|0,1:2|0:0,0:0:0:0:
318,238,66822,2,0,B|270:233|270:233|265:229|265:229|214:225,1,100,2|0,1:2|0:0,0:0:0:0:
140,374,67155,6,0,P|97:310|146:215,1,172.500003290176,10|0,0:0|0:0,0:0:0:0:
220,184,67489,2,0,B|268:189|268:189|273:193|273:193|324:197,1,100,2|2,0:0|1:2,0:0:0:0:
346,77,67822,5,0,1:0:0:0:
232,18,67989,1,2,0:0:0:0:
129,95,68155,1,0,1:0:0:0:
183,210,68322,1,2,0:0:0:0:
376,84,68489,5,8,0:0:0:0:
351,267,68655,1,10,0:0:0:0:
142,109,68822,5,2,3:2:0:0:
270,22,68988,1,2,3:2:0:0:
11,99,69155,6,0,B|26:75|66:67|66:67|51:109|62:144|62:144|37:168|32:199,1,200,4|0,1:2|1:0,0:0:0:0:
71,341,69655,1,2,0:0:0:0:
234,290,69822,2,0,B|284:289|284:289|291:297|291:297|349:305,1,100,10|2,0:0|0:0,0:0:0:0:
116,206,70155,1,2,0:0:0:0:
158,356,70322,1,2,0:0:0:0:
266,168,70489,6,0,B|274:119|274:119|251:54,1,100,2|0,1:2|0:0,0:0:0:0:
450,31,70822,2,0,B|433:78|433:78|441:127,1,100,2|0,1:2|0:0,0:0:0:0:
373,314,71155,6,0,B|381:265|381:265|358:200,1,104.999996795654,10|0,0:0|0:0,0:0:0:0:
179,124,71489,2,0,B|162:171|162:171|172:225,1,104.999996795654,2|2,0:0|1:2,0:0:0:0:
214,299,71739,1,0,1:0:0:0:
214,299,71822,6,0,B|211:244|149:233|123:274|123:274|96:320|35:307,1,230.000004386902,12|2,0:0|0:0,0:0:0:0:
0,121,72322,5,2,1:2:0:0:
0,121,72405,1,0,1:0:0:0:
0,121,72489,2,0,B|42:133|81:122|81:122|114:139|141:166|141:166|186:149|186:149|242:158,1,250,12|2,0:0|3:2,0:0:0:0:
81,39,72989,1,2,3:2:0:0:
118,328,73155,6,0,B|163:354|163:354|212:336|212:336|250:368|328:368,1,217.500006637573,4|0,0:0|0:0,0:0:0:0:
416,340,73489,2,0,P|448:355|504:365,2,67.5000002574921,10|0|2,0:0|1:0|1:2,0:0:0:0:
296,262,73822,5,8,0:0:0:0:
414,129,73989,1,10,0:0:0:0:
264,17,74155,2,0,P|206:9|159:39,1,115.000002193451,10|2,0:0|1:2,0:0:0:0:
114,113,74405,1,0,1:0:0:0:
114,113,74489,6,0,B|125:189|125:189|109:235|109:235|121:315,1,200,4|2,1:2|1:2,0:0:0:0:
267,358,74989,1,2,0:0:0:0:
298,223,75155,2,0,B|252:207|252:207|191:217,1,89.9999972534181,8|0,0:0|0:0,0:0:0:0:
418,287,75489,1,2,0:0:0:0:
391,166,75655,1,2,0:0:0:0:
497,89,75822,6,0,B|518:134|518:134|512:180,1,89.9999972534181,0|2,1:0|0:0,0:0:0:0:
347,15,76155,2,0,B|309:47|309:47|296:92,1,89.9999972534181,2|0,1:2|0:0,0:0:0:0:
86,136,76489,5,10,0:0:0:0:
164,76,76655,1,2,0:0:0:0:
0,263,76822,5,10,0:0:0:0:
158,334,76989,1,8,0:0:0:0:
256,192,77155,5,4,0:0:0:0:
256,192,77239,12,0,79489,0:0:0:0:
432,105,79822,6,0,L|414:223,2,119.999996337891,2|2|2,1:2|1:2|0:0,0:0:0:0:
368,43,80822,2,0,B|304:12|245:84|300:107|240:182|172:136,1,239.999992675781,2|2,0:0|1:2,0:0:0:0:
184,142,81822,5,2,0:0:0:0:
165,230,81989,1,2,0:0:0:0:
137,313,82155,1,2,0:0:0:0:
137,313,82489,6,0,B|75:329|75:329|16:294,2,119.999996337891,2|2|2,1:2|1:2|0:0,0:0:0:0:
221,287,83489,6,0,B|208:210|169:244|134:185|148:106|222:79|263:126|263:126|313:90|383:147|366:231|279:258,1,500,2|0,0:0|1:0,0:0:0:0:
256,192,85239,12,0,87822,1:0:0:0:
