osu file format v14

[General]
AudioFilename: audio.mp3
AudioLeadIn: 0
PreviewTime: 61725
Countdown: 0
SampleSet: Soft
StackLeniency: 0.6
Mode: 0
LetterboxInBreaks: 0
WidescreenStoryboard: 1

[Editor]
Bookmarks: 14380,23064,27012,33327,45959,83854,99643,113854
DistanceSpacing: 1.4
BeatDivisor: 4
GridSize: 16
TimelineZoom: 2.4

[Metadata]
Title:Venom
TitleUnicode:ベノム
Artist:Kagura Mea
ArtistUnicode:神楽めあ
Creator:StrengeMistake
Version:Hard
Source:
Tags:Kairiki bear virtual youtuber vocaloid japanese vtb vtuber pappl_e_104 Ellyu BinFhone papple104 handsome_muscle novelty cover ボカロ ボーカロイド
BeatmapID:2307995
BeatmapSetID:972341

[Difficulty]
HPDrainRate:4
CircleSize:3.5
OverallDifficulty:6
ApproachRate:7.2
SliderMultiplier:1.4
SliderTickRate:1

[Events]
//Background and Video events
0,0,"bgnew.jpg",0,0
//Break Periods
2,26793,32040
2,74162,82566
2,126268,136448
//Storyboard Layer 0 (Background)
//Storyboard Layer 1 (Fail)
//Storyboard Layer 2 (Pass)
//Storyboard Layer 3 (Foreground)
//Storyboard Layer 4 (Overlay)
//Storyboard Sound Samples

[TimingPoints]
147,394.736842105263,4,2,1,60,1,0
14357,-100,4,2,1,50,0,0
56594,-100,4,2,1,65,0,0
61725,-90.9090909090909,4,2,1,70,0,1
64883,-90.9090909090909,4,2,2,70,0,1
65080,-90.9090909090909,4,2,1,70,0,1
65673,-90.9090909090909,4,2,2,70,0,1
66068,-90.9090909090909,4,2,1,70,0,1
71199,-90.9090909090909,4,2,2,70,0,1
71396,-90.9090909090909,4,2,1,70,0,1
71989,-90.9090909090909,4,2,2,70,0,1
72186,-90.9090909090909,4,2,1,70,0,1
74357,-100,4,2,1,70,0,0
83436,-100,4,2,1,60,0,0
86989,-100,4,2,1,50,0,0
113831,-90.9090909090909,4,2,1,70,0,1
116989,-90.9090909090909,4,2,2,70,0,1
117186,-90.9090909090909,4,2,1,70,0,1
117778,-90.9090909090909,4,2,2,70,0,1
118173,-90.9090909090909,4,2,1,70,0,1
123304,-90.9090909090909,4,2,2,70,0,1
123501,-90.9090909090909,4,2,1,70,0,1
124094,-90.9090909090909,4,2,2,70,0,1
124291,-90.9090909090909,4,2,1,70,0,1
126462,-100,4,2,1,60,0,0
145410,-111.111111111111,4,2,2,60,0,0
145508,-111.111111111111,4,2,1,60,0,0
146199,-90.9090909090909,4,2,2,60,0,0
146298,-90.9090909090909,4,2,1,60,0,0
146989,-100,4,2,1,60,0,0
150245,-100,4,2,1,50,0,0
156068,-100,4,2,1,60,0,0
157449,-100,4,2,1,40,0,0
158041,-90.9090909090909,4,2,1,70,0,1
161199,-90.9090909090909,4,2,2,70,0,1
161396,-90.9090909090909,4,2,1,70,0,1
161989,-90.9090909090909,4,2,2,70,0,1
162186,-90.9090909090909,4,2,1,70,0,1
162778,-90.9090909090909,4,2,2,70,0,1
162975,-90.9090909090909,4,2,1,70,0,1
163568,-90.9090909090909,4,2,2,70,0,1
163963,-90.9090909090909,4,2,1,70,0,1
167515,-90.9090909090909,4,2,2,70,0,1
167712,-90.9090909090909,4,2,1,70,0,1
168304,-90.9090909090909,4,2,2,70,0,1
168699,-90.9090909090909,4,2,1,70,0,1
173831,-90.9090909090909,4,2,2,70,0,1
174028,-90.9090909090909,4,2,1,70,0,1
174620,-90.9090909090909,4,2,2,70,0,1
174817,-90.9090909090909,4,2,1,70,0,1
179752,-90.9090909090909,4,2,1,60,0,1
180146,-100,4,2,1,60,0,0
192778,-100,4,2,1,50,0,0

[Colours]
Combo1 : 0,238,238
Combo2 : 158,138,229
Combo3 : 255,253,208
Combo4 : 238,238,0

[HitObjects]
152,101,1331,5,8,0:0:0:0:
99,289,1725,6,0,P|92:323|98:357,1,70,12|2,0:1|0:0,0:0:0:0:
191,325,2120,2,0,P|223:313|250:291,1,70,8|2,0:0|0:0,0:0:0:0:
176,228,2515,2,0,B|155:204|117:193|117:193|92:202|68:201,1,105,8|0,0:1|0:0,0:0:0:0:
33,196,2910,1,8,0:0:0:0:
73,107,3107,1,2,0:0:0:0:
168,126,3304,6,0,P|212:134|256:120,1,70,8|2,0:1|0:0,0:0:0:0:
329,99,3699,2,0,P|363:94|397:102,1,70,8|2,0:0|0:0,0:0:0:0:
485,146,4094,1,8,0:1:0:0:
399,193,4291,2,0,L|403:241,2,35,2|2|8,0:0|0:0|0:0,0:0:0:0:
230,292,4883,6,0,P|236:326|230:360,1,70,8|2,0:1|0:0,0:0:0:0:
138,328,5278,2,0,P|105:316|78:294,1,70,8|2,0:0|0:0,0:0:0:0:
153,231,5673,2,0,B|174:207|212:196|212:196|237:205|261:204,1,105,8|0,0:1|0:0,0:0:0:0:
296,199,6068,1,8,0:0:0:0:
255,109,6265,1,2,0:0:0:0:
192,33,6462,6,0,P|151:25|123:32,1,70,8|2,0:1|0:0,0:0:0:0:
90,123,6857,2,0,P|131:131|159:124,1,70,8|2,0:0|0:0,0:0:0:0:
255,109,7252,1,8,0:1:0:0:
349,134,7449,2,0,L|414:130,2,35,2|2|8,0:0|0:0|0:0,0:0:0:0:
168,203,8041,6,0,P|135:214|109:237,1,70,12|2,0:1|0:0,0:0:0:0:
183,301,8436,2,0,P|209:323|242:335,1,70,8|2,0:0|0:0,0:0:0:0:
259,239,8831,2,0,B|269:208|259:170|259:170|239:153|228:131,1,105,8|0,0:1|0:0,0:0:0:0:
217,101,9226,1,8,0:0:0:0:
313,88,9423,1,2,0:0:0:0:
409,102,9620,6,0,P|416:157|407:186,1,70,8|2,0:1|0:0,0:0:0:0:
389,265,10015,2,0,P|382:320|391:349,1,70,8|2,0:0|0:0,0:0:0:0:
477,365,10410,1,8,0:1:0:0:
474,267,10607,2,0,L|471:227,2,35,2|2|8,0:0|0:0|0:0,0:0:0:0:
278,294,11199,6,0,P|260:323|234:346,1,70,8|2,0:1|0:0,0:0:0:0:
186,263,11594,2,0,P|168:232|161:198,1,70,8|2,0:0|0:0,0:0:0:0:
260,198,11989,2,0,B|291:193|327:209|327:209|341:232|360:246,1,105,8|0,0:1|0:0,0:0:0:0:
389,265,12384,1,8,0:0:0:0:
414,170,12581,1,2,0:0:0:0:
391,74,12778,6,0,P|396:28|387:4,1,70,8|2,0:1|0:0,0:0:0:0:
297,44,13173,2,0,P|292:90|301:114,1,70,8|2,0:0|0:0,0:0:0:0:
327,205,13568,1,8,0:1:0:0:
220,256,13765,5,2,0:0:0:0:
219,252,13864,1,2,0:0:0:0:
217,248,13962,2,0,P|196:216|147:205,1,70,10|0,0:0|0:0,0:0:0:0:
34,219,14357,6,0,L|44:126,1,70,12|0,0:1|0:0,0:0:0:0:
129,106,14752,2,0,P|160:91|178:62,1,70,8|0,0:0|0:0,0:0:0:0:
279,90,15146,2,0,P|340:104|384:71,1,105,8|0,0:1|0:0,0:0:0:0:
422,93,15541,1,8,0:0:0:0:
479,172,15739,6,0,L|519:177,2,35,0|0|8,0:0|0:0|0:1,0:0:0:0:
445,264,16133,1,0,0:0:0:0:
386,185,16331,2,0,P|329:188|305:211,1,70,8|0,0:0|0:0,0:0:0:0:
253,265,16725,1,8,0:1:0:0:
226,171,16923,1,2,0:0:0:0:
161,243,17120,1,8,0:0:0:0:
134,148,17318,1,2,0:0:0:0:
65,218,17515,6,0,P|26:212|-2:176,1,70,8|0,0:1|0:0,0:0:0:0:
34,98,17910,2,0,L|54:20,1,70,8|0,0:0|0:0,0:0:0:0:
159,24,18304,2,0,P|194:46|260:37,1,105,8|0,0:1|0:0,0:0:0:0:
299,19,18699,1,8,0:0:0:0:
379,73,18896,6,0,L|428:66,2,35,0|0|8,0:0|0:0|0:1,0:0:0:0:
292,119,19291,1,0,0:0:0:0:
372,176,19489,2,0,L|475:164,2,70,8|0|8,0:0|0:0|0:1,0:0:0:0:
284,219,20081,1,2,0:0:0:0:
274,316,20278,6,0,P|197:312|165:368,1,140,10|12,0:0|0:1,0:0:0:0:
99,286,20870,1,0,0:0:0:0:
8,300,21068,2,0,P|26:232|3:185,1,105,8|0,0:0|0:0,0:0:0:0:
28,156,21462,2,0,L|120:147,1,70,8|0,0:1|0:0,0:0:0:0:
146,148,21758,1,0,0:0:0:0:
146,148,21857,2,0,P|163:102|155:59,1,70,8|0,0:0|0:0,0:0:0:0:
143,36,22153,1,0,0:0:0:0:
143,36,22252,6,0,L|60:43,2,70,8|0|8,0:1|0:0|0:0,0:0:0:0:
241,28,22844,1,0,0:0:0:0:
338,36,23041,2,0,L|421:43,1,70,8|0,0:1|0:0,0:0:0:0:
407,41,23436,1,8,0:0:0:0:
478,227,23831,5,12,0:1:0:0:
478,227,24028,1,2,0:0:0:0:
450,320,24225,1,8,0:0:0:0:
450,320,24423,1,2,0:0:0:0:
379,251,24620,2,0,P|344:218|290:240,1,105,8|0,0:1|0:0,0:0:0:0:
283,281,25015,1,8,0:0:0:0:
183,331,25212,5,2,0:0:0:0:
179,332,25311,1,2,0:0:0:0:
175,333,25410,2,0,P|121:340|93:330,1,70,8|0,0:1|0:0,0:0:0:0:
58,235,25804,2,0,P|112:228|140:238,1,70,8|0,0:0|0:0,0:0:0:0:
172,137,26199,2,0,P|206:142|240:133,2,70,8|2|10,0:1|0:1|0:1,0:0:0:0:
51,163,32910,6,0,L|38:256,1,70,8|0,0:0|0:0,0:0:0:0:
2,357,33304,6,0,P|53:332|89:344,1,70,12|0,0:1|0:0,0:0:0:0:
149,285,33699,2,0,L|228:296,1,70,8|0,0:0|0:0,0:0:0:0:
296,363,34094,2,0,P|325:299|377:297,1,105,8|0,0:1|0:0,0:0:0:0:
402,295,34489,1,8,0:0:0:0:
499,283,34686,6,0,L|511:326,2,35,0|0|8,0:0|0:0|0:1,0:0:0:0:
442,202,35081,1,0,0:0:0:0:
345,215,35278,2,0,P|299:210|279:172,1,70,8|0,0:0|0:0,0:0:0:0:
218,121,35673,1,8,0:1:0:0:
188,214,35870,1,2,0:0:0:0:
120,141,36068,1,8,0:0:0:0:
90,234,36265,1,2,0:0:0:0:
21,164,36462,6,0,P|25:126|0:84,1,70,8|0,0:1|0:0,0:0:0:0:
88,35,36857,2,0,L|158:27,1,70,8|0,0:0|0:0,0:0:0:0:
258,60,37252,2,0,P|277:26|360:18,1,105,8|0,0:1|0:0,0:0:0:0:
383,25,37646,1,8,0:0:0:0:
457,88,37844,6,0,L|500:94,2,35,0|0|8,0:0|0:0|0:1,0:0:0:0:
365,124,38239,1,0,0:0:0:0:
439,187,38436,2,0,L|514:204,2,70,8|0|8,0:0|0:0|0:1,0:0:0:0:
347,222,39028,1,2,0:0:0:0:
269,162,39225,6,0,P|193:177|162:232,1,140,10|12,0:0|0:1,0:0:0:0:
106,307,39818,1,0,0:0:0:0:
63,219,40015,2,0,L|57:93,1,105,8|0,0:0|0:0,0:0:0:0:
55,65,40410,1,8,0:1:0:0:
55,65,40508,2,0,P|105:66|128:50,1,70
153,19,40804,1,8,0:0:0:0:
239,65,41002,1,0,0:0:0:0:
326,20,41199,6,0,L|405:32,2,70,8|0|8,0:1|0:0|0:0,0:0:0:0:
239,65,41791,1,0,0:0:0:0:
322,116,41989,2,0,P|332:153|314:204,1,70,8|0,0:1|0:0,0:0:0:0:
326,183,42383,1,8,0:0:0:0:
219,348,42778,5,12,0:1:0:0:
219,348,42975,1,2,0:0:0:0:
123,363,43173,1,8,0:0:0:0:
123,363,43370,1,2,0:0:0:0:
86,271,43568,2,0,P|86:204|47:174,1,105,8|0,0:1|0:0,0:0:0:0:
14,167,43962,1,8,0:0:0:0:
83,96,44160,5,2,0:0:0:0:
83,96,44258,1,2,0:0:0:0:
82,95,44357,2,0,P|116:95|148:81,1,70,8|0,0:1|0:0,0:0:0:0:
234,21,44752,2,0,P|265:34|300:34,1,70,8|0,0:0|0:0,0:0:0:0:
372,100,45146,1,2,0:0:0:0:
463,135,45344,2,0,L|498:139,2,35,8|2|8,0:1|0:1|0:0,0:0:0:0:
387,197,45739,6,0,L|392:247,2,35,2|2|12,0:1|0:1|0:1,0:0:0:0:
295,162,46133,1,0,0:0:0:0:
278,65,46331,2,0,L|272:29,2,35,2|2|2,0:1|0:1|0:1,0:0:0:0:
202,127,46725,1,8,0:0:0:0:
7,112,47120,1,2,0:0:0:0:
45,202,47318,6,0,L|31:253,2,35,0|0|8,0:0|0:0|0:1,0:0:0:0:
137,233,47712,1,0,0:0:0:0:
230,264,47910,2,0,L|239:230,2,35,8|2|2,0:0|0:1|0:1,0:0:0:0:
253,359,48304,2,0,L|322:383,1,70,8|2,0:1|0:0,0:0:0:0:
414,359,48699,1,10,0:0:0:0:
477,173,49094,6,0,L|492:84,1,70,12|0,0:1|0:0,0:0:0:0:
397,67,49489,2,0,L|406:18,2,35,2|2|2,0:1|0:1|0:1,0:0:0:0:
302,92,49883,1,8,0:0:0:0:
119,19,50278,1,2,0:0:0:0:
48,86,50475,6,0,L|-3:99,2,35,0|0|8,0:0|0:0|0:1,0:0:0:0:
114,158,50870,1,0,0:0:0:0:
181,229,51068,2,0,L|190:304,1,70,8|2,0:0|0:1,0:0:0:0:
259,366,51462,1,8,0:1:0:0:
344,316,51660,2,0,L|396:326,2,35,2|2|8,0:1|0:1|0:0,0:0:0:0:
468,164,52252,6,0,L|519:157,4,35,12|0|0|0|8,0:1|0:0|0:0|0:0|0:0,0:0:0:0:
376,199,52844,6,0,L|306:190,1,70,2|8,0:1|0:0,0:0:0:0:
142,82,53436,1,2,0:0:0:0:
47,56,53633,6,0,L|14:37,2,35,0|0|8,0:0|0:0|0:1,0:0:0:0:
57,153,54028,1,0,0:0:0:0:
66,250,54225,2,0,L|104:339,1,70,8|2,0:0|0:1,0:0:0:0:
178,364,54620,5,8,0:1:0:0:
269,328,54818,1,2,0:1:0:0:
293,233,55015,1,8,0:0:0:0:
386,202,55212,1,2,0:1:0:0:
411,106,55410,2,0,B|406:15|296:0|267:83|267:83|233:169|128:151|126:73,1,420,10|8,0:0|0:0,0:0:0:0:
28,17,56791,5,2,0:0:0:0:
21,129,56989,2,0,P|31:162|52:190,1,70,8|2,0:0|0:0,0:0:0:0:
70,300,57383,2,0,P|105:308|139:303,1,70,8|2,0:0|0:0,0:0:0:0:
240,354,57778,1,8,0:0:0:0:
331,318,57975,5,2,0:1:0:0:
331,318,58074,1,2,0:1:0:0:
331,318,58173,2,0,P|340:285|339:237,1,70,8|2,0:0|0:1,0:1:0:0:
330,151,58568,1,8,0:0:0:0:
171,266,58962,6,0,B|180:254|180:254|165:244|165:244|180:234|180:234|165:224|165:224|180:214|180:214|165:204|165:204|180:194|180:194|165:184|165:184|180:174|180:174|172:169,1,140,2|8,0:0|0:0,0:0:0:0:
116,100,59554,2,0,P|108:65|115:28,1,70,2|2,0:0|0:0,0:0:0:0:
215,68,59949,1,2,0:1:0:0:
215,68,60048,1,2,0:1:0:0:
215,68,60146,5,8,0:0:0:0:
254,156,60344,1,8,0:0:0:0:
336,103,60541,1,8,0:0:0:0:
373,194,60739,1,8,0:0:0:0:
456,143,60936,1,8,0:0:0:0:
500,241,61133,5,2,0:1:0:0:
500,241,61232,1,2,0:1:0:0:
500,241,61331,2,0,L|492:317,1,70,8|0,0:0|0:0,0:0:0:0:
377,372,61725,6,0,P|328:379|287:364,1,77.0000023498536,12|2,0:1|0:0,0:0:0:0:
264,270,62120,2,0,P|313:263|354:278,1,77.0000023498536,8|2,0:0|0:0,0:0:0:0:
371,166,62515,2,0,L|386:71,1,77.0000023498536,8|2,0:1|0:0,0:0:0:0:
280,124,62910,2,0,L|295:29,1,77.0000023498536,8|2,0:0|0:0,0:0:0:0:
190,84,63304,6,0,P|182:134|188:162,1,77.0000023498536,8|0,0:1|0:0,0:0:0:0:
174,266,63699,1,8,0:0:0:0:
279,228,63896,1,2,0:0:0:0:
279,228,63995,1,2,0:0:0:0:
279,228,64094,2,0,B|355:199|354:265|435:233,1,154.000004699707,8|8,0:1|0:0,0:0:0:0:
252,42,64883,6,0,P|223:16|188:1,1,77.0000023498536,10|0,0:2|0:0,0:0:0:0:
165,104,65278,2,0,P|126:105|91:120,1,77.0000023498536,10|0,0:0|0:0,0:0:0:0:
147,209,65673,2,0,P|121:237|106:272,1,77.0000023498536,10|8,0:2|0:0,0:0:0:0:
208,295,66068,2,0,P|209:333|224:368,1,77.0000023498536,10|0,0:0|0:0,0:0:0:0:
317,315,66462,5,8,0:1:0:0:
317,315,66660,1,0,0:0:0:0:
414,359,66857,1,8,0:0:0:0:
414,359,67055,1,0,0:0:0:0:
505,301,67252,2,0,B|530:226|474:231|506:151,1,154.000004699707,8|8,0:1|0:0,0:0:0:0:
482,45,67844,1,0,0:0:0:0:
378,19,68041,6,0,P|328:10|294:19,1,77.0000023498536,12|2,0:1|0:0,0:0:0:0:
260,115,68436,2,0,P|310:124|344:115,1,77.0000023498536,8|2,0:0|0:0,0:0:0:0:
426,178,68831,2,0,L|440:273,1,77.0000023498536,8|2,0:1|0:0,0:0:0:0:
334,223,69225,2,0,L|345:299,1,77.0000023498536,8|2,0:0|0:0,0:0:0:0:
255,360,69620,6,0,P|205:370|164:356,1,77.0000023498536,8|0,0:1|0:0,0:0:0:0:
89,305,70015,1,8,0:0:0:0:
127,209,70212,1,2,0:0:0:0:
127,209,70311,1,2,0:0:0:0:
127,209,70410,2,0,P|161:193|199:196,2,77.0000023498536,8|0|8,0:1|0:0|0:0,0:0:0:0:
315,332,71199,6,0,P|346:310|368:279,1,77.0000023498536,10|0,0:0|0:0,0:0:0:0:
272,235,71594,2,0,P|279:197|272:159,1,77.0000023498536,10|0,0:0|0:0,0:0:0:0:
164,158,71989,2,0,P|157:196|163:234,1,77.0000023498536,10|0,0:0|0:0,0:0:0:0:
67,278,72383,2,0,P|89:309|121:331,1,77.0000023498536,10|2,0:0|0:1,0:0:0:0:
228,335,72778,5,8,0:0:0:0:
272,235,72975,1,8,0:0:0:0:
316,135,73173,1,8,0:0:0:0:
381,223,73370,1,8,0:0:0:0:
445,311,73568,1,8,0:0:0:0:
511,126,73962,5,10,0:0:0:0:
146,299,83436,5,8,0:0:0:0:
83,113,83831,6,0,P|76:79|82:45,1,70,8|2,0:1|0:0,0:0:0:0:
175,77,84226,2,0,P|207:89|234:111,1,70,8|2,0:0|0:0,0:0:0:0:
160,174,84621,2,0,B|139:198|101:209|101:209|76:200|52:201,1,105,8|0,0:1|0:0,0:0:0:0:
17,206,85016,1,8,0:0:0:0:
57,295,85213,5,2,0:0:0:0:
154,284,85410,2,0,P|194:278|234:291,1,70,8|8,0:1|0:0,0:0:0:0:
299,345,85804,2,0,L|307:405,2,35,8|8|2,0:0|0:1|0:1,0:0:0:0:
379,287,86200,1,8,0:1:0:0:
466,330,86396,2,0,L|474:390,2,35,2|2|8,0:1|0:1|0:0,0:0:0:0:
466,231,86791,1,8,0:0:0:0:
504,117,86989,6,0,P|455:105|413:126,1,70,12|0,0:1|0:0,0:0:0:0:
344,141,87383,2,0,L|252:135,1,70,8|0,0:0|0:0,0:0:0:0:
196,66,87778,2,0,P|166:102|95:108,1,105,8|0,0:1|0:0,0:0:0:0:
65,94,88173,1,8,0:0:0:0:
26,183,88370,6,0,L|16:223,2,35,0|0|8,0:0|0:0|0:1,0:0:0:0:
117,219,88765,1,0,0:0:0:0:
210,190,88962,2,0,P|242:172|284:175,1,70,8|0,0:0|0:0,0:0:0:0:
345,104,89357,1,8,0:1:0:0:
410,193,89554,1,0,0:0:0:0:
410,193,89653,1,0,0:0:0:0:
410,193,89752,2,0,P|442:211|484:208,1,70,8|0,0:0|0:0,0:0:0:0:
504,306,90146,6,0,P|469:306|439:324,1,70,8|0,0:1|0:0,0:0:0:0:
353,370,90541,2,0,L|346:285,1,70,8|0,0:0|0:0,0:0:0:0:
254,249,90936,2,0,P|227:288|163:299,1,105,8|0,0:1|0:0,0:0:0:0:
126,285,91331,1,8,0:0:0:0:
40,237,91528,6,0,L|3:244,2,35,0|0|8,0:0|0:0|0:1,0:0:0:0:
123,184,91923,1,0,0:0:0:0:
207,134,92120,2,0,L|292:142,2,70,8|0|8,0:0|0:0|0:1,0:0:0:0:
121,84,92712,1,8,0:0:0:0:
205,34,92910,1,8,0:1:0:0:
317,48,93107,5,0,0:0:0:0:
317,48,93206,1,0,0:0:0:0:
317,48,93304,2,0,P|354:30|387:34,1,70,12|0,0:1|0:0,0:0:0:0:
474,83,93699,2,0,L|481:195,1,105,8|0,0:0|0:0,0:0:0:0:
483,236,94094,1,8,0:1:0:0:
425,314,94291,1,0,0:0:0:0:
333,278,94489,2,0,L|329:227,2,46.6666666666667,8|0|0,0:0|0:0|0:0,0:0:0:0:
305,347,94883,6,0,P|267:371|217:360,1,70,8|0,0:1|0:0,0:0:0:0:
150,337,95278,1,8,0:0:0:0:
150,337,95475,1,0,0:0:0:0:
66,285,95673,2,0,P|31:288|4:309,2,70,8|0|8,0:1|0:0|0:0,0:0:0:0:
157,241,96265,1,2,0:1:0:0:
157,241,96364,1,2,0:1:0:0:
157,241,96462,6,0,L|244:233,1,70,12|2,0:1|0:0,0:0:0:0:
311,184,96857,1,8,0:0:0:0:
311,184,97054,1,2,0:0:0:0:
393,237,97252,2,0,P|460:232|493:183,1,105,8|0,0:1|0:0,0:0:0:0:
491,158,97646,1,8,0:0:0:0:
415,85,97844,5,2,0:0:0:0:
411,85,97943,1,2,0:0:0:0:
407,85,98041,2,0,P|348:77|328:52,1,70,8|0,0:1|0:0,0:0:0:0:
241,102,98436,2,0,L|226:178,2,70,8|0|8,0:0|0:0|0:1,0:0:0:0:
141,66,99028,1,8,0:1:0:0:
115,160,99225,1,8,0:0:0:0:
90,255,99423,6,0,L|25:270,2,35,2|2|12,0:1|0:1|0:1,0:0:0:0:
180,292,99818,1,0,0:0:0:0:
269,331,100015,2,0,L|303:364,2,35,2|2|2,0:1|0:1|0:1,0:0:0:0:
261,233,100410,1,8,0:0:0:0:
442,306,100804,1,2,0:0:0:0:
478,214,101002,6,0,L|525:208,2,35,0|0|8,0:0|0:0|0:1,0:0:0:0:
386,178,101396,1,0,0:0:0:0:
294,142,101594,2,0,L|259:146,2,35,8|2|2,0:0|0:1|0:1,0:0:0:0:
329,50,101989,2,0,L|412:40,1,70,8|2,0:1|0:0,0:0:0:0:
495,33,102383,1,10,0:0:0:0:
466,227,102778,6,0,L|450:320,1,70,12|0,0:1|0:0,0:0:0:0:
366,340,103173,2,0,L|371:374,2,35,2|2|2,0:1|0:1|0:1,0:0:0:0:
272,310,103568,1,8,0:0:0:0:
87,376,103962,1,2,0:0:0:0:
31,294,104160,6,0,L|-20:314,2,35,0|0|8,0:0|0:0|0:1,0:0:0:0:
114,242,104554,1,0,0:0:0:0:
198,192,104752,2,0,L|282:212,1,70,8|2,0:0|0:1,0:0:0:0:
359,237,105146,1,8,0:1:0:0:
453,210,105344,2,0,L|502:202,2,35,2|2|8,0:1|0:1|0:0,0:0:0:0:
394,22,105936,6,0,L|432:27,4,35,12|0|0|0|8,0:1|0:0|0:0|0:0|0:0,0:0:0:0:
317,83,106528,6,0,L|238:93,1,70,2|8,0:1|0:0,0:0:0:0:
67,14,107120,1,2,0:0:0:0:
37,107,107318,6,0,L|-18:131,2,35,0|0|8,0:0|0:0|0:1,0:0:0:0:
124,151,107712,1,0,0:0:0:0:
108,248,107910,2,0,L|142:335,1,70,8|2,0:0|0:1,0:0:0:0:
217,363,108304,5,8,0:1:0:0:
305,320,108502,1,2,0:1:0:0:
391,364,108699,1,8,0:0:0:0:
479,321,108897,1,2,0:1:0:0:
487,223,109094,2,0,P|437:70|343:225,1,420,10|8,0:0|0:0,0:0:0:0:
414,163,110475,5,2,0:0:0:0:
410,275,110673,2,0,P|406:324|383:362,1,70,8|2,0:1|0:0,0:0:0:0:
285,341,111068,2,0,P|240:362|196:361,1,70,8|2,0:1|0:0,0:0:0:0:
110,341,111462,1,8,0:1:0:0:
41,270,111660,6,0,L|-14:287,2,35,2|2|8,0:1|0:1|0:0,0:0:0:0:
135,245,112054,1,0,0:0:0:0:
232,231,112252,5,8,0:0:0:0:
232,231,112646,1,8,0:0:0:0:
232,231,113041,1,8,0:0:0:0:
316,294,113239,5,2,0:1:0:0:
316,294,113337,1,2,0:1:0:0:
316,294,113436,2,0,L|402:319,1,70,8|0,0:0|0:0,0:0:0:0:
401,203,113831,6,0,P|441:194|482:152,1,77.0000023498536,12|2,0:1|0:0,0:0:0:0:
463,65,114225,2,0,P|422:73|381:115,1,77.0000023498536,8|2,0:0|0:0,0:0:0:0:
297,141,114620,2,0,L|201:152,1,77.0000023498536,8|2,0:1|0:0,0:0:0:0:
262,50,115015,2,0,L|166:61,1,77.0000023498536,8|2,0:0|0:0,0:0:0:0:
84,21,115410,6,0,P|77:58|83:96,1,77.0000023498536,8|0,0:1|0:0,0:0:0:0:
80,204,115804,1,8,0:0:0:0:
189,251,116002,1,2,0:0:0:0:
189,251,116100,1,2,0:0:0:0:
189,251,116199,2,0,B|211:169|172:176|198:98,1,154.000004699707,8|8,0:1|0:0,0:0:0:0:
402,24,116989,6,0,P|440:23|477:35,1,77.0000023498536,10|0,0:0|0:0,0:0:0:0:
426,127,117383,2,0,P|460:145|485:174,1,77.0000023498536,10|0,0:0|0:0,0:0:0:0:
395,228,117778,2,0,P|414:261|423:298,1,77.0000023498536,10|8,0:0|0:0,0:0:0:0:
317,299,118173,2,0,P|317:337|305:374,1,77.0000023498536,10|0,0:0|0:0,0:0:0:0:
210,323,118568,5,8,0:1:0:0:
210,323,118765,1,0,0:0:0:0:
110,362,118962,1,8,0:0:0:0:
110,362,119160,1,0,0:0:0:0:
29,290,119357,2,0,B|56:210|8:216|35:140,1,154.000004699707,8|8,0:1|0:0,0:0:0:0:
18,33,119949,1,0,0:0:0:0:
158,36,120146,6,0,P|212:22|261:37,1,77.0000023498536,12|2,0:1|0:0,0:0:0:0:
281,120,120541,2,0,P|225:134|177:119,1,77.0000023498536,8|2,0:0|0:0,0:0:0:0:
98,123,120936,2,0,L|17:148,1,77.0000023498536,8|2,0:1|0:0,0:0:0:0:
108,214,121331,2,0,L|27:239,1,77.0000023498536,8|2,0:0|0:0,0:0:0:0:
118,303,121725,6,0,P|166:312|216:296,1,77.0000023498536,8|0,0:1|0:0,0:0:0:0:
285,251,122120,1,8,0:0:0:0:
388,309,122318,1,2,0:0:0:0:
388,309,122416,1,2,0:0:0:0:
388,309,122515,2,0,P|425:314|469:296,2,77.0000023498536,8|0|8,0:1|0:0|0:0,0:0:0:0:
349,83,123304,6,0,P|306:74|266:81,1,77.0000023498536,10|0,0:0|0:0,0:0:0:0:
173,38,123699,2,0,P|164:81|171:121,1,77.0000023498536,10|0,0:0|0:0,0:0:0:0:
195,218,124094,2,0,P|199:256|190:293,1,77.0000023498536,10|0,0:0|0:0,0:0:0:0:
90,251,124489,2,0,P|51:255|14:246,1,77.0000023498536,10|2,0:0|0:1,0:0:0:0:
69,153,124883,5,8,0:0:0:0:
173,123,125081,1,8,0:0:0:0:
276,93,125278,1,8,0:0:0:0:
353,168,125476,1,8,0:0:0:0:
430,242,125673,1,8,0:0:0:0:
224,302,126068,5,10,0:0:0:0:
3,132,137318,6,0,L|161:144,1,140,10|0,0:0|0:0,0:0:0:0:
232,101,137910,1,0,0:0:0:0:
319,144,138107,1,0,0:0:0:0:
426,112,138304,6,8,L|470:130,2,35,8|8|8,0:0|0:0|0:0,0:0:0:0:
395,219,138699,2,8,L|439:237,2,35,8|8|8,0:0|0:0|0:0,0:0:0:0:
288,286,139094,6,0,L|274:367,1,70,12|2,0:1|0:0,0:0:0:0:
207,284,139489,2,0,L|193:365,1,70,8|2,0:0|0:0,0:0:0:0:
124,285,139883,2,0,L|138:204,1,70,10|2,0:1|0:0,0:0:0:0:
43,283,140278,2,0,L|57:202,1,70,8|2,0:0|0:0,0:0:0:0:
52,101,140673,5,8,0:1:0:0:
144,69,140870,1,2,0:0:0:0:
231,113,141068,1,8,0:0:0:0:
322,77,141265,2,0,L|334:23,2,35,2|2|8,0:0|0:0|0:1,0:0:0:0:
410,119,141660,2,0,L|428:37,2,70,2|8|2,0:0|0:0|0:0,0:0:0:0:
364,206,142252,6,0,P|372:242|367:274,1,70,8|2,0:1|0:0,0:0:0:0:
277,314,142646,2,0,P|268:277|273:245,1,70,8|2,0:0|0:0,0:0:0:0:
282,148,143041,1,8,0:1:0:0:
282,148,143239,1,2,0:1:0:0:
250,55,143436,2,0,L|264:3,2,35,10|0|0,0:0|0:0|0:0,0:0:0:0:
185,128,143831,6,0,P|126:138|74:113,2,105,8|0|0,0:1|0:0|0:0,0:0:0:0:
175,225,144620,2,0,L|91:239,1,70,8|0,0:1|0:0,0:0:0:0:
100,334,145015,2,0,L|169:345,1,70,8|0,0:0|0:0,0:0:0:0:
258,350,145410,6,0,L|306:362,2,31.4999990386963,10|2|2,0:0|0:0|0:0,0:0:0:0:
249,262,145804,2,0,L|297:274,2,31.4999990386963,10|2|2,0:2|0:2|0:0,0:0:0:0:
237,154,146199,6,0,L|199:144,2,38.5000011749268,10|2|2,0:0|0:0|0:0,0:0:0:0:
226,46,146594,2,0,L|188:36,2,38.5000011749268,10|2|2,0:0|0:0|0:0,0:0:0:0:
311,94,146989,6,0,P|389:104|442:67,1,140,12|8,0:1|0:0,0:0:0:0:
460,168,147581,1,2,0:0:0:0:
397,242,147778,2,0,L|389:319,2,70,8|0|8,0:1|0:0|0:0,0:0:0:0:
206,292,148568,6,0,P|165:261|152:230,1,70,8|2,0:1|0:0,0:0:0:0:
246,204,148962,2,0,P|294:184|327:189,1,70,8|2,0:0|0:0,0:0:0:0:
302,282,149357,2,0,P|296:334|276:360,1,70,8|2,0:1|0:0,0:0:0:0:
206,292,149752,1,8,0:0:0:0:
257,103,150146,5,8,0:1:0:0:
256,192,150245,12,2,151725,0:0:0:0:
257,138,154291,6,0,L|251:174,2,35,2|2|8,0:1|0:1|0:0,0:0:0:0:
223,331,154883,5,2,0:0:0:0:
72,205,155278,1,2,0:0:0:0:
257,138,155673,1,2,0:0:0:0:
356,182,155870,5,2,0:1:0:0:
356,182,155969,1,2,0:1:0:0:
356,182,156068,2,0,P|362:219|353:254,1,70,10|0,0:0|0:0,0:0:0:0:
262,268,156462,5,8,0:0:0:0:
262,268,156660,1,2,0:1:0:0:
176,315,156857,1,8,0:0:0:0:
176,315,157054,1,2,0:1:0:0:
91,264,157252,2,0,P|84:226|92:191,1,70,10|0,0:0|0:0,0:0:0:0:
145,114,157646,2,0,P|181:107|216:115,1,70,2|0,0:0|0:0,0:0:0:0:
350,140,158041,6,0,P|384:146|425:138,1,77.0000023498536,12|2,0:1|0:0,0:0:0:0:
461,36,158436,2,0,P|426:29|385:37,1,77.0000023498536,8|2,0:0|0:0,0:0:0:0:
277,40,158831,2,0,L|186:28,1,77.0000023498536,8|2,0:1|0:0,0:0:0:0:
254,123,159225,2,0,L|163:111,1,77.0000023498536,8|2,0:0|0:0,0:0:0:0:
83,60,159620,6,0,P|69:105|71:138,1,77.0000023498536,8|0,0:1|0:0,0:0:0:0:
95,239,160015,1,8,0:0:0:0:
67,343,160212,1,2,0:0:0:0:
67,343,160311,1,2,0:0:0:0:
67,343,160410,2,0,B|143:372|152:301|227:345,1,154.000004699707,8|8,0:1|0:0,0:0:0:0:
410,246,161199,6,0,P|422:210|418:172,1,77.0000023498536,10|0,0:0|0:0,0:0:0:0:
465,74,161594,2,0,P|429:61|391:65,1,77.0000023498536,10|0,0:0|0:0,0:0:0:0:
294,15,161989,2,0,P|281:50|285:88,1,77.0000023498536,10|0,0:0|0:0,0:0:0:0:
239,187,162384,2,0,P|274:199|312:195,1,77.0000023498536,10|0,0:0|0:0,0:0:0:0:
410,246,162778,6,0,P|405:208|418:172,1,77.0000023498536,10|0,0:0|0:0,0:0:0:0:
465,74,163173,2,0,P|427:78|391:65,1,77.0000023498536,10|0,0:0|0:0,0:0:0:0:
294,15,163568,2,0,P|298:52|285:88,1,77.0000023498536,10|8,0:0|0:0,0:0:0:0:
239,187,163963,2,0,P|276:182|312:195,1,77.0000023498536,10|2,0:0|0:1,0:0:0:0:
252,319,164357,5,12,0:1:0:0:
164,381,164554,1,2,0:0:0:0:
63,340,164752,2,0,P|59:300|67:261,1,77.0000023498536,8|2,0:0|0:0,0:0:0:0:
163,219,165146,1,8,0:1:0:0:
72,159,165344,1,2,0:0:0:0:
34,58,165541,2,0,P|79:64|109:58,1,77.0000023498536,8|2,0:0|0:1,0:0:0:0:
217,37,165936,6,0,P|254:23|313:32,1,77.0000023498536,8|0,0:1|0:0,0:0:0:0:
377,89,166331,1,8,0:0:0:0:
288,150,166528,1,2,0:0:0:0:
288,150,166627,1,2,0:0:0:0:
288,150,166725,2,0,L|280:229,1,77.0000023498536,8|2,0:1|0:1,0:0:0:0:
181,182,167120,2,0,L|189:103,1,77.0000023498536,8|0,0:0|0:0,0:0:0:0:
106,37,167515,6,0,P|91:71|90:110,1,77.0000023498536,10|0,0:0|0:0,0:0:0:0:
3,164,167910,2,0,P|26:193|59:213,1,77.0000023498536,10|0,0:0|0:0,0:0:0:0:
51,321,168304,2,0,P|88:315|122:297,1,77.0000023498536,10|8,0:0|0:0,0:0:0:0:
212,357,168699,2,0,P|224:321|226:282,1,77.0000023498536,10|0,0:0|0:0,0:0:0:0:
210,180,169094,5,2,0:1:0:0:
210,180,169291,1,0,0:0:0:0:
314,150,169489,1,8,0:0:0:0:
314,150,169686,1,0,0:0:0:0:
417,180,169883,2,0,P|477:133|475:52,1,154.000004699707,8|8,0:1|0:0,0:0:0:0:
377,22,170475,1,0,0:0:0:0:
240,46,170673,6,0,P|206:36|165:40,1,77.0000023498536,12|2,0:1|0:0,0:0:0:0:
116,136,171068,2,0,P|150:146|191:142,1,77.0000023498536,8|2,0:0|0:0,0:0:0:0:
298,138,171462,2,0,L|313:214,1,77.0000023498536,8|2,0:1|0:0,0:0:0:0:
393,141,171857,2,0,L|408:217,1,77.0000023498536,8|2,0:0|0:1,0:0:0:0:
369,317,172252,6,0,P|332:327|290:322,1,77.0000023498536,8|0,0:1|0:0,0:0:0:0:
194,283,172646,1,8,0:0:0:0:
97,331,172844,1,2,0:0:0:0:
96,327,172943,1,2,0:0:0:0:
96,323,173041,2,0,P|81:269|62:246,1,77.0000023498536,8|0,0:1|0:0,0:0:0:0:
69,144,173436,2,0,P|89:111|96:73,1,77.0000023498536,8|2,0:0|0:0,0:0:0:0:
203,11,173831,6,0,L|197:96,1,77.0000023498536,10|0,0:0|0:0,0:0:0:0:
289,144,174225,2,0,L|294:67,1,77.0000023498536,10|0,0:0|0:0,0:0:0:0:
385,122,174620,2,0,L|379:198,1,77.0000023498536,10|0,0:0|0:0,0:0:0:0:
471,254,175015,2,0,L|476:177,1,77.0000023498536,10|2,0:0|0:1,0:0:0:0:
479,69,175410,5,8,0:0:0:0:
385,122,175607,1,8,0:0:0:0:
290,173,175804,1,8,0:0:0:0:
198,116,176002,1,8,0:0:0:0:
106,62,176199,1,8,0:0:0:0:
12,115,176396,2,0,L|0:184,2,38.5000011749268,2|2|8,0:1|0:1|0:0,0:0:0:0:
106,187,176791,5,2,0:1:0:0:
106,187,176890,1,2,0:1:0:0:
106,187,176989,1,8,0:0:0:0:
198,241,177185,1,8,0:0:0:0:
290,298,177383,1,8,0:0:0:0:
293,190,177581,1,8,0:0:0:0:
294,83,177778,1,8,0:0:0:0:
390,130,177975,2,0,L|437:141,2,38.5000011749268,2|2|8,0:1|0:1|0:0,0:0:0:0:
384,245,178370,5,2,0:1:0:0:
384,245,178469,1,2,0:1:0:0:
384,245,178568,1,8,0:0:0:0:
290,298,178765,1,8,0:0:0:0:
195,349,178962,1,8,0:0:0:0:
103,292,179160,1,8,0:0:0:0:
11,238,179357,1,8,0:0:0:0:
199,133,179752,5,10,0:0:0:0:
404,47,180146,6,0,P|434:30|468:26,1,70,12|2,0:1|0:0,0:0:0:0:
466,125,180541,2,0,P|463:159|450:191,1,70,8|2,0:0|0:0,0:0:0:0:
368,138,180936,2,0,B|338:124|317:91|317:91|318:65|310:42,1,105,8|0,0:1|0:0,0:0:0:0:
291,14,181331,1,8,0:0:0:0:
222,77,181528,1,2,0:0:0:0:
263,165,181725,6,0,P|267:200|259:234,1,70,8|2,0:1|0:0,0:0:0:0:
166,262,182120,2,0,P|158:295|163:330,1,70,8|2,0:0|0:0,0:0:0:0:
251,372,182515,1,8,0:1:0:0:
342,337,182712,2,0,L|348:302,2,35,2|2|8,0:0|0:0|0:0,0:0:0:0:
370,143,183304,6,0,P|377:109|371:75,1,70,8|2,0:1|0:0,0:0:0:0:
278,107,183699,2,0,P|246:119|219:141,1,70,8|2,0:0|0:0,0:0:0:0:
293,204,184094,2,0,B|314:228|352:239|352:239|377:230|401:231,1,105,8|0,0:1|0:0,0:0:0:0:
435,236,184489,1,8,0:0:0:0:
396,324,184686,1,2,0:0:0:0:
300,304,184883,6,0,P|256:294|222:304,1,70,8|2,0:1|0:0,0:0:0:0:
136,319,185278,2,0,P|101:324|68:314,1,70,8|2,0:0|0:0,0:0:0:0:
12,232,185673,1,8,0:1:0:0:
61,147,185870,2,0,L|52:102,2,35,2|2|8,0:0|0:0|0:0,0:0:0:0:
239,66,186462,6,0,P|244:31|262:1,1,70,12|2,0:1|0:0,0:0:0:0:
338,64,186857,2,0,P|364:85|381:116,1,70,8|2,0:0|0:0,0:0:0:0:
290,150,187252,2,0,B|261:165|222:161|222:161|201:145|178:138,1,105,8|0,0:1|0:0,0:0:0:0:
147,132,187647,1,8,0:0:0:0:
152,229,187844,1,2,0:0:0:0:
245,256,188041,6,0,P|293:240|335:246,1,70,8|2,0:1|0:0,0:0:0:0:
406,267,188436,2,0,P|440:265|472:251,1,70,8|2,0:0|0:0,0:0:0:0:
503,158,188831,1,8,0:1:0:0:
475,64,189028,2,0,L|482:17,2,35,2|2|8,0:0|0:0|0:0,0:0:0:0:
280,87,189620,6,0,P|287:53|281:19,1,70,8|2,0:1|0:0,0:0:0:0:
188,51,190015,2,0,P|156:63|129:85,1,70,8|2,0:0|0:0,0:0:0:0:
203,148,190410,2,0,B|224:172|262:183|262:183|287:174|311:175,1,105,8|0,0:1|0:0,0:0:0:0:
345,180,190805,1,8,0:0:0:0:
306,268,191002,1,2,0:0:0:0:
358,350,191199,6,0,P|391:358|425:352,1,70,8|8,0:1|0:0,0:0:0:0:
478,268,191594,2,0,L|523:276,2,35,8|8|2,0:0|0:1|0:1,0:0:0:0:
433,180,191989,1,8,0:0:0:0:
478,93,192186,2,0,L|523:101,2,35,2|2|8,0:1|0:1|0:0,0:0:0:0:
425,13,192581,1,8,0:0:0:0:
256,192,192778,12,0,193962,0:0:0:0:
62,295,194357,6,0,P|128:292|177:320,1,105,6|2,0:0|0:0,0:0:0:0:
195,345,194752,2,0,L|208:276,1,70,0|2,0:0|0:0,0:0:0:0:
298,235,195146,2,0,L|295:200,2,35,0|0|2,0:0|0:0|0:0,0:0:0:0:
387,275,195541,1,0,0:0:0:0:
474,230,195739,1,2,0:0:0:0:
