osu file format v14

[General]
AudioFilename: audio.mp3
AudioLeadIn: 0
PreviewTime: 61725
Countdown: 0
SampleSet: Soft
StackLeniency: 0.2
Mode: 0
LetterboxInBreaks: 0
WidescreenStoryboard: 1

[Editor]
Bookmarks: 27012,33327,74380,87012,126485,139117,192801
DistanceSpacing: 0.3
BeatDivisor: 4
GridSize: 8
TimelineZoom: 2.399999

[Metadata]
Title:Venom
TitleUnicode:ベノム
Artist:Kagura Mea
ArtistUnicode:神楽めあ
Creator:StrengeMistake
Version:Ellyu's toxic Insane
Source:
Tags:Kairiki bear virtual youtuber vocaloid japanese vtb vtuber pappl_e_104 Ellyu BinFhone papple104 handsome_muscle novelty cover ボカロ ボーカロイド
BeatmapID:2149357
BeatmapSetID:972341

[Difficulty]
HPDrainRate:7
CircleSize:4.3
OverallDifficulty:8
ApproachRate:9
SliderMultiplier:1.9
SliderTickRate:1

[Events]
//Background and Video events
0,0,"bgnew.jpg",0,0
//Break Periods
2,126662,132178
2,180346,192178
//Storyboard Layer 0 (Background)
//Storyboard Layer 1 (Fail)
//Storyboard Layer 2 (Pass)
//Storyboard Layer 3 (Foreground)
//Storyboard Layer 4 (Overlay)
//Storyboard Sound Samples

[TimingPoints]
147,394.736842105263,4,2,11,60,1,0
1723,-83.3333333333333,4,2,11,60,0,0
2513,-90.9090909090909,4,2,11,60,0,0
4487,-71.4285714285714,4,2,11,60,0,0
4881,-83.3333333333333,4,2,11,60,0,0
5671,-90.9090909090909,4,2,11,60,0,0
7644,-71.4285714285714,4,2,11,60,0,0
8039,-83.3333333333333,4,2,11,60,0,0
8829,-90.9090909090909,4,2,11,60,0,0
10803,-71.4285714285714,4,2,11,60,0,0
11197,-83.3333333333333,4,2,11,60,0,0
11987,-90.9090909090909,4,2,11,60,0,0
13960,-71.4285714285714,4,2,11,60,0,0
14355,-100,4,2,11,50,0,0
20276,-66.6666666666667,4,2,11,50,0,0
20671,-100,4,2,12,50,0,0
26987,-83.3333333333333,4,2,11,50,0,0
27777,-90.9090909090909,4,2,11,50,0,0
29750,-71.4285714285714,4,2,11,50,0,0
30144,-83.3333333333333,4,2,11,50,0,0
30934,-90.9090909090909,4,2,11,50,0,0
32908,-71.4285714285714,4,2,11,50,0,0
33302,-100,4,2,11,50,0,0
39223,-66.6666666666667,4,2,11,50,0,0
39618,-100,4,2,12,50,0,0
45144,-66.6666666666667,4,2,12,50,0,0
45934,-166.666666666667,4,2,11,50,0,0
54618,-142.857142857143,4,2,11,50,0,0
54816,-125,4,2,11,50,0,0
55013,-111.111111111111,4,2,11,50,0,0
55210,-100,4,2,11,50,0,0
55408,-90.9090909090909,4,2,11,50,0,0
58566,-76.9230769230769,4,2,11,50,0,0
58960,-200,4,2,11,50,0,0
59355,-100,4,2,11,50,0,0
59750,-66.6666666666667,4,2,11,50,0,0
60934,-83.3333333333333,4,2,11,50,0,0
61725,-83.3333333333333,4,2,11,60,0,1
64881,-133.333333333333,4,2,11,60,0,1
65276,-83.3333333333333,4,2,11,60,0,1
65671,-133.333333333333,4,2,11,60,0,1
66066,-83.3333333333333,4,2,11,60,0,1
71197,-133.333333333333,4,2,11,60,0,1
71592,-83.3333333333333,4,2,11,60,0,1
71987,-133.333333333333,4,2,11,60,0,1
72381,-66.6666666666667,4,2,11,60,0,1
73566,-100,4,2,11,60,0,1
74357,-83.3333333333333,4,2,11,60,0,0
75144,-90.9090909090909,4,2,11,60,0,0
77118,-71.4285714285714,4,2,11,60,0,0
77513,-83.3333333333333,4,2,11,60,0,0
78303,-90.9090909090909,4,2,11,60,0,0
80276,-71.4285714285714,4,2,11,60,0,0
80671,-83.3333333333333,4,2,11,60,0,0
81461,-90.9090909090909,4,2,11,60,0,0
83434,-71.4285714285714,4,2,11,60,0,0
83829,-83.3333333333333,4,2,11,60,0,0
84619,-90.9090909090909,4,2,11,60,0,0
86592,-71.4285714285714,4,2,11,60,0,0
86987,-100,4,2,11,50,0,0
92908,-66.6666666666667,4,2,11,50,0,0
93302,-100,4,2,12,50,0,0
98829,-66.6666666666667,4,2,12,50,0,0
99618,-166.666666666667,4,2,11,50,0,0
108302,-142.857142857143,4,2,11,50,0,0
108500,-125,4,2,11,50,0,0
108697,-111.111111111111,4,2,11,50,0,0
108894,-100,4,2,11,50,0,0
109092,-90.9090909090909,4,2,11,50,0,0
111066,-76.9230769230769,4,2,11,50,0,0
111460,-66.6666666666667,4,2,11,50,0,0
112250,-133.333333333333,4,2,11,50,0,0
112644,-100,4,2,11,50,0,0
113039,-83.3333333333333,4,2,11,50,0,0
113831,-83.3333333333333,4,2,11,60,0,1
116987,-133.333333333333,4,2,11,60,0,1
117381,-83.3333333333333,4,2,11,60,0,1
117777,-100,4,2,11,60,0,1
118171,-83.3333333333333,4,2,11,60,0,1
123302,-133.333333333333,4,2,11,60,0,1
123697,-83.3333333333333,4,2,11,60,0,1
124092,-133.333333333333,4,2,11,60,0,1
124486,-66.6666666666667,4,2,11,60,0,1
126066,-100,4,2,11,60,0,1
126462,-100,4,2,11,50,0,0
132776,-125,4,2,11,40,0,0
137316,-125,4,2,11,50,0,0
139092,-83.3333333333333,4,2,11,60,0,0
145802,-76.9230769230769,4,2,11,60,0,0
146197,-71.4285714285714,4,2,11,60,0,0
146592,-66.6666666666667,4,2,11,60,0,0
148566,-76.9230769230769,4,2,11,60,0,0
150144,-83.3333333333333,4,2,11,60,0,0
150934,-90.9090909090909,4,2,11,50,0,0
154487,-133.333333333333,4,2,11,50,0,0
156066,-71.4285714285714,4,2,11,50,0,0
156460,-66.6666666666667,4,2,11,50,0,0
158041,-83.3333333333333,4,2,11,60,0,1
159618,-71.4285714285714,4,2,11,60,0,1
160408,-83.3333333333333,4,2,11,60,0,1
161197,-100,4,2,11,60,0,1
161592,-71.4285714285714,4,2,11,60,0,1
161987,-100,4,2,11,60,0,1
162382,-71.4285714285714,4,2,11,60,0,1
162776,-100,4,2,11,60,0,1
163171,-62.5,4,2,11,60,0,1
163566,-100,4,2,11,60,0,1
163960,-62.5,4,2,11,60,0,1
164355,-83.3333333333333,4,2,11,60,0,1
167513,-133.333333333333,4,2,11,60,0,1
167908,-83.3333333333333,4,2,11,60,0,1
168302,-133.333333333333,4,2,11,60,0,1
168697,-83.3333333333333,4,2,11,60,0,1
173829,-133.333333333333,4,2,11,60,0,1
174223,-83.3333333333333,4,2,11,60,0,1
174618,-133.333333333333,4,2,11,60,0,1
175012,-66.6666666666667,4,2,11,60,0,1
175410,-76.9230769230769,4,2,11,60,0,1
175607,-76.9230769230769,4,2,11,60,0,0
176989,-71.4285714285714,4,2,11,60,0,1
177186,-71.4285714285714,4,2,11,60,0,0
178568,-66.6666666666667,4,2,11,60,0,1
180146,-83.3333333333333,4,2,11,60,0,0
192778,-100,4,2,12,40,0,0
194160,-100,4,2,11,40,0,0

[Colours]
Combo1 : 0,238,238
Combo2 : 158,138,229
Combo3 : 255,253,208
Combo4 : 238,238,0

[HitObjects]
61,44,1331,5,2,0:0:0:0:
61,44,1725,6,0,P|97:64|116:98,1,56.9999982604981,4|0,0:0|0:0,0:0:0:0:
207,65,1923,2,0,P|198:105|172:134,1,56.9999982604981
94,268,2120,6,0,P|76:230|80:191,1,56.9999982604981,8|0,0:0|0:0,0:0:0:0:
1,168,2318,2,0,P|31:140|70:131,1,56.9999982604981
169,207,2515,6,0,P|215:237|292:243,1,104.500003189087,2|0,0:0|0:0,0:0:0:0:
350,235,2811,1,0,0:0:0:0:
353,226,2909,1,8,0:0:0:0:
470,130,3107,6,0,B|457:6|457:6|436:54,1,156.750004783631,2|0,0:0|0:0,0:0:0:0:
439,50,3502,1,0,0:0:0:0:
286,249,3699,1,8,0:0:0:0:
336,77,3896,1,0,0:0:0:0:
488,239,4094,5,2,0:0:0:0:
359,163,4291,1,2,0:0:0:0:
357,184,4390,1,2,0:0:0:0:
354,203,4489,2,0,P|283:164|200:250,1,199.499993911743,8|0,0:0|0:0,0:0:0:0:
283,248,4883,6,0,B|286:270|286:270|283:285|283:285|288:320,1,56.9999982604981,2|0,0:0|0:0,0:0:0:0:
111,291,5081,2,0,B|114:313|114:313|111:328|111:328|116:363,1,56.9999982604981
199,288,5278,6,0,L|202:212,1,56.9999982604981,8|0,0:0|0:0,0:0:0:0:
31,258,5475,2,0,L|28:182,1,56.9999982604981
15,121,5673,6,0,B|50:117|70:129|70:129|88:142|147:133,1,104.500003189087,2|0,0:0|0:0,0:0:0:0:
195,153,5969,1,0,0:0:0:0:
199,164,6068,1,8,0:0:0:0:
243,24,6265,6,0,P|169:9|99:83,1,156.750004783631,2|0,0:0|0:0,0:0:0:0:
107,70,6660,1,0,0:0:0:0:
270,222,6857,2,0,B|268:191|268:191|272:161|272:161|266:119,1,104.500003189087,8|0,0:0|0:0,0:0:0:0:
360,352,7252,5,2,0:0:0:0:
159,362,7449,1,2,0:0:0:0:
143,338,7548,1,2,0:0:0:0:
133,313,7646,2,0,B|112:250|148:202|189:194|189:194|180:212|180:249|193:273,1,199.499993911743,8|0,0:0|0:0,0:0:0:0:
272,223,8041,6,0,L|347:214,1,56.9999982604981,6|0,0:0|0:0,0:0:0:0:
491,193,8239,2,0,L|435:200,1,56.9999982604981
364,137,8436,6,0,P|328:134|294:120,1,56.9999982604981,8|0,0:0|0:0,0:0:0:0:
326,305,8633,2,0,P|290:308|256:322,1,56.9999982604981
194,186,8831,6,0,P|133:158|69:193,1,104.500003189087,2|0,0:0|0:0,0:0:0:0:
43,221,9127,1,0,0:0:0:0:
39,236,9225,1,8,0:0:0:0:
5,50,9423,6,0,B|50:44|82:66|82:66|112:88|175:71,1,156.750004783631,2|0,0:0|0:0,0:0:0:0:
181,62,9818,1,0,0:0:0:0:
27,141,10015,1,8,0:0:0:0:
132,0,10212,1,0,0:0:0:0:
159,194,10410,5,2,0:0:0:0:
256,78,10607,1,2,0:0:0:0:
274,68,10706,1,2,0:0:0:0:
292,58,10804,2,0,B|306:125|306:125|297:158|297:158|307:190|307:190|291:258,1,199.499993911743,8|0,0:0|0:0,0:0:0:0:
327,318,11199,6,0,P|291:329|256:312,1,56.9999982604981,2|0,0:0|0:0,0:0:0:0:
187,352,11396,2,0,P|156:327|109:328,1,56.9999982604981
117,225,11594,6,0,L|26:233,1,56.9999982604981,8|0,0:0|0:0,0:0:0:0:
1,163,11791,2,0,P|12:99|33:86,1,56.9999982604981
137,35,11989,6,0,P|170:78|161:139,1,104.500003189087,2|0,0:0|0:0,0:0:0:0:
93,143,12285,1,0,0:0:0:0:
79,144,12383,1,8,0:0:0:0:
32,334,12581,6,0,B|21:280|25:242|56:208|56:208|66:255,1,156.750004783631,2|0,0:0|0:0,0:0:0:0:
66,247,12975,1,0,0:0:0:0:
170,326,13173,2,0,B|206:326|206:326|244:337|244:337|272:335,1,104.500003189087,8|0,0:0|0:0,0:0:0:0:
146,227,13568,5,2,0:0:0:0:
361,342,13765,1,2,0:0:0:0:
352,319,13864,1,2,0:0:0:0:
341,301,13962,2,0,P|394:304|330:370,1,199.499993911743,8|0,0:0|0:0,0:0:0:0:
274,248,14357,6,0,P|315:220|382:217,1,95,6|0,0:0|0:0,0:0:0:0:
510,246,14752,1,8,0:0:0:0:
466,103,14949,1,0,0:0:0:0:
359,213,15146,2,0,B|309:206|309:206|269:183|269:183|208:171,1,142.5,2|0,0:0|0:0,0:0:0:0:
211,183,15541,1,8,0:0:0:0:
195,52,15739,1,0,0:0:0:0:
189,66,15837,1,0,0:0:0:0:
181,80,15936,6,0,P|141:105|89:110,1,95,2|0,0:0|0:0,0:0:0:0:
0,194,16331,2,0,P|39:219|91:224,1,95,8|0,0:0|0:0,0:0:0:0:
233,221,16725,5,2,0:0:0:0:
245,212,16923,2,0,L|242:274,1,47.5,8|0,0:0|0:0,0:0:0:0:
345,332,17120,1,8,0:0:0:0:
358,335,17318,2,0,L|352:270,1,47.5,8|0,0:0|0:0,0:0:0:0:
477,150,17515,6,0,B|476:182|476:182|484:213|484:213|483:258,1,95,2|0,0:0|0:0,0:0:0:0:
463,363,17910,1,8,0:0:0:0:
376,181,18107,1,0,0:0:0:0:
259,338,18304,2,0,P|204:299|113:313,1,142.5,2|0,0:0|0:0,0:0:0:0:
119,316,18699,1,8,0:0:0:0:
20,160,18896,1,0,0:0:0:0:
17,174,18995,1,0,0:0:0:0:
14,188,19094,6,0,B|63:198|63:198|134:176,1,95,2|0,0:0|0:0,0:0:0:0:
123,53,19489,2,0,B|172:43|172:43|243:65,1,95,8|0,0:0|0:0,0:0:0:0:
290,188,19883,5,2,0:0:0:0:
287,202,20081,2,0,L|366:197,1,47.5,8|0,0:0|0:0,0:0:0:0:
505,172,20278,2,0,P|436:88|347:146,1,213.750008153916,8|0,0:0|0:0,0:0:0:0:
424,169,20673,6,0,P|425:190|417:231,3,47.5,6|0|0|0,0:0|0:0|0:0|0:0,0:0:0:0:
310,258,21068,2,0,B|309:292|317:308|317:308|327:329|325:363,1,95,8|0,0:0|0:0,0:0:0:0:
204,371,21462,5,6,0:0:0:0:
118,335,21660,5,8,0:0:0:0:
113,343,21759,1,0,0:0:0:0:
113,353,21857,1,8,0:0:0:0:
20,361,22054,5,8,0:0:0:0:
17,332,22152,1,0,0:0:0:0:
27,305,22252,2,0,B|40:288|40:288|48:247,3,47.5,6|0|0|0,0:0|0:0|0:0|0:0,0:0:0:0:
132,222,22646,6,0,B|134:191|134:191|126:161|126:161|136:101,1,95,8|0,0:0|0:0,0:0:0:0:
91,59,22943,1,8,0:0:0:0:
91,59,23041,6,0,P|99:23|90:-1,3,47.5,6|0|0|0,0:0|0:0|0:0|0:0,0:0:0:0:
42,119,23436,2,0,P|92:137|150:116,1,95,8|0,0:0|0:0,0:0:0:0:
264,173,23831,6,0,P|258:195|261:222,3,47.5,6|0|0|0,0:0|0:0|0:0|0:0,0:0:0:0:
305,99,24225,2,0,L|296:-19,1,95,8|0,0:0|0:0,0:0:0:0:
386,135,24620,6,0,P|319:182|236:150,1,142.5,6|0,0:0|0:0,0:0:0:0:
245,150,25015,1,8,0:0:0:0:
101,269,25212,1,8,0:0:0:0:
144,251,25311,1,0,0:0:0:0:
191,257,25410,6,0,P|217:273|255:313,3,47.5,6|0|0|0,0:0|0:0|0:0|0:0,0:0:0:0:
151,342,25804,2,0,P|100:354|68:397,1,95,8|0,0:0|0:0,0:0:0:0:
278,364,26199,1,14,0:0:0:0:
230,284,26396,5,0,0:0:0:0:
191,257,26495,1,0,0:0:0:0:
144,251,26594,1,8,0:0:0:0:
101,269,26693,1,0,0:0:0:0:
71,305,26791,2,0,L|75:231,1,47.5,8|0,0:0|0:0,0:0:0:0:
35,177,26989,6,0,L|25:95,1,56.9999982604981,6|0,0:0|0:0,0:0:0:0:
1,41,27186,2,0,P|28:34|56:39,1,56.9999982604981
130,115,27383,6,0,L|223:110,1,56.9999982604981,8|0,0:0|0:0,0:0:0:0:
175,19,27581,2,0,L|268:14,1,56.9999982604981
314,69,27778,6,0,P|355:46|429:68,1,104.500003189087,2|0,0:0|0:0,0:0:0:0:
454,120,28074,1,0,0:0:0:0:
453,127,28173,1,8,0:0:0:0:
361,245,28370,6,0,B|373:124|373:124|378:162|395:180,1,156.750004783631,2|0,0:0|0:0,0:0:0:0:
390,171,28765,1,0,0:0:0:0:
349,354,28962,1,8,0:0:0:0:
469,290,29160,1,0,0:0:0:0:
282,162,29357,5,2,0:0:0:0:
279,263,29554,1,2,0:0:0:0:
276,284,29653,1,2,0:0:0:0:
263,299,29752,2,0,B|211:305|170:272|170:272|124:239|68:263,1,199.499993911743,8|0,0:0|0:0,0:0:0:0:
110,355,30146,6,0,B|91:352|91:352|72:355|72:355|53:350,1,56.9999982604981,2|0,0:0|0:0,0:0:0:0:
159,168,30344,2,0,B|140:171|140:171|121:168|121:168|102:172,1,56.9999982604981
18,258,30541,6,0,L|108:261,1,56.9999982604981,8|0,0:0|0:0,0:0:0:0:
0,90,30739,2,0,L|90:87,1,56.9999982604981
204,46,30936,6,0,B|236:30|236:30|319:34,1,104.500003189087,2|0,0:0|0:0,0:0:0:0:
358,82,31232,1,0,0:0:0:0:
361,92,31331,1,8,0:0:0:0:
512,160,31528,6,0,B|476:187|476:187|361:178,1,156.750004783631,2|0,0:0|0:0,0:0:0:0:
349,167,31923,1,0,0:0:0:0:
217,100,32120,2,0,P|214:148|231:232,1,104.500003189087,8|0,0:0|0:0,0:0:0:0:
219,381,32515,5,2,0:0:0:0:
36,322,32712,1,2,0:0:0:0:
37,308,32811,1,2,0:0:0:0:
39,292,32910,2,0,P|114:239|182:328,1,199.499993911743,8|0,0:0|0:0,0:0:0:0:
111,314,33304,6,0,B|142:317|142:317|169:311|169:311|204:315,1,95,6|0,0:0|0:0,0:0:0:0:
361,269,33699,1,8,0:0:0:0:
224,190,33896,1,0,0:0:0:0:
405,179,34094,2,0,P|421:99|412:11,1,142.5,2|0,0:0|0:0,0:0:0:0:
406,15,34489,1,8,0:0:0:0:
272,67,34686,1,0,0:0:0:0:
257,67,34785,1,0,0:0:0:0:
242,66,34883,6,0,L|131:59,1,95,2|0,0:0|0:0,0:0:0:0:
14,176,35278,2,0,L|108:181,1,95,8|0,0:0|0:0,0:0:0:0:
251,244,35673,5,2,0:0:0:0:
267,250,35870,2,0,P|271:267|266:321,1,47.5,8|0,0:0|0:0,0:0:0:0:
136,379,36068,1,8,0:0:0:0:
120,373,36265,2,0,P|115:343|118:297,1,47.5,8|0,0:0|0:0,0:0:0:0:
344,240,36462,6,0,P|349:287|344:334,1,95,2|0,0:0|0:0,0:0:0:0:
181,273,36857,1,8,0:0:0:0:
302,150,37054,1,0,0:0:0:0:
153,154,37252,2,0,B|104:158|104:158|59:150|59:150|-1:156,1,142.5,2|0,0:0|0:0,0:0:0:0:
0,164,37646,1,8,0:0:0:0:
118,66,37844,1,0,0:0:0:0:
115,51,37943,1,0,0:0:0:0:
112,37,38041,6,0,P|169:15|240:37,1,95,2|0,0:0|0:0,0:0:0:0:
390,128,38436,2,0,P|333:106|262:128,1,95,8|0,0:0|0:0,0:0:0:0:
216,240,38831,1,2,0:0:0:0:
229,260,39028,2,0,L|306:276,1,47.5,8|0,0:0|0:0,0:0:0:0:
470,235,39225,6,0,B|426:246|383:241|334:198|334:198|357:215|364:233|373:289,1,213.750008153916,8|0,0:0|0:0,0:0:0:0:
275,269,39620,6,0,L|219:281,3,47.5,6|0|0|0,0:0|0:0|0:0|0:0,0:0:0:0:
185,344,40015,2,0,P|131:314|97:308,1,95,8|0,0:0|0:0,0:0:0:0:
10,215,40410,5,6,0:0:0:0:
7,201,40508,1,0,0:0:0:0:
4,186,40607,1,0,0:0:0:0:
1,171,40706,1,0,0:0:0:0:
0,156,40804,2,0,P|44:154|95:125,1,95,8|8,0:0|0:0,0:0:0:0:
289,191,41199,6,0,L|286:243,3,47.5,6|0|0|0,0:0|0:0|0:0|0:0,0:0:0:0:
202,156,41594,2,0,L|205:217,1,47.5,8|0,0:0|0:0,0:0:0:0:
372,208,41791,2,0,L|370:161,1,47.5,8|0,0:0|0:0,0:0:0:0:
307,58,41989,6,0,P|283:58|261:49,3,47.5,6|0|0|0,0:0|0:0|0:0|0:0,0:0:0:0:
385,33,42383,2,0,P|412:5|496:18,1,95,8|0,0:0|0:0,0:0:0:0:
496,147,42778,6,0,L|431:149,3,47.5,6|0|0|0,0:0|0:0|0:0|0:0,0:0:0:0:
384,201,43173,2,0,B|369:229|369:229|379:318,1,95,8|0,0:0|0:0,0:0:0:0:
470,369,43568,6,0,B|436:355|404:368|404:368|371:382|307:357,1,142.5,6|0,0:0|0:0,0:0:0:0:
308,354,43962,1,8,0:0:0:0:
258,261,44160,1,8,0:0:0:0:
256,249,44258,1,0,0:0:0:0:
255,238,44357,6,0,B|206:229|206:229|143:252,1,95,6|0,0:0|0:0,0:0:0:0:
99,299,44653,1,0,0:0:0:0:
104,323,44752,2,0,B|55:332|55:332|-8:309,1,95,8|0,0:0|0:0,0:0:0:0:
0,181,45146,1,2,0:0:0:0:
99,299,45344,6,0,P|81:249|88:211,1,71.2500027179719,8|0,0:0|0:0,0:0:0:0:
163,244,45541,2,0,P|170:208|211:168,1,71.2500027179719,8|0,0:0|0:0,0:0:0:0:
283,160,45739,5,2,0:0:0:0:
325,166,45837,1,2,0:0:0:0:
371,174,45936,6,0,L|368:98,1,56.9999982604981,4|0,0:0|0:0,0:0:0:0:
308,40,46331,1,2,0:0:0:0:
346,18,46429,1,2,0:0:0:0:
390,17,46528,1,2,0:0:0:0:
429,38,46627,1,2,0:0:0:0:
452,75,46725,6,0,P|486:68|523:88,1,56.9999982604981,8|0,0:0|0:0,0:0:0:0:
479,139,47021,1,0,0:0:0:0:
480,147,47120,1,0,0:0:0:0:
441,240,47318,1,2,0:0:0:0:
441,249,47416,1,2,0:0:0:0:
441,258,47515,6,0,L|364:253,1,56.9999982604981,2|0,0:0|0:0,0:0:0:0:
276,315,47910,1,10,0:0:0:0:
237,332,48008,1,2,0:0:0:0:
194,331,48107,1,2,0:0:0:0:
155,348,48205,1,2,0:0:0:0:
113,339,48304,1,2,0:0:0:0:
113,339,48502,6,0,L|109:293,1,28.4999991302491,8|0,0:0|0:0,0:0:0:0:
231,226,48699,2,0,L|227:180,1,28.4999991302491,8|0,0:0|0:0,0:0:0:0:
73,171,48896,1,2,0:0:0:0:
71,160,48995,1,2,0:0:0:0:
67,147,49094,6,0,P|96:135|129:137,1,56.9999982604981,6|0,0:0|0:0,0:0:0:0:
10,90,49489,1,2,0:0:0:0:
45,66,49587,1,2,0:0:0:0:
86,56,49686,1,2,0:0:0:0:
128,57,49785,1,2,0:0:0:0:
167,72,49883,6,0,P|201:89|234:86,1,56.9999982604981,8|0,0:0|0:0,0:0:0:0:
295,55,50179,1,0,0:0:0:0:
297,45,50278,1,0,0:0:0:0:
372,155,50475,1,2,0:0:0:0:
371,146,50574,1,2,0:0:0:0:
370,136,50673,6,0,P|401:120|440:123,1,56.9999982604981,2|0,0:0|0:0,0:0:0:0:
503,188,51068,1,10,0:0:0:0:
512,230,51167,1,2,0:0:0:0:
495,269,51265,1,2,0:0:0:0:
496,312,51364,1,2,0:0:0:0:
479,351,51462,1,2,0:0:0:0:
479,351,51660,6,0,P|466:357|440:359,1,28.4999991302491,8|0,0:0|0:0,0:0:0:0:
364,217,51857,2,0,P|340:212|332:213,1,28.4999991302491,8|0,0:0|0:0,0:0:0:0:
244,296,52054,1,0,0:0:0:0:
240,287,52153,1,0,0:0:0:0:
237,276,52252,6,0,B|232:240,3,28.4999991302491,6|0|0|0,0:0|0:0|0:0|0:0,0:0:0:0:
175,193,52646,1,0,0:0:0:0:
210,169,52745,1,2,0:0:0:0:
252,166,52844,1,2,0:0:0:0:
289,187,52943,1,2,0:0:0:0:
308,224,53041,6,0,P|341:223|369:214,1,56.9999982604981,8|0,0:0|0:0,0:0:0:0:
411,156,53337,1,0,0:0:0:0:
413,146,53436,1,0,0:0:0:0:
319,55,53633,1,2,0:0:0:0:
316,44,53732,1,2,0:0:0:0:
316,32,53831,6,0,L|258:31,1,56.9999982604981,2|0,0:0|0:0,0:0:0:0:
202,118,54225,1,2,0:0:0:0:
159,120,54323,1,2,0:0:0:0:
119,104,54422,1,2,0:0:0:0:
77,107,54520,1,2,0:0:0:0:
40,84,54620,6,0,L|44:146,1,33.2499989852906,2|0,0:0|0:0,0:0:0:0:
128,291,54818,6,0,L|124:248,1,38
30,80,55015,6,0,L|34:149,1,42.7499986953736,8|0,0:0|0:0,0:0:0:0:
118,287,55213,6,0,L|114:238,1,47.5
283,73,55410,6,0,P|238:98|216:144,1,104.500003189087,6|0,0:0|0:0,0:0:0:0:
419,191,55804,2,0,P|375:166|324:173,1,104.500003189087,8|0,0:0|0:0,0:0:0:0:
380,370,56199,2,0,P|379:318|357:272,1,104.500003189087,2|0,0:0|0:0,0:0:0:0:
235,219,56594,5,8,0:0:0:0:
401,196,56791,1,0,0:0:0:0:
318,124,56989,6,0,P|321:93|317:70,1,52.2500015945435,10|0,0:0|0:0,0:0:0:0:
235,219,57186,1,2,0:0:0:0:
299,80,57383,6,0,P|289:36|271:17,1,52.2500015945435,10|0,0:0|0:0,0:0:0:0:
189,225,57581,1,2,0:0:0:0:
269,42,57778,6,0,P|249:9|236:-3,1,52.2500015945435,10|0,0:0|0:0,0:0:0:0:
143,231,57975,1,2,0:0:0:0:
189,225,58074,1,0,0:0:0:0:
235,219,58173,6,0,B|281:209|314:225|314:225|339:220|339:220|366:240|426:230,1,156.750004783631,2|0,0:0|0:0,0:0:0:0:
512,114,58568,6,0,B|471:121|436:115|390:92|390:92|381:114|383:140|411:185,1,185.249991519928,6|0,0:0|0:0,0:0:0:0:
323,203,58962,6,0,P|352:223|393:233,1,71.25,8|0,0:0|0:0,0:0:0:0:
464,283,59357,6,0,B|410:324|350:306,1,95,2|0,0:0|0:0,0:0:0:0:
373,324,59620,1,0,0:0:0:0:
373,336,59686,1,0,0:0:0:0:
373,352,59752,6,0,B|332:340|306:337|283:343|283:343|257:314|219:306,1,142.500005435944,2|0,0:0|0:0,0:0:0:0:
213,381,60048,1,0,0:0:0:0:
135,358,60146,6,0,L|59:368,1,71.2500027179719,10|0,0:0|0:0,0:0:0:0:
9,239,60344,2,0,P|48:227|87:244,1,71.2500027179719,8|0,0:0|0:0,0:0:0:0:
140,126,60541,2,0,P|191:152|226:153,1,71.2500027179719,8|0,0:0|0:0,0:0:0:0:
324,234,60739,2,0,L|326:149,1,71.2500027179719,8|0,0:0|0:0,0:0:0:0:
329,15,60936,5,2,0:0:0:0:
432,178,61133,1,2,0:0:0:0:
432,178,61232,1,2,0:0:0:0:
432,178,61331,2,0,B|429:139|429:139|416:106|416:106|424:30,1,113.999996520996,2|0,0:0|0:0,0:0:0:0:
324,234,61725,6,0,L|199:231,1,113.999996520996,6|0,0:0|0:0,0:0:0:0:
326,108,62120,1,8,0:0:0:0:
317,331,62318,1,0,0:0:0:0:
130,220,62515,5,2,0:0:0:0:
297,185,62712,1,0,0:0:0:0:
110,206,62910,5,8,0:0:0:0:
244,112,63107,1,0,0:0:0:0:
26,241,63304,6,0,P|17:188|34:120,1,113.999996520996,2|0,0:0|0:0,0:0:0:0:
215,27,63699,2,0,L|362:13,1,113.999996520996,8|0,0:0|0:0,0:0:0:0:
408,28,63995,1,0,0:0:0:0:
416,43,64094,5,2,0:0:0:0:
225,104,64291,1,0,0:0:0:0:
417,136,64489,5,8,0:0:0:0:
250,200,64686,1,0,0:0:0:0:
403,221,64883,6,0,B|423:210|423:210|406:293,1,106.875004076958,2|0,0:0|0:0,0:0:0:0:
436,372,65278,6,0,B|382:380|352:353|352:353|323:328|245:344,1,170.999994781494,8|0,0:0|0:0,0:0:0:0:
188,356,65673,6,0,P|197:299|187:281,1,71.2500027179719,2|2,0:0|0:0,0:0:0:0:
120,301,65969,1,2,0:0:0:0:
46,310,66068,6,0,B|32:185|32:185|49:221|90:243,1,170.999994781494,8|0,0:0|0:0,0:0:0:0:
113,157,66462,5,2,0:0:0:0:
341,103,66660,1,0,0:0:0:0:
168,35,66857,1,8,0:0:0:0:
252,242,67054,1,0,0:0:0:0:
412,178,67252,5,2,0:0:0:0:
237,131,67449,1,0,0:0:0:0:
371,268,67646,5,8,0:0:0:0:
245,114,67844,1,0,0:0:0:0:
217,347,68041,6,0,P|171:323|84:318,1,113.999996520996,6|0,0:0|0:0,0:0:0:0:
289,192,68436,1,8,0:0:0:0:
407,365,68633,1,0,0:0:0:0:
460,176,68831,5,2,0:0:0:0:
222,254,69028,1,0,0:0:0:0:
455,197,69225,5,8,0:0:0:0:
268,193,69423,1,0,0:0:0:0:
417,369,69620,6,0,B|418:331|418:331|402:294|402:294|402:241,1,113.999996520996,2|0,0:0|0:0,0:0:0:0:
338,36,70015,2,0,P|309:94|334:156,1,113.999996520996,8|0,0:0|0:0,0:0:0:0:
378,183,70311,1,0,0:0:0:0:
396,176,70410,5,2,0:0:0:0:
357,361,70607,1,0,0:0:0:0:
237,162,70804,1,8,0:0:0:0:
259,365,71002,1,0,0:0:0:0:
159,209,71199,6,0,P|89:166|41:172,1,106.875004076958,2|0,0:0|0:0,0:0:0:0:
1,114,71594,6,0,B|26:86|66:74|120:82|120:82|90:60|81:32,1,170.999994781494,8|0,0:0|0:0,0:0:0:0:
169,12,71989,6,0,B|175:52|175:52|161:82|161:82|169:124,1,106.875004076958,2|0,0:0|0:0,0:0:0:0:
256,97,72383,6,0,P|295:137|394:128,1,142.500005435944,8|0,0:0|0:0,0:0:0:0:
400,74,72679,1,0,0:0:0:0:
421,9,72778,6,0,L|502:17,1,71.2500027179719,10|0,0:0|0:0,0:0:0:0:
512,168,72975,2,0,L|407:179,1,71.2500027179719,8|0,0:0|0:0,0:0:0:0:
353,261,73173,6,0,P|327:248|236:274,1,71.2500027179719,8|0,0:0|0:0,0:0:0:0:
206,307,73370,2,0,P|200:341|207:388,1,71.2500027179719,8|0,0:0|0:0,0:0:0:0:
349,346,73568,5,2,0:0:0:0:
175,233,73765,1,2,0:0:0:0:
125,236,73864,1,2,0:0:0:0:
76,243,73962,2,0,P|61:175|81:81,1,142.5,8|0,0:0|0:0,0:0:0:0:
137,57,74357,6,0,L|208:65,1,56.9999982604981,6|0,0:0|0:0,0:0:0:0:
328,25,74554,2,0,L|271:31,1,56.9999982604981
150,135,74752,6,0,L|221:143,1,56.9999982604981,8|0,0:0|0:0,0:0:0:0:
340,102,74949,2,0,L|283:108,1,56.9999982604981
175,219,75146,6,0,B|216:223|216:223|246:218|246:218|285:224,1,104.500003189087,2|0,0:0|0:0,0:0:0:0:
343,283,75443,1,0,0:0:0:0:
343,294,75541,1,8,0:0:0:0:
152,274,75739,6,0,P|217:213|304:244,1,156.750004783631,2|0,0:0|0:0,0:0:0:0:
287,230,76133,1,0,0:0:0:0:
316,109,76331,1,8,0:0:0:0:
238,305,76528,1,0,0:0:0:0:
137,156,76725,5,2,0:0:0:0:
229,55,76923,1,2,0:0:0:0:
228,45,77021,1,2,0:0:0:0:
227,34,77120,2,0,B|234:3|265:-7|265:-7|302:3|325:34|336:83|295:160,1,199.499993911743,8|0,0:0|0:0,0:0:0:0:
290,185,77515,6,0,L|347:178,1,56.9999982604981,2|0,0:0|0:0,0:0:0:0:
434,144,77712,2,0,P|441:175|433:212,1,56.9999982604981
395,282,77910,6,0,L|329:274,1,56.9999982604981,8|0,0:0|0:0,0:0:0:0:
338,363,78107,2,0,L|282:372,1,56.9999982604981
209,242,78304,6,0,P|145:243|103:289,1,104.500003189087,2|0,0:0|0:0,0:0:0:0:
88,335,78600,1,0,0:0:0:0:
86,345,78699,1,8,0:0:0:0:
16,207,78896,6,0,B|10:150|10:150|22:110|22:110|16:48,1,156.750004783631,2|0,0:0|0:0,0:0:0:0:
14,34,79291,1,0,0:0:0:0:
125,177,79489,2,0,P|130:236|107:277,1,104.500003189087,8|0,0:0|0:0,0:0:0:0:
12,135,79883,5,2,0:0:0:0:
152,65,80081,1,2,0:0:0:0:
149,54,80179,1,2,0:0:0:0:
150,41,80278,2,0,B|207:54|250:47|288:21|288:21|255:44|248:97,1,199.499993911743,8|0,0:0|0:0,0:0:0:0:
334,85,80673,6,0,L|343:160,1,56.9999982604981,6|0,0:0|0:0,0:0:0:0:
363,289,80871,2,0,L|356:233,1,56.9999982604981
436,115,81068,6,0,P|427:142|426:170,1,56.9999982604981,8|0,0:0|0:0,0:0:0:0:
241,174,81265,2,0,P|257:201|258:229,1,56.9999982604981
326,370,81462,6,0,P|266:324|217:322,1,104.500003189087,2|0,0:0|0:0,0:0:0:0:
169,349,81758,1,0,0:0:0:0:
163,358,81857,1,8,0:0:0:0:
108,200,82054,6,0,B|153:194|185:216|185:216|215:238|278:221,1,156.750004783631,2|0,0:0|0:0,0:0:0:0:
284,212,82449,1,0,0:0:0:0:
130,291,82646,1,8,0:0:0:0:
231,149,82843,1,0,0:0:0:0:
33,74,83041,5,2,0:0:0:0:
174,58,83239,1,2,0:0:0:0:
172,73,83337,1,2,0:0:0:0:
169,86,83436,2,0,P|92:154|16:106,1,199.499993911743,8|0,0:0|0:0,0:0:0:0:
33,74,83831,6,0,L|111:81,1,56.9999982604981,2|0,0:0|0:0,0:0:0:0:
96,246,84028,2,0,L|39:251,1,56.9999982604981
166,170,84225,6,0,B|190:170|190:170|203:165|203:165|244:166,1,56.9999982604981,8|0,0:0|0:0,0:0:0:0:
237,332,84423,2,0,B|218:333|218:333|205:328|205:328|181:328,1,56.9999982604981
96,246,84620,6,0,L|233:259,1,104.500003189087,2|0,0:0|0:0,0:0:0:0:
271,262,84916,1,0,0:0:0:0:
282,263,85015,1,8,0:0:0:0:
467,264,85212,6,0,P|415:264|358:367,1,156.750004783631,2|0,0:0|0:0,0:0:0:0:
362,361,85607,1,0,0:0:0:0:
294,238,85804,1,8,0:0:0:0:
297,222,85903,1,0,0:0:0:0:
293,206,86002,1,2,0:0:0:0:
183,107,86199,5,2,0:0:0:0:
199,198,86396,1,2,0:0:0:0:
195,237,86495,1,2,0:0:0:0:
178,264,86594,6,0,B|152:232|108:212|46:217|46:217|83:233|116:306,1,199.499993911743,8|0,0:0|0:0,0:0:0:0:
12,291,86989,6,0,B|17:322|17:322|9:352|9:352|16:400,1,95,6|0,0:0|0:0,0:0:0:0:
170,355,87383,1,8,0:0:0:0:
85,252,87581,1,0,0:0:0:0:
244,250,87778,6,0,P|264:193|277:95,1,142.5,2|0,0:0|0:0,0:0:0:0:
272,96,88173,1,8,0:0:0:0:
178,25,88370,1,0,0:0:0:0:
163,27,88469,1,0,0:0:0:0:
149,30,88568,6,0,L|32:46,1,95,2|0,0:0|0:0,0:0:0:0:
8,175,88962,2,0,P|61:175|118:233,1,95,8|0,0:0|0:0,0:0:0:0:
171,309,89357,5,2,0:0:0:0:
267,361,89554,1,0,0:0:0:0:
267,361,89653,1,0,0:0:0:0:
267,361,89752,2,0,B|293:369|293:369|330:364,1,47.5,8|0,0:0|0:0,0:0:0:0:
289,248,89949,2,0,B|310:241|310:241|335:242,1,47.5,8|0,0:0|0:0,0:0:0:0:
420,305,90146,6,0,P|471:302|529:334,1,95,2|0,0:0|0:0,0:0:0:0:
512,110,90541,1,8,0:0:0:0:
422,224,90739,1,0,0:0:0:0:
332,61,90936,6,0,B|294:74|261:63|261:63|226:48|172:63,1,142.5,2|0,0:0|0:0,0:0:0:0:
183,69,91331,1,8,0:0:0:0:
240,170,91528,1,0,0:0:0:0:
252,163,91627,1,0,0:0:0:0:
265,160,91725,6,0,P|321:180|345:221,1,95,2|0,0:0|0:0,0:0:0:0:
259,282,92120,2,0,P|261:335|240:377,1,95,8|0,0:0|0:0,0:0:0:0:
106,336,92515,5,2,0:0:0:0:
93,324,92712,2,0,L|98:264,1,47.5,8|0,0:0|0:0,0:0:0:0:
56,194,92910,2,0,B|83:178|122:180|157:204|157:204|197:200,1,142.500005435944,8|0,0:0|0:0,0:0:0:0:
247,148,93206,1,0,0:0:0:0:
253,156,93304,6,0,P|264:176|264:208,3,47.5,6|0|0|0,0:0|0:0|0:0|0:0,0:0:0:0:
261,280,93699,2,0,B|296:274|296:274|319:262|319:262|353:255,1,95,8|0,0:0|0:0,0:0:0:0:
469,312,94094,6,0,L|401:309,3,47.5,6|0|0|0,0:0|0:0|0:0|0:0,0:0:0:0:
351,254,94489,2,0,P|337:304|348:348,1,95,8|8,0:0|0:0,0:0:0:0:
408,199,94883,6,0,L|471:192,1,47.5,6|0,0:0|0:0,0:0:0:0:
383,117,95081,2,0,L|446:110,1,47.5,8|0,0:0|0:0,0:0:0:0:
417,31,95278,2,0,L|317:25,1,95,8|0,0:0|0:0,0:0:0:0:
164,11,95673,6,0,B|158:36|158:36|162:70,1,47.5,6|0,0:0|0:0,0:0:0:0:
318,71,95870,2,0,B|324:46|324:46|320:12,1,47.5,8|0,0:0|0:0,0:0:0:0:
244,41,96068,1,8,0:0:0:0:
241,137,96265,1,8,0:0:0:0:
239,151,96364,1,0,0:0:0:0:
238,165,96462,6,0,L|242:218,3,47.5,6|0|0|0,0:0|0:0|0:0|0:0,0:0:0:0:
192,286,96857,2,0,P|257:298|297:277,1,95,8|0,0:0|0:0,0:0:0:0:
453,228,97252,2,0,B|349:200|349:200|372:212|383:247,1,142.5,6|0,0:0|0:0,0:0:0:0:
381,236,97646,1,8,0:0:0:0:
281,318,97844,1,8,0:0:0:0:
281,303,97943,1,0,0:0:0:0:
282,288,98041,6,0,P|227:269|172:282,1,95,6|0,0:0|0:0,0:0:0:0:
99,307,98337,1,0,0:0:0:0:
94,321,98436,2,0,P|49:332|-7:334,1,95,8|0,0:0|0:0,0:0:0:0:
35,136,98831,5,6,0:0:0:0:
99,307,99028,6,0,B|104:273|104:273|92:230,1,71.2500027179719,8|0,0:0|0:0,0:0:0:0:
35,136,99225,2,0,B|30:102|30:102|42:59,1,71.2500027179719,8|0,0:0|0:0,0:0:0:0:
154,148,99423,5,2,0:0:0:0:
195,154,99521,1,2,0:0:0:0:
235,147,99620,6,0,P|269:132|304:128,1,56.9999982604981,6|0,0:0|0:0,0:0:0:0:
341,69,100015,1,2,0:0:0:0:
363,107,100113,1,2,0:0:0:0:
364,151,100212,1,2,0:0:0:0:
343,190,100311,1,2,0:0:0:0:
306,213,100409,6,0,P|295:233|293:284,1,56.9999982604981,8|0,0:0|0:0,0:0:0:0:
343,320,100706,1,0,0:0:0:0:
352,319,100804,1,0,0:0:0:0:
231,355,101002,1,2,0:0:0:0:
222,354,101100,1,2,0:0:0:0:
212,350,101199,6,0,L|136:359,1,56.9999982604981,2|0,0:0|0:0,0:0:0:0:
10,381,101594,1,10,0:0:0:0:
7,338,101692,1,2,0:0:0:0:
23,298,101791,1,2,0:0:0:0:
20,256,101889,1,2,0:0:0:0:
43,219,101988,1,2,0:0:0:0:
43,219,102186,6,0,L|89:226,1,28.4999991302491,8|0,0:0|0:0,0:0:0:0:
0,56,102383,2,0,L|30:58,1,28.4999991302491,8|0,0:0|0:0,0:0:0:0:
145,34,102581,1,2,0:0:0:0:
144,43,102679,1,2,0:0:0:0:
143,53,102778,6,0,L|136:124,1,56.9999982604981,6|0,0:0|0:0,0:0:0:0:
224,181,103173,1,2,0:0:0:0:
226,138,103271,1,2,0:0:0:0:
228,95,103370,1,2,0:0:0:0:
231,52,103469,1,2,0:0:0:0:
234,9,103568,6,0,P|273:31|297:30,1,56.9999982604981
358,17,103864,1,0,0:0:0:0:
365,11,103962,1,0,0:0:0:0:
351,125,104160,1,2,0:0:0:0:
344,131,104258,1,2,0:0:0:0:
339,141,104357,6,0,P|365:126|412:119,1,56.9999982604981,2|0,0:0|0:0,0:0:0:0:
444,236,104752,1,10,0:0:0:0:
401,239,104850,1,2,0:0:0:0:
361,223,104949,1,2,0:0:0:0:
319,226,105047,1,2,0:0:0:0:
282,203,105146,1,2,0:0:0:0:
282,203,105344,6,0,L|287:248,1,28.4999991302491,8|0,0:0|0:0,0:0:0:0:
207,368,105541,2,0,L|202:323,1,28.4999991302491,8|0,0:0|0:0,0:0:0:0:
105,217,105739,1,2,0:0:0:0:
95,218,105837,1,2,0:0:0:0:
84,219,105936,6,0,L|47:223,3,28.4999991302491,6|0|0|0,0:0|0:0|0:0|0:0,0:0:0:0:
62,83,106331,1,2,0:0:0:0:
22,98,106429,1,2,0:0:0:0:
2,136,106528,1,2,0:0:0:0:
6,178,106627,1,2,0:0:0:0:
28,213,106725,6,0,L|91:220,1,56.9999982604981,8|0,0:0|0:0,0:0:0:0:
95,218,107021,1,0,0:0:0:0:
105,217,107119,1,0,0:0:0:0:
195,142,107318,1,2,0:0:0:0:
205,143,107416,1,2,0:0:0:0:
218,146,107515,6,0,P|224:190|223:216,1,56.9999982604981,2|0,0:0|0:0,0:0:0:0:
208,319,107910,1,10,0:0:0:0:
251,322,108008,1,2,0:0:0:0:
291,306,108107,1,2,0:0:0:0:
333,309,108205,1,2,0:0:0:0:
370,286,108304,6,0,P|366:255|373:229,1,33.2499989852906,2|0,0:0|0:0,0:0:0:0:
407,124,108502,6,0,P|413:105|427:87,1,38
370,286,108699,6,0,P|354:250|353:234,1,42.7499986953736,8|0,0:0|0:0,0:0:0:0:
376,95,108896,6,0,P|383:65|393:45,1,47.5
248,27,109094,6,0,L|140:41,1,104.500003189087,2|0,0:0|0:0,0:0:0:0:
16,188,109489,2,0,L|119:174,1,104.500003189087,8|0,0:0|0:0,0:0:0:0:
288,300,109883,2,0,L|180:314,1,104.500003189087,2|0,0:0|0:0,0:0:0:0:
328,141,110278,1,8,0:0:0:0:
499,199,110475,1,0,0:0:0:0:
380,316,110673,6,0,L|360:237,1,52.2500015945435,10|0,0:0|0:0,0:0:0:0:
328,141,110870,1,2,0:0:0:0:
409,333,111068,6,0,P|380:301|366:272,1,61.7499971733095,10|0,0:0|0:0,0:0:0:0:
317,102,111265,1,2,0:0:0:0:
362,375,111462,6,0,B|375:350|375:350|379:299,1,71.2500027179719,10|0,0:0|0:0,0:0:0:0:
307,61,111660,1,2,0:0:0:0:
317,102,111758,1,0,0:0:0:0:
328,141,111857,6,0,P|242:105|188:109,1,142.500005435944,8|0,0:0|0:0,0:0:0:0:
55,208,112252,6,0,B|34:234|14:249|-12:250|-12:250|15:234|25:208,1,106.875004076958,2|0,0:0|0:0,0:0:0:0:
23,96,112646,6,0,B|4:132|16:171|16:171|22:208|7:234,1,142.5,8|0,0:0|0:0,0:0:0:0:
120,135,113041,6,0,P|176:136|220:171,1,113.999996520996,2|2,0:0|0:0,0:0:0:0:
232,240,113337,1,2,0:0:0:0:
243,310,113436,2,0,B|286:303|286:303|314:283|314:283|373:272,1,113.999996520996,10|0,0:0|0:0,0:0:0:0:
487,81,113831,6,0,P|431:82|387:117,1,113.999996520996,6|0,0:0|0:0,0:0:0:0:
422,356,114225,1,8,0:0:0:0:
465,171,114423,1,0,0:0:0:0:
268,191,114620,5,2,0:0:0:0:
441,253,114818,1,0,0:0:0:0:
195,230,115015,5,8,0:0:0:0:
415,227,115212,1,0,0:0:0:0:
239,356,115410,6,0,B|186:375|186:375|88:353,1,113.999996520996,2|0,0:0|0:0,0:0:0:0:
16,154,115804,2,0,B|70:134|70:134|129:151,1,113.999996520996,8|0,0:0|0:0,0:0:0:0:
123,222,116100,1,0,0:0:0:0:
123,233,116199,5,2,0:0:0:0:
281,66,116396,1,0,0:0:0:0:
242,291,116594,5,8,0:0:0:0:
124,149,116791,1,0,0:0:0:0:
121,377,116989,6,0,B|136:354|161:347|180:350|180:350|196:361|227:372,1,106.875004076958,2|0,0:0|0:0,0:0:0:0:
392,318,117383,6,0,B|354:311|339:300|322:273|322:273|299:294|278:299|206:285,1,170.999994781494,8|0,0:0|0:0,0:0:0:0:
102,256,117778,6,0,B|88:269|88:269|203:284,1,95,2|2,0:0|0:0,0:0:0:0:
242,291,118074,1,2,0:0:0:0:
270,215,118173,6,0,P|309:166|425:185,1,170.999994781494,8|0,0:0|0:0,0:0:0:0:
488,241,118568,5,2,0:0:0:0:
414,25,118765,1,0,0:0:0:0:
357,241,118962,1,8,0:0:0:0:
511,58,119160,1,0,0:0:0:0:
270,73,119357,5,2,0:0:0:0:
464,125,119554,1,0,0:0:0:0:
190,112,119752,5,8,0:0:0:0:
437,107,119949,1,0,0:0:0:0:
174,230,120146,6,0,L|41:225,1,113.999996520996,6|0,0:0|0:0,0:0:0:0:
172,96,120541,1,8,0:0:0:0:
226,326,120739,1,0,0:0:0:0:
64,297,120936,5,2,0:0:0:0:
223,164,121133,1,0,0:0:0:0:
99,379,121331,5,8,0:0:0:0:
233,192,121528,1,0,0:0:0:0:
28,138,121725,6,0,P|98:137|138:161,1,113.999996520996,2|0,0:0|0:0,0:0:0:0:
192,370,122120,2,0,P|262:371|302:347,1,113.999996520996,8|0,0:0|0:0,0:0:0:0:
321,281,122416,1,0,0:0:0:0:
324,264,122515,5,2,0:0:0:0:
512,381,122712,1,0,0:0:0:0:
491,201,122910,5,8,0:0:0:0:
399,328,123107,1,0,0:0:0:0:
377,188,123304,6,0,B|368:151|368:151|378:123|378:123|367:75,1,106.875004076958,2|0,0:0|0:0,0:0:0:0:
414,10,123699,6,0,B|365:-8|326:13|326:13|286:33|231:14,1,170.999994781494,8|0,0:0|0:0,0:0:0:0:
172,149,124094,6,0,P|196:120|267:108,1,106.875004076958,2|0,0:0|0:0,0:0:0:0:
360,201,124489,6,0,B|201:218|201:218|244:199|275:144,1,213.750008153916,8|0,0:0|0:0,0:0:0:0:
190,98,124883,6,0,L|285:109,1,71.2500027179719,10|0,0:0|0:0,0:0:0:0:
236,285,125081,2,0,L|166:294,1,71.2500027179719,8|0,0:0|0:0,0:0:0:0:
359,200,125278,6,0,P|403:193|459:218,1,71.2500027179719,8|0,0:0|0:0,0:0:0:0:
399,361,125475,2,0,B|388:327|388:327|397:281,1,71.2500027179719,8|0,0:0|0:0,0:0:0:0:
472,114,125673,5,2,0:0:0:0:
399,361,125870,1,2,0:0:0:0:
389,330,125969,1,2,0:0:0:0:
394,292,126068,2,0,L|512:284,1,95,8|0,0:0|0:0,0:0:0:0:
145,225,126462,5,2,0:0:0:0:
121,47,132778,6,0,P|113:91|117:143,1,76,2|0,0:0|0:0,0:0:0:0:
194,196,133173,2,0,P|201:240|198:292,1,76
127,348,133568,1,2,0:0:0:0:
52,265,133864,1,0,0:0:0:0:
38,261,133962,1,2,0:0:0:0:
127,348,134160,6,0,P|166:318|285:320,1,152,2|0,0:0|0:0,0:0:0:0:
374,362,134752,2,0,L|455:355,1,76
420,266,135146,1,2,0:0:0:0:
388,180,135344,1,0,0:0:0:0:
395,179,135443,1,0,0:0:0:0:
402,179,135541,2,0,L|491:172,1,76,2|0,0:0|0:0,0:0:0:0:
369,60,135936,6,0,P|309:63|276:42,1,76,2|0,0:0|0:0,0:0:0:0:
261,157,136331,2,0,P|217:123|203:96,1,76
204,228,136725,1,2,0:0:0:0:
135,60,137021,1,0,0:0:0:0:
135,73,137119,1,2,0:0:0:0:
204,228,137318,6,0,B|256:258|307:235|307:235|369:210|426:245|426:245|424:292|392:323|335:309,1,342,8|0,0:0|0:0,0:0:0:0:
204,228,138304,5,0,0:0:0:0:
230,238,138402,1,0,0:0:0:0:
258,242,138501,1,0,0:0:0:0:
286,238,138600,1,0,0:0:0:0:
313,229,138698,1,8,0:0:0:0:
341,222,138797,1,8,0:0:0:0:
369,222,138896,1,8,0:0:0:0:
397,228,138994,1,8,0:0:0:0:
422,240,139094,6,0,L|416:313,1,56.9999982604981,6|0,0:0|0:0,0:0:0:0:
509,326,139291,2,0,L|513:258,1,56.9999982604981
493,112,139489,6,0,L|487:185,1,56.9999982604981,8|0,0:0|0:0,0:0:0:0:
402,130,139686,2,0,L|406:62,1,56.9999982604981
284,44,139883,6,0,P|221:28|157:51,1,113.999996520996,2|0,0:0|0:0,0:0:0:0:
19,191,140278,2,0,P|81:201|157:173,1,113.999996520996,8|0,0:0|0:0,0:0:0:0:
306,168,140673,5,2,0:0:0:0:
174,40,140870,1,0,0:0:0:0:
375,0,141068,2,0,P|391:46|372:127,1,113.999996520996,8|0,0:0|0:0,0:0:0:0:
326,165,141364,1,2,0:0:0:0:
306,168,141462,6,0,L|316:301,1,113.999996520996,2|0,0:0|0:0,0:0:0:0:
478,150,141857,1,8,0:0:0:0:
435,350,142054,1,0,0:0:0:0:
230,228,142252,6,0,P|162:200|93:219,1,113.999996520996,2|0,0:0|0:0,0:0:0:0:
302,349,142646,1,8,0:0:0:0:
258,121,142844,1,0,0:0:0:0:
92,289,143041,5,2,0:0:0:0:
56,265,143139,1,0,0:0:0:0:
35,228,143238,1,2,0:0:0:0:
33,186,143337,1,2,0:0:0:0:
50,147,143436,2,0,L|125:157,1,56.9999982604981,8|0,0:0|0:0,0:0:0:0:
56,45,143633,2,0,L|131:55,1,56.9999982604981,8|0,0:0|0:0,0:0:0:0:
239,119,143831,6,0,B|275:121|298:108|314:86|314:86|336:106|370:120|420:105,1,170.999994781494,2|0,0:0|0:0,0:0:0:0:
379,18,144225,2,0,B|411:23|411:23|430:38,1,56.9999982604981,8|0,0:0|0:0,0:0:0:0:
479,134,144423,2,0,L|471:223,1,56.9999982604981,2|0,0:0|0:0,0:0:0:0:
512,270,144620,6,0,B|469:292|428:271|428:271|386:246|316:276,1,170.999994781494,2|0,0:0|0:0,0:0:0:0:
260,328,145015,2,0,L|200:340,1,56.9999982604981,8|0,0:0|0:0,0:0:0:0:
205,203,145212,2,0,L|297:226,1,56.9999982604981,8|0,0:0|0:0,0:0:0:0:
337,286,145410,5,2,0:0:0:0:
343,276,145508,1,0,0:0:0:0:
347,265,145607,2,0,P|356:237|355:203,1,56.9999982604981
466,186,145804,5,8,0:0:0:0:
468,167,145902,1,0,0:0:0:0:
465,148,146001,2,0,P|456:121|431:84,1,61.7499971733095,2|0,0:0|0:0,0:0:0:0:
364,17,146199,5,2,0:0:0:0:
337,20,146298,1,0,0:0:0:0:
310,22,146396,2,0,L|229:30,1,66.4999979705811
262,167,146594,5,8,0:0:0:0:
226,162,146693,1,0,0:0:0:0:
190,158,146791,2,0,L|103:147,1,71.2500027179719,2|0,0:0|0:0,0:0:0:0:
0,198,146989,6,0,P|46:237|129:214,1,142.500005435944,6|0,0:0|0:0,0:0:0:0:
244,314,147285,1,0,0:0:0:0:
253,307,147383,2,0,B|250:281|250:281|255:261|255:261|253:230,1,71.2500027179719,8|0,0:0|0:0,0:0:0:0:
120,150,147581,2,0,B|117:175|117:175|122:196|122:196|120:227,1,71.2500027179719
288,155,147778,6,0,P|253:147|219:155,1,71.2500027179719,2|0,0:0|0:0,0:0:0:0:
85,306,147975,2,0,P|120:315|154:307,1,71.2500027179719
356,211,148173,6,0,P|391:177|501:193,1,142.500005435944,8|0,0:0|0:0,0:0:0:0:
318,295,148568,5,2,0:0:0:0:
262,101,148765,1,0,0:0:0:0:
397,306,148962,1,8,0:0:0:0:
376,347,149060,1,0,0:0:0:0:
338,373,149159,1,0,0:0:0:0:
293,375,149258,1,0,0:0:0:0:
252,354,149357,6,0,P|176:329|120:333,1,123.499994346619,2|0,0:0|0:0,0:0:0:0:
0,164,149752,2,0,L|131:153,1,123.499994346619,8|0,0:0|0:0,0:0:0:0:
329,79,150146,6,0,P|260:42|152:85,1,170.999994781494,2|0,0:0|0:0,0:0:0:0:
123,153,150541,2,0,L|128:210,2,56.9999982604981,8|0|0,0:0|0:0|0:0,0:0:0:0:
22,43,150936,5,2,0:0:0:0:
53,242,151133,1,2,0:0:0:0:
54,250,151232,1,2,0:0:0:0:
56,257,151331,2,0,P|107:289|204:251,1,156.750004783631,8|0,0:0|0:0,0:0:0:0:
263,205,151725,1,2,0:0:0:0:
384,145,154291,5,2,0:0:0:0:
381,124,154390,1,2,0:0:0:0:
378,103,154489,2,0,L|271:98,1,106.875004076958,10|0,0:0|0:0,0:0:0:0:
187,76,154883,6,0,P|159:140|207:215,1,142.500005435944
311,321,155673,2,0,P|330:260|319:234,1,71.2500027179719,0|2,0:0|0:0,0:0:0:0:
251,237,155969,1,2,0:0:0:0:
176,218,156068,6,0,P|148:134|232:25,1,199.499993911743,10|0,0:0|0:0,0:0:0:0:
326,66,156462,6,0,L|419:73,1,71.2500027179719,10|0,0:0|0:0,0:0:0:0:
176,218,156660,2,0,L|102:211,1,71.2500027179719,8|0,0:0|0:0,0:0:0:0:
362,159,156857,6,0,L|455:166,1,71.2500027179719,8|0,0:0|0:0,0:0:0:0:
139,296,157055,2,0,L|65:289,1,71.2500027179719,8|0,0:0|0:0,0:0:0:0:
351,297,157252,5,2,0:0:0:0:
157,8,157449,1,0,0:0:0:0:
176,218,157646,5,0,0:0:0:0:
326,66,157844,1,0,0:0:0:0:
324,303,158041,6,0,L|437:293,1,113.999996520996,6|0,0:0|0:0,0:0:0:0:
374,155,158436,1,8,0:0:0:0:
250,344,158633,1,0,0:0:0:0:
481,365,158831,5,2,0:0:0:0:
326,237,159028,1,0,0:0:0:0:
512,348,159225,5,8,0:0:0:0:
242,264,159423,1,0,0:0:0:0:
466,175,159620,6,0,B|481:45|481:45|447:34|389:57,1,199.499993911743,6|0,0:0|0:0,0:0:0:0:
394,138,160015,6,0,B|357:135|332:98|332:98|314:71|275:68,1,132.999995941162,8|0,0:0|0:0,0:0:0:0:
260,151,160311,5,2,0:0:0:0:
234,153,160410,2,0,B|144:146|144:146|174:181,1,113.999996520996,2|0,0:0|0:0,0:0:0:0:
302,250,160804,1,8,0:0:0:0:
173,72,161002,1,0,0:0:0:0:
27,281,161199,6,0,B|75:268|102:288|102:288|131:308|206:291,1,142.5,6|0,0:0|0:0,0:0:0:0:
148,214,161594,6,0,B|177:70|177:70|158:109|102:120,1,199.499993911743,8|0,0:0|0:0,0:0:0:0:
106,25,161989,6,0,B|154:12|181:32|181:32|210:52|285:35,1,142.5,2|0,0:0|0:0,0:0:0:0:
327,76,162384,6,0,B|330:94|291:113|291:113|435:84,1,199.499993911743,8|0,0:0|0:0,0:0:0:0:
374,175,162778,6,0,P|362:229|394:185,1,142.5,6|0,0:0|0:0,0:0:0:0:
409,301,163173,6,8,B|438:290|455:268|455:268|512:309|512:309|487:346|459:368|404:375,1,228,8|0,0:0|0:0,0:0:0:0:
328,352,163568,6,0,B|331:319|331:319|323:296|323:296|330:222,1,95,2|2,0:0|0:0,0:0:0:0:
253,262,163864,1,2,0:0:0:0:
183,266,163962,6,0,B|169:143|169:143|196:114|238:109|286:129,1,228,8|0,0:0|0:0,0:0:0:0:
439,167,164357,6,0,P|385:194|315:187,1,113.999996520996,6|0,0:0|0:0,0:0:0:0:
476,13,164752,1,8,0:0:0:0:
483,249,164949,1,0,0:0:0:0:
302,69,165146,5,2,0:0:0:0:
505,93,165344,1,0,0:0:0:0:
287,87,165541,5,8,0:0:0:0:
512,172,165739,1,0,0:0:0:0:
260,228,165936,6,0,L|122:221,1,113.999996520996,2|0,0:0|0:0,0:0:0:0:
0,62,166331,2,0,L|138:55,1,113.999996520996,8|0,0:0|0:0,0:0:0:0:
181,26,166627,1,0,0:0:0:0:
187,16,166725,5,2,0:0:0:0:
146,222,166923,1,0,0:0:0:0:
282,42,167120,5,8,0:0:0:0:
266,226,167318,1,0,0:0:0:0:
399,69,167515,6,0,B|410:50|410:50|398:154,1,106.875004076958,2|0,0:0|0:0,0:0:0:0:
377,233,167910,6,0,B|415:241|456:225|480:182|480:182|481:215|455:255,1,170.999994781494,8|0,0:0|0:0,0:0:0:0:
492,322,168304,6,0,B|453:323|453:323|409:302,1,71.2500027179719,2|2,0:0|0:0,0:0:0:0:
362,342,168600,1,2,0:0:0:0:
300,372,168699,6,0,B|282:335|248:309|195:305|195:305|208:317|221:346,1,170.999994781494,8|0,0:0|0:0,0:0:0:0:
138,370,169094,5,2,0:0:0:0:
129,106,169291,1,0,0:0:0:0:
10,307,169489,1,8,0:0:0:0:
267,233,169686,1,0,0:0:0:0:
2,125,169883,5,2,0:0:0:0:
259,88,170081,1,0,0:0:0:0:
18,138,170278,5,8,0:0:0:0:
206,22,170475,1,0,0:0:0:0:
5,220,170673,6,0,B|43:222|64:211|64:211|87:196|134:201,1,113.999996520996,6|0,0:0|0:0,0:0:0:0:
332,244,171068,1,8,0:0:0:0:
294,66,171265,1,0,0:0:0:0:
213,290,171462,5,2,0:0:0:0:
451,295,171660,1,0,0:0:0:0:
198,267,171857,5,8,0:0:0:0:
396,362,172054,1,0,0:0:0:0:
220,172,172252,6,0,P|207:105|212:47,1,113.999996520996,2|0,0:0|0:0,0:0:0:0:
423,162,172646,2,0,P|424:218|412:274,1,113.999996520996,8|0,0:0|0:0,0:0:0:0:
350,319,172943,1,0,0:0:0:0:
350,336,173041,5,2,0:0:0:0:
220,172,173239,1,0,0:0:0:0:
220,373,173436,5,8,0:0:0:0:
131,184,173633,1,0,0:0:0:0:
30,338,173831,6,0,P|19:330|62:322,1,106.875004076958,2|0,0:0|0:0,0:0:0:0:
140,348,174225,6,0,B|156:305|138:270|138:270|111:229|133:176,1,170.999994781494,8|0,0:0|0:0,0:0:0:0:
193,101,174620,6,0,B|267:90|267:90|309:113,1,106.875004076958,2|0,0:0|0:0,0:0:0:0:
351,40,175015,6,0,P|370:66|347:174,1,142.500005435944,8|2,0:0|0:0,0:0:0:0:
286,196,175311,1,2,0:0:0:0:
220,228,175410,6,0,L|136:222,1,61.7499971733095,10|0,0:0|0:0,0:0:0:0:
0,335,175607,2,0,L|84:341,1,61.7499971733095,8|0,0:0|0:0,0:0:0:0:
220,149,175804,6,0,L|136:143,1,61.7499971733095,8|0,0:0|0:0,0:0:0:0:
0,256,176001,2,0,L|84:262,1,61.7499971733095,8|0,0:0|0:0,0:0:0:0:
252,356,176199,5,2,0:0:0:0:
338,262,176396,1,2,0:0:0:0:
350,275,176495,1,2,0:0:0:0:
362,288,176594,2,0,P|390:205|350:154,1,123.499994346619,8|0,0:0|0:0,0:0:0:0:
309,154,176890,1,0,0:0:0:0:
248,192,176989,6,0,L|160:198,1,66.4999979705811,10|0,0:0|0:0,0:0:0:0:
18,100,177186,2,0,L|104:92,1,66.4999979705811,8|0,0:0|0:0,0:0:0:0:
284,266,177383,6,0,L|196:272,1,66.4999979705811,8|0,0:0|0:0,0:0:0:0:
0,172,177580,2,0,L|86:164,1,66.4999979705811,8|0,0:0|0:0,0:0:0:0:
265,37,177778,5,2,0:0:0:0:
163,144,177975,1,2,0:0:0:0:
148,166,178074,1,2,0:0:0:0:
139,191,178173,2,0,P|135:270|200:339,1,132.999995941162,8|0,0:0|0:0,0:0:0:0:
231,335,178469,1,0,0:0:0:0:
303,356,178568,6,0,L|386:348,1,71.2500027179719,10|0,0:0|0:0,0:0:0:0:
471,89,178765,2,0,L|400:95,1,71.2500027179719,8|0,0:0|0:0,0:0:0:0:
160,341,178962,6,0,L|243:333,1,71.2500027179719,8|0,0:0|0:0,0:0:0:0:
328,74,179159,2,0,L|257:80,1,71.2500027179719,8|0,0:0|0:0,0:0:0:0:
48,192,179357,5,2,0:0:0:0:
224,192,179554,1,2,0:0:0:0:
240,192,179653,1,2,0:0:0:0:
256,192,179752,2,0,B|304:171|339:198|339:198|398:184|398:184|442:216|495:211,1,213.750008153916,8|0,0:0|0:0,0:0:0:0:
469,114,180146,5,2,0:0:0:0:
330,254,192778,6,8,P|372:219|471:212,2,142.5
319,39,193568,2,8,P|272:32|231:10,1,95,8|0,0:0|0:0,0:0:0:0:
92,169,193962,2,8,P|138:161|180:139,1,95
250,184,194258,1,8,0:0:0:0:
256,192,194357,6,0,B|305:189|305:189|333:163|333:163|396:156,2,142.5,8|8|8,0:0|0:0|0:0,0:0:0:0:
125,156,195146,1,2,0:0:0:0:
125,156,195245,1,2,0:0:0:0:
125,156,195344,1,2,0:0:0:0:
256,336,195541,1,2,0:0:0:0:
387,156,195739,1,8,0:0:0:0:
