osu file format v14

[General]
AudioFilename: audio.mp3
AudioLeadIn: 0
PreviewTime: 137434
Countdown: 0
SampleSet: Soft
StackLeniency: 0.3
Mode: 0
LetterboxInBreaks: 0
WidescreenStoryboard: 0

[Editor]
DistanceSpacing: 1.4
BeatDivisor: 4
GridSize: 16
TimelineZoom: 1.4

[Metadata]
Title:Kikoemasu ka
TitleUnicode:聞こえますか
Artist:Kagura Mea
ArtistUnicode:神楽めあ
Creator:Present
Version:Yoshino's Hard
Source:いつだって僕らの恋は10センチだった。
Tags:Japanese Pop ハニワ Itsudatte Bokura no Koi wa 10 cm Datta. 東京ウインターセッション Tokyo Winter Session 告白実行委員会〜恋愛シリーズ〜 Kokuhaku Jikkou Iinkai Renai Series Confession Executive Committee Love honeyworks アニメ anime 挿入歌 insert song ブイフラワ flower ボーカロイド ボカロ Vocaloid オジ Oji 海賊王 Kaizoku Ou ケイキ cake 門脇大輔ストリングス Kadowaki Daisuke Strings kagura mea vtuber -ClariS- Yorita Yoshino StrengeMistake
BeatmapID:2047982
BeatmapSetID:975467

[Difficulty]
HPDrainRate:3.5
CircleSize:3.5
OverallDifficulty:5.5
ApproachRate:7.5
SliderMultiplier:1.4
SliderTickRate:1

[Events]
//Background and Video events
0,0,"mea.jpg",0,0
Video,0,"video.mp4"
//Break Periods
//Storyboard Layer 0 (Background)
//Storyboard Layer 1 (Fail)
//Storyboard Layer 2 (Pass)
//Storyboard Layer 3 (Foreground)
//Storyboard Layer 4 (Overlay)
//Storyboard Sound Samples

[TimingPoints]
487,476.190476190476,3,2,1,25,1,0
487,-125,3,2,1,25,0,0
11915,-100,3,2,1,40,0,0
23225,-100,3,2,1,5,0,0
23344,-125,3,2,1,25,0,0
43225,-125,3,2,1,5,0,0
43344,-125,3,2,1,25,0,0
46082,-125,3,2,1,5,0,0
46201,-100,3,2,1,40,0,1
50844,-100,3,2,1,5,0,1
50963,-100,3,2,1,40,0,1
51320,-100,3,2,1,5,0,1
51439,-100,3,2,1,40,0,1
51796,-100,3,2,1,5,0,1
51915,-100,3,2,1,40,0,1
52611,476.190476190476,3,2,1,40,1,1
53325,476.190476190476,3,2,1,40,1,1
55706,-133.333333333333,3,2,1,40,0,1
56063,-133.333333333333,3,2,1,5,0,1
56182,-90.9090909090909,3,2,1,40,0,1
57551,-90.9090909090909,3,2,1,40,0,0
57610,-90.9090909090909,3,2,1,40,0,1
62253,-90.9090909090909,3,2,1,5,0,1
62372,-90.9090909090909,3,2,1,40,0,1
62729,-90.9090909090909,3,2,1,5,0,1
62848,-90.9090909090909,3,2,1,40,0,1
63206,-90.9090909090909,3,2,1,5,0,1
63325,-90.9090909090909,3,2,1,40,0,1
69039,-111.111111111111,3,2,1,40,0,0
80348,-111.111111111111,3,2,1,5,0,0
80467,-111.111111111111,3,2,1,40,0,0
88920,-111.111111111111,3,2,1,5,0,0
89039,-111.111111111111,3,2,1,40,0,0
90348,-111.111111111111,3,2,1,5,0,0
90467,-111.111111111111,3,2,1,40,0,0
91420,-111.111111111111,3,2,1,5,0,0
91830,476.190476190476,3,2,1,40,1,0
113258,-200,3,2,1,40,0,0
114210,-83.3333333333333,3,2,1,40,0,0
114687,-90.9090909090909,3,2,1,40,0,1
115044,-90.9090909090909,3,2,1,5,0,1
115163,-90.9090909090909,3,2,1,40,0,1
115520,-90.9090909090909,3,2,1,5,0,1
115639,-90.9090909090909,3,2,1,40,0,1
115996,-90.9090909090909,3,2,1,5,0,1
116115,-90.9090909090909,3,2,1,40,0,1
116472,-90.9090909090909,3,2,1,5,0,1
116591,-90.9090909090909,3,2,1,40,0,1
120758,-90.9090909090909,3,2,1,5,0,1
120877,-90.9090909090909,3,2,1,40,0,1
121234,-90.9090909090909,3,2,1,5,0,1
121353,-90.9090909090909,3,2,1,40,0,1
121710,-90.9090909090909,3,2,1,5,0,1
121829,-90.9090909090909,3,2,1,40,0,1
126056,-90.9090909090909,3,2,1,40,0,0
126115,-90.9090909090909,3,2,1,40,0,1
126472,-90.9090909090909,3,2,1,5,0,1
126591,-90.9090909090909,3,2,1,40,0,1
126949,-90.9090909090909,3,2,1,5,0,1
127068,-90.9090909090909,3,2,1,40,0,1
127425,-90.9090909090909,3,2,1,5,0,1
127544,-90.9090909090909,3,2,1,40,0,1
137127,-90.9090909090909,3,2,1,5,0,1
137187,-90.9090909090909,3,2,1,40,0,1
137246,-90.9090909090909,3,2,1,5,0,1
137306,-90.9090909090909,3,2,1,40,0,1
137484,-90.9090909090909,3,2,1,5,0,1
137544,-76.9230769230769,3,2,1,40,0,1
137901,-76.9230769230769,3,2,1,40,0,1
138020,-76.9230769230769,3,2,1,50,0,1
138377,-76.9230769230769,3,2,1,5,0,1
138496,-76.9230769230769,3,2,1,50,0,1
138853,-76.9230769230769,3,2,1,5,0,1
138972,-76.9230769230769,3,2,1,50,0,1
139329,-76.9230769230769,3,2,1,5,0,1
139449,-76.9230769230769,3,2,1,50,0,1
147544,-66.6666666666667,3,2,1,50,0,1
148913,-76.9230769230769,3,2,1,50,0,0
148972,-76.9230769230769,3,2,1,50,0,1
149329,-76.9230769230769,3,2,1,5,0,1
149449,-76.9230769230769,3,2,1,50,0,1
149806,-76.9230769230769,3,2,1,5,0,1
149925,-76.9230769230769,3,2,1,50,0,1
150282,-76.9230769230769,3,2,1,5,0,1
150401,-76.9230769230769,3,2,1,50,0,1
157603,-76.9230769230769,3,2,1,25,0,1
157782,-76.9230769230769,3,2,1,40,0,1
158972,535.714285714286,3,2,1,40,1,0
160578,521.739130434783,3,2,1,40,1,0
161621,444.444444444444,3,2,1,40,1,0
162509,483.870967741935,3,2,1,40,1,0
162995,476.190476190476,3,2,1,40,1,0
163471,506.329113924051,3,2,1,40,1,0
164483,461.538461538462,3,2,1,40,1,0
164944,585.365853658537,3,2,1,40,1,0
166119,502.092050209205,3,2,1,40,1,0
167123,476.190476190476,3,2,1,40,1,0
167599,493.827160493827,3,2,1,40,1,0
168583,550.45871559633,3,2,1,40,1,0
169133,428.571428571429,3,2,1,40,1,0

[Colours]
Combo1 : 255,191,128
Combo2 : 88,191,241

[HitObjects]
88,279,487,6,0,L|102:352,3,56,8|0|0|0,0:0|0:0|0:0|0:0,0:0:0:0:
203,201,1915,2,0,L|217:128,3,56,8|0|0|0,0:0|0:0|0:0|0:0,0:0:0:0:
318,279,3344,2,0,L|332:352,3,56,8|0|0|0,0:0|0:0|0:0|0:0,0:0:0:0:
433,201,4772,2,0,P|464:147|457:84,2,112,4|0|2,0:0|0:0|0:0,0:0:0:0:
365,291,6201,6,0,L|300:284,3,56,8|0|0|0,0:0|0:0|0:0|0:0,0:0:0:0:
150,232,7629,2,0,L|215:225,3,56,8|0|0|0,0:0|0:0|0:0|0:0,0:0:0:0:
365,173,9058,2,0,L|300:166,3,56,8|0|0|0,0:0|0:0|0:0|0:0,0:0:0:0:
309,167,10248,1,0,0:0:0:0:
309,167,10486,2,0,B|328:112|328:112|316:36,2,112,4|0|2,0:0|0:0|0:0,0:0:0:0:
205,259,11915,6,0,P|96:266|174:167,1,280,8|0,0:0|0:0,0:0:0:0:
288,213,13344,2,0,B|306:281|306:281|292:370,2,140,2|0|0,0:0|1:0|0:0,0:0:0:0:
179,129,14772,6,0,P|132:116|91:130,1,70,10|0,0:0|0:0,0:0:0:0:
35,115,15248,2,0,P|47:162|79:190,1,70
93,247,15725,1,0,0:0:0:0:
93,247,16201,6,0,P|120:225|135:193,1,70,0|0,1:0|0:0,0:0:0:0:
179,129,16677,2,0,P|132:116|91:130,1,70,2|0,0:0|0:0,0:0:0:0:
34,115,17153,1,0,0:0:0:0:
34,115,17629,6,0,B|17:193|17:193|38:278,1,140,12|0,0:0|0:0,0:0:0:0:
52,325,18344,1,0,0:0:0:0:
107,271,18582,2,0,P|154:259|191:261,1,70
235,306,19058,2,0,B|295:327|295:327|394:332,2,140,12|0|0,0:0|0:0|0:0,0:0:0:0:
151,179,20486,6,0,P|106:109|227:164,1,350,12|0,0:0|0:0,0:0:0:0:
151,179,21915,6,0,L|150:207,2,17.5,8|0|0,0:0|0:0|0:0,0:0:0:0:
72,286,23344,6,0,P|144:318|189:317,2,112,8|0|0,0:0|0:0|0:0,0:0:0:0:
38,179,24772,2,0,L|62:55,1,112,2|0,0:0|0:0,0:0:0:0:
283,56,26201,6,0,P|338:61|387:88,1,112,8|0,0:0|0:0,0:0:0:0:
387,88,26915,1,0,0:0:0:0:
387,88,27629,2,0,L|373:220,1,112,2|0,0:0|0:0,0:0:0:0:
157,333,29058,6,8,L|151:256,1,56,8|0,0:0|0:0,0:0:0:0:
98,220,29534,2,0,L|92:143,1,56
290,54,30486,2,0,P|307:40|359:36,1,56,8|0,0:0|0:0,0:0:0:0:
395,86,30963,2,0,P|378:100|326:104,1,56
346,275,31915,6,0,L|275:261,1,56,8|0,0:0|0:0,0:0:0:0:
257,334,32391,2,0,L|186:348,1,56
165,275,32867,2,0,L|94:261,1,56
39,297,33344,6,0,P|30:259|39:232,1,56,10|0,0:0|0:0,0:0:0:0:
91,190,33820,2,0,P|100:152|91:125,2,56
72,60,34772,6,0,B|129:44|129:44|188:60,1,112,8|0,0:0|0:0,0:0:0:0:
215,127,35486,1,0,0:0:0:0:
256,60,35725,2,0,B|283:50|283:50|314:60|314:60,1,56
376,17,36201,2,0,P|421:22|470:92,1,112,2|0,0:0|0:0,0:0:0:0:
445,309,37629,6,0,B|466:252|466:252|441:193,1,112,8|0,0:0|0:0,0:0:0:0:
371,229,38344,1,0,0:0:0:0:
296,203,38582,2,0,B|289:237|289:237|301:271,1,56
325,329,39058,2,0,P|264:348|207:327,2,112,2|0|0,0:0|0:0|0:0,0:0:0:0:
279,229,40486,6,0,L|148:246,1,112,8|0,0:0|0:0,0:0:0:0:
16,77,41915,6,0,L|127:91,1,112,8|0,0:0|0:0,0:0:0:0:
192,143,42629,1,0,0:0:0:0:
207,63,42867,2,0,P|257:46|305:54,1,84
256,192,43344,12,0,44296,0:0:0:0:
153,288,44772,5,0,0:0:0:0:
108,230,45010,1,0,0:0:0:0:
149,169,45248,1,0,0:0:0:0:
219,189,45487,1,0,0:0:0:0:
222,262,45725,1,0,0:0:0:0:
153,288,45963,1,2,0:0:0:0:
222,262,46201,6,0,P|295:266|354:297,1,140,12|0,0:0|0:0,0:0:0:0:
418,359,46915,1,0,0:0:0:0:
484,297,47153,2,0,L|477:220,1,70
412,163,47629,2,0,L|418:93,2,70,2|0|0,1:2|0:0|1:2,0:0:0:0:
323,187,48344,1,0,0:0:0:0:
244,141,48582,2,0,P|175:131|161:138,1,70
163,220,49058,6,0,P|232:230|246:223,2,70,10|0|0,0:0|0:0|0:0,0:0:0:0:
89,166,49772,1,0,0:0:0:0:
21,226,50010,2,0,L|28:314,1,70,0|0,1:0|0:0,0:0:0:0:
107,337,50486,6,0,P|163:294|212:292,1,105,10|0,0:0|0:0,0:0:0:0:
194,244,50963,6,0,P|263:234|307:257,1,105
316,207,51439,6,0,P|381:233|407:275,1,105
441,239,51915,6,0,L|433:85,1,140,12|0,0:0|0:0,0:0:0:0:
358,47,52611,1,0,0:0:0:0:
279,92,52848,2,0,P|201:92|183:83,1,70
136,40,53325,2,0,P|58:40|38:105,1,140,8|0,0:0|0:0,0:0:0:0:
125,130,54039,1,0,0:0:0:0:
56,190,54277,2,0,L|63:292,1,70
115,332,54753,6,0,P|149:337|184:333,2,70,2|0|0,1:2|0:0|0:0,0:0:0:0:
152,248,55467,1,0,0:0:0:0:
237,255,55706,6,0,P|262:279|273:344,1,78.7500030040742,2|0,0:0|0:0,0:0:0:0:
270,358,56182,5,12,0:0:0:0:
312,293,56420,1,0,0:0:0:0:
385,270,56658,1,0,1:0:0:0:
456,300,56896,1,0,0:0:0:0:
491,367,57134,1,2,0:0:0:0:
307,286,57610,6,0,L|319:99,1,154.000004699707,12|0,0:0|0:0,0:0:0:0:
384,49,58325,1,0,0:0:0:0:
419,149,58563,2,0,P|374:152|337:142,1,77.0000023498536,0|0,1:0|0:0,0:0:0:0:
266,80,59039,2,0,P|227:68|189:75,2,77.0000023498536,8|0|0,0:0|0:0|0:0,0:0:0:0:
222,170,59753,1,0,0:0:0:0:
126,141,59991,2,0,P|102:111|94:73,1,77.0000023498536
222,170,60467,6,0,L|214:260,2,77.0000023498536,2|0|0,1:2|0:0|0:0,0:0:0:0:
308,220,61182,1,0,0:0:0:0:
310,123,61420,2,0,L|302:33,1,77.0000023498536,2|0,0:0|0:0,0:0:0:0:
400,70,61896,6,0,P|448:94|457:164,1,115.50000352478,10|0,0:0|0:0,0:0:0:0:
430,153,62372,6,0,P|382:177|373:247,1,115.50000352478
406,234,62848,6,0,P|454:258|463:328,1,115.50000352478,2|0,0:0|0:0,0:0:0:0:
442,336,63325,6,0,L|352:342,1,77.0000023498536,12|0,0:0|0:0,0:0:0:0:
316,253,63801,2,0,L|226:259,1,77.0000023498536,0|2,0:0|0:0,0:0:0:0:
194,347,64277,2,0,L|104:353,1,77.0000023498536
56,272,64753,2,0,P|34:191|62:117,2,154.000004699707,8|0|0,0:0|0:0|0:0,0:0:0:0:
56,272,66182,5,8,0:0:0:0:
256,192,66301,12,2,68563,0:0:0:0:
83,103,69039,5,10,0:0:0:0:
62,183,69277,1,0,0:0:0:0:
166,243,69515,1,0,0:0:0:0:
145,163,69753,1,0,0:0:0:0:
249,103,69991,1,0,0:0:0:0:
228,183,70229,1,0,0:0:0:0:
332,243,70467,6,0,B|348:308|348:308|332:384,2,125.999996154785
178,301,71896,2,0,P|124:322|165:224,1,251.999992309571
10,165,73325,2,0,B|-6:100|-6:100|10:24,2,125.999996154785
270,62,74753,5,0,0:0:0:0:
190,46,74991,1,0,0:0:0:0:
248,142,75229,1,0,0:0:0:0:
328,126,75467,1,0,0:0:0:0:
270,222,75706,1,0,0:0:0:0:
190,206,75944,1,0,0:0:0:0:
248,302,76182,6,0,P|318:293|352:247,2,125.999996154785
86,330,77610,1,0,0:0:0:0:
148,179,78087,2,0,P|149:96|54:54,1,188.999994232178
76,134,79039,5,0,0:0:0:0:
256,56,79515,1,0,0:0:0:0:
436,134,79991,1,2,0:0:0:0:
315,245,80467,6,0,P|324:285|318:322,1,62.9999980773926,12|0,0:0|0:0,0:0:0:0:
242,287,80944,2,0,P|229:327|206:356,1,62.9999980773926
158,286,81420,2,0,P|127:314|92:328,1,62.9999980773926
87,244,81896,6,0,L|85:163,1,62.9999980773926,8|0,0:0|0:0,0:0:0:0:
168,199,82372,2,0,L|166:118,1,62.9999980773926
250,239,82848,2,0,L|248:158,1,62.9999980773926
331,194,83325,5,10,0:0:0:0:
488,325,84039,5,0,0:0:0:0:
488,325,84098,2,0,L|488:340,2,15.7499995193482
331,194,84753,2,0,P|344:115|358:92,1,94.499997116089,10|0,0:0|0:0,0:0:0:0:
390,95,85229,2,0,L|473:87,2,62.9999980773926,0|0|2,0:0|0:0|0:0,0:0:0:0:
226,80,86182,5,12,0:0:0:0:
226,80,87610,2,0,L|81:100,2,125.999996154785,12|2|8,0:0|0:0|0:0,0:0:0:0:
256,192,89039,12,0,91420,0:0:0:0:
24,89,91830,6,0,L|21:-8,2,70,8|0|2,0:0|0:0|0:0,0:0:0:0:
32,179,92544,1,0,0:0:0:0:
107,128,92782,2,0,P|159:119|207:127,1,70,0|0,1:0|0:0,0:0:0:0:
225,196,93258,6,0,P|173:205|125:197,2,70,8|0|0,0:0|0:0|1:0,0:0:0:0:
263,113,93972,1,0,0:0:0:0:
320,183,94210,2,0,P|300:256|282:271,1,70,2|0,0:0|0:0,0:0:0:0:
271,335,94687,5,12,0:0:0:0:
361,325,94925,2,0,L|457:314,1,70
275,318,95401,5,8,0:0:0:0:
365,308,95639,2,0,L|461:297,1,70
478,221,96115,5,2,0:0:0:0:
403,170,96353,2,0,L|396:73,1,70,0|0,0:0|1:0,0:0:0:0:
462,229,96830,5,2,0:0:0:0:
387,178,97068,2,0,L|380:81,1,70,0|0,0:0|1:0,0:0:0:0:
341,26,97544,6,0,P|253:85|206:83,1,140,8|0,0:0|0:0,0:0:0:0:
132,69,98258,2,0,L|29:62,2,70,0|2|0,0:0|0:0|0:0,0:0:0:0:
168,152,98972,6,0,B|178:213|178:213|159:300,1,140,8|0,0:0|0:0,0:0:0:0:
70,291,99687,2,0,L|48:380,2,70,0|0|0,0:0|1:0|0:0,0:0:0:0:
161,289,100401,6,0,P|205:281|253:289,1,70,12|0,0:0|0:0,0:0:0:0:
290,351,100877,2,0,P|261:317|244:272,1,70,0|2,1:0|0:0,0:0:0:0:
279,209,101353,2,0,P|263:252|232:289,1,70
241,132,101830,6,0,P|288:123|328:139,1,70,8|0,0:0|0:0,0:0:0:0:
323,134,102187,1,0,0:0:0:0:
337,142,102306,2,0,P|385:147|433:126,1,70,0|2,1:0|0:0,0:0:0:0:
443,62,102782,2,0,P|395:57|347:78,1,70,2|0,0:0|0:0,0:0:0:0:
337,142,103258,6,0,L|350:241,2,70,8|0|0,0:0|0:0|0:0,0:0:0:0:
388,68,103972,1,0,0:0:0:0:
298,53,104210,2,0,P|250:97|243:127,1,70,2|0,0:0|0:0,0:0:0:0:
158,110,104687,6,0,L|171:11,2,70,4|0|2,1:2|0:0|0:2,0:0:0:0:
215,180,105401,1,0,0:0:0:0:
125,197,105639,2,0,P|77:153|70:123,1,70,0|0,1:0|0:0,0:0:0:0:
20,77,106115,6,0,B|-8:145|-8:145|2:230,1,140,8|2,0:0|0:0,0:0:0:0:
25,298,106830,1,0,0:0:0:0:
111,327,107068,2,0,L|208:318,1,70,0|0,1:0|0:0,0:0:0:0:
259,273,107544,6,0,P|270:225|262:185,1,70,12|0,0:0|0:0,0:0:0:0:
264,295,108020,2,0,P|300:329|338:342,1,70,2|0,0:0|0:0,0:0:0:0:
242,288,108496,2,0,P|194:303|164:330,1,70,2|0,0:0|0:0,0:0:0:0:
159,226,108972,6,0,L|161:68,1,140,8|2,0:0|0:0,0:0:0:0:
223,20,109687,1,0,0:0:0:0:
258,104,109925,2,0,L|258:192,1,70,0|0,1:0|0:0,0:0:0:0:
348,163,110401,6,0,L|346:321,1,140,8|0,0:0|0:0,0:0:0:0:
409,369,111116,1,0,0:0:0:0:
441,285,111354,2,0,L|441:197,1,70,2|0,0:0|0:0,0:0:0:0:
348,163,111830,6,0,P|295:177|259:207,1,70,0|0,1:0|0:0,0:0:0:0:
238,116,112306,2,0,P|185:102|149:72,1,70,2|0,0:0|0:0,0:0:0:0:
128,163,112782,2,0,P|75:177|39:207,1,70,0|0,1:0|0:0,0:0:0:0:
29,35,113258,5,2,1:2:0:0:
25,50,113734,5,0,0:0:0:0:
20,65,114210,6,0,L|6:108,3,41.9999987182618,8|8|8|8,0:3|0:3|0:3|0:3,0:0:0:0:
3,121,114687,6,0,L|17:286,1,154.000004699707,12|2,0:0|0:0,0:0:0:0:
48,370,115401,1,0,0:0:0:0:
110,292,115639,2,0,P|167:283|207:284,1,77.0000023498536,0|0,1:0|0:0,0:0:0:0:
245,364,116115,6,0,P|289:379|267:304,1,154.000004699707,8|2,0:0|0:0,0:0:0:0:
252,209,116829,1,0,0:3:0:0:
351,224,117068,2,0,P|344:162|356:125,1,77.0000023498536,0|0,1:0|0:3,0:0:0:0:
424,86,117544,6,0,P|330:115|278:74,1,154.000004699707,8|0,0:0|1:0,0:0:0:0:
212,25,118258,1,0,0:0:0:0:
154,107,118496,2,0,L|61:113,1,77.0000023498536,2|0,0:0|0:0,0:0:0:0:
57,187,118972,5,10,0:0:0:0:
122,230,119211,1,0,0:0:0:0:
182,182,119449,1,0,1:0:0:0:
154,107,119687,1,0,0:0:0:0:
77,112,119925,1,2,0:0:0:0:
57,187,120163,1,0,1:2:0:0:
122,230,120401,6,0,P|149:301|118:372,1,154.000004699707,8|2,0:0|0:0,0:0:0:0:
50,299,121115,1,0,0:0:0:0:
122,230,121353,2,0,L|227:226,1,77.0000023498536,0|0,1:0|0:0,0:0:0:0:
260,307,121829,6,0,P|338:343|408:317,1,154.000004699707,12|2,0:0|0:0,0:0:0:0:
472,255,122544,1,0,0:0:0:0:
375,228,122782,2,0,L|362:131,1,77.0000023498536,0|0,1:0|0:0,0:0:0:0:
428,74,123258,6,0,B|358:113|358:113|251:92,1,154.000004699707,8|2,0:0|0:0,0:0:0:0:
189,69,123972,1,0,0:0:0:0:
169,167,124210,2,0,P|192:117|180:64,1,77.0000023498536,0|0,1:2|0:0,0:0:0:0:
69,178,124687,5,8,0:0:0:0:
169,167,124925,1,0,0:0:0:0:
189,69,125163,1,0,1:2:0:0:
102,19,125401,1,0,0:0:0:0:
27,86,125639,1,2,0:0:0:0:
69,178,125877,1,2,0:0:0:0:
169,167,126115,6,0,B|242:141|242:141|328:155,1,154.000004699707,12|2,0:0|0:0,0:0:0:0:
411,188,126829,1,0,0:0:0:0:
485,120,127068,2,0,P|509:182|505:224,1,77.0000023498536,0|0,1:0|0:0,0:0:0:0:
453,274,127544,6,0,B|417:294|371:276|371:276|328:258|283:270,1,154.000004699707,8|2,0:0|0:0,0:0:0:0:
221,322,128258,1,0,0:0:0:0:
130,363,128496,2,0,P|123:306|141:259,1,77.0000023498536,0|0,1:0|0:0,0:0:0:0:
112,188,128972,6,0,P|59:169|64:258,1,154.000004699707,12|0,0:0|1:0,0:0:0:0:
127,287,129687,1,0,0:0:0:0:
203,238,129925,2,0,L|187:134,1,77.0000023498536,2|0,0:0|0:0,0:0:0:0:
261,127,130401,6,0,P|319:162|326:190,1,77.0000023498536,10|0,0:0|0:0,0:0:0:0:
303,265,130877,2,0,P|243:297|215:289,1,77.0000023498536,0|0,1:0|0:0,0:0:0:0:
158,240,131353,2,0,P|159:172|180:152,1,77.0000023498536,2|0,1:2|0:0,0:0:0:0:
246,112,131830,6,0,L|341:120,1,77.0000023498536,12|0,0:0|0:0,0:0:0:0:
420,137,132306,2,0,B|434:100|434:100|423:44,1,77.0000023498536,2|0,0:0|0:0,0:0:0:0:
329,44,132782,2,0,B|315:81|315:81|326:137,1,77.0000023498536,0|0,1:0|0:0,0:0:0:0:
420,137,133258,6,0,L|409:309,1,154.000004699707,8|2,0:0|0:0,0:0:0:0:
497,340,133972,1,0,0:0:0:0:
410,290,134210,2,0,P|334:282|284:319,1,115.50000352478,4|0,0:0|0:0,0:0:0:0:
283,334,134687,5,10,0:0:0:0:
217,248,134925,1,0,0:0:0:0:
175,348,135163,1,0,0:0:0:0:
115,267,135401,5,0,0:0:0:0:
49,181,135639,1,0,0:0:0:0:
7,281,135877,1,0,1:0:0:0:
71,357,136115,5,2,0:0:0:0:
256,192,136234,12,8,137306,0:3:0:0:
28,323,137544,6,0,L|36:170,1,136.499993751526,12|0,0:0|0:0,0:0:0:0:
36,153,138020,2,0,P|82:143|133:164,1,90.9999958343508,2|0,0:0|0:0,0:0:0:0:
212,160,138496,2,0,P|197:204|153:238,1,90.9999958343508,0|0,1:0|0:0,0:0:0:0:
116,304,138972,2,0,P|84:269|77:214,2,90.9999958343508,8|0|2,0:0|0:0|0:0,0:0:0:0:
232,281,139687,1,0,0:0:0:0:
343,320,139925,1,0,1:2:0:0:
458,294,140163,1,0,0:0:0:0:
343,320,140401,6,0,P|349:259|380:230,1,90.9999958343508,12|0,0:0|0:0,0:0:0:0:
252,208,140877,2,0,P|287:158|329:148,1,90.9999958343508,2|0,0:0|0:0,0:0:0:0:
229,65,141353,2,0,P|284:39|325:52,1,90.9999958343508,0|2,0:0|1:2,0:0:0:0:
400,95,141829,5,8,0:0:0:0:
313,149,142068,1,0,0:0:0:0:
313,149,142306,1,2,0:0:0:0:
311,45,142544,1,0,0:0:0:0:
400,95,142782,2,0,L|406:196,1,90.9999958343508,0|8,1:0|0:0,0:0:0:0:
450,331,143258,6,0,P|476:267|451:211,1,90.9999958343508,12|0,0:0|0:0,0:0:0:0:
302,297,143734,2,0,P|344:351|405:357,1,90.9999958343508,2|0,0:0|1:0,0:0:0:0:
405,185,144210,1,0,0:0:0:0:
302,296,144449,1,2,1:2:0:0:
450,331,144687,5,8,0:0:0:0:
302,296,144925,2,0,P|205:274|156:302,1,136.499993751526,0|0,1:0|0:0,0:0:0:0:
169,302,145401,1,2,0:0:0:0:
90,370,145639,2,0,L|-5:375,1,90.9999958343508,0|2,1:0|0:0,0:0:0:0:
64,253,146115,6,0,P|108:182|96:84,1,181.999991668702,8|2,0:0|0:0,0:0:0:0:
10,13,146829,1,0,0:0:0:0:
97,87,147068,1,0,1:0:0:0:
201,32,147306,1,2,0:2:0:0:
182,146,147544,6,0,B|219:188|224:240|224:240|222:185|267:132,1,210.000008010865,12|2,0:0|0:0,0:0:0:0:
198,19,148258,1,0,0:0:0:0:
297,52,148496,2,0,P|352:92|358:180,1,157.500006008148,0|0,1:0|0:0,0:0:0:0:
355,200,148972,6,0,L|334:342,1,136.499993751526,12|0,0:0|0:0,0:0:0:0:
328,367,149449,2,0,P|265:334|212:338,1,90.9999958343508,2|0,0:0|0:0,0:0:0:0:
130,308,149925,2,0,P|190:269|213:222,1,90.9999958343508,0|0,1:0|0:0,0:0:0:0:
282,168,150401,2,0,P|284:239|314:282,1,90.9999958343508,2|0,0:0|0:0,0:0:0:0:
383,304,150877,2,8,L|383:349,3,45.4999979171754,8|8|8|8,2:3|2:3|2:3|2:3,2:3:0:0:
428,286,151353,2,8,L|428:241,3,45.4999979171754,8|8|8|8,2:3|2:3|2:3|2:3,2:3:0:0:
473,305,151829,6,0,P|505:255|491:197,1,90.9999958343508,12|0,0:0|0:0,0:0:0:0:
425,135,152306,1,2,0:0:0:0:
425,135,152544,1,0,0:0:0:0:
320,190,152782,2,0,P|324:103|272:56,1,136.499993751526,8|0,0:0|0:0,0:0:0:0:
261,49,153258,5,0,1:0:0:0:
115,81,153496,1,0,0:0:0:0:
253,140,153734,1,2,0:0:0:0:
177,12,153972,1,0,0:0:0:0:
163,160,154210,1,8,0:2:0:0:
33,100,154449,1,0,0:0:0:0:
33,100,154687,6,0,L|67:220,1,90.9999958343508,12|0,0:0|0:0,0:0:0:0:
73,304,155163,2,0,L|159:214,1,90.9999958343508,2|0,0:0|0:0,0:0:0:0:
229,167,155639,2,0,L|108:136,1,90.9999958343508,0|0,1:0|0:0,0:0:0:0:
227,64,156115,2,0,P|277:52|377:159,1,181.999991668702,8|0,0:0|1:0,0:0:0:0:
375,244,156829,1,0,0:0:0:0:
485,287,157068,1,2,0:0:0:0:
255,345,157544,5,12,0:0:0:0:
256,192,157663,12,2,160579,0:0:0:0:
