osu file format v14

[General]
AudioFilename: audio.mp3
AudioLeadIn: 0
PreviewTime: 58072
Countdown: 0
SampleSet: Soft
StackLeniency: 0.4
Mode: 0
LetterboxInBreaks: 0
WidescreenStoryboard: 1

[Editor]
Bookmarks: 24027,35663,44390,64754,70572,76390,82209,96754
DistanceSpacing: 0.9
BeatDivisor: 4
GridSize: 8
TimelineZoom: 2.3

[Metadata]
Title:Goshujinsama wa Otawamure (Cut Ver.)
TitleUnicode:ご主人様はおたわむれ (Cut Ver.)
Artist:Kagura Mea
ArtistUnicode:神楽めあ
Creator:Present
Version:Strenge's Insane
Source:
Tags:Japanese Pop vtuber virtual youtuber niconico bilibili kuse KuBsNia_ZhoYL_ AngelSnow StrengeMistake
BeatmapID:2819383
BeatmapSetID:1356952

[Difficulty]
HPDrainRate:4.8
CircleSize:4
OverallDifficulty:8.5
ApproachRate:9
SliderMultiplier:1.6
SliderTickRate:1

[Events]
//Background and Video events
0,0,"mea.jpg",0,0
//Break Periods
//Storyboard Layer 0 (Background)
//Storyboard Layer 1 (Fail)
//Storyboard Layer 2 (Pass)
//Storyboard Layer 3 (Foreground)
//Storyboard Layer 4 (Overlay)
//Storyboard Sound Samples

[TimingPoints]
-762,363.636363636364,4,2,1,60,1,0
10874,-142.857142857143,4,2,1,35,0,0
11056,-142.857142857143,4,2,1,5,0,0
11147,-142.857142857143,4,2,1,35,0,0
11328,-142.857142857143,4,2,1,5,0,0
11419,-142.857142857143,4,2,1,35,0,0
11601,-142.857142857143,4,2,1,5,0,0
11783,-142.857142857143,4,2,1,50,0,0
12328,-111.111111111111,4,2,1,50,0,0
23965,-125,4,2,1,50,0,0
44328,-90.9090909090909,4,2,1,50,0,0
44601,-90.9090909090909,4,2,1,5,0,0
44692,-166.666666666667,4,2,1,50,0,0
45056,-90.9090909090909,4,2,1,50,0,0
45328,-90.9090909090909,4,2,1,5,0,0
45419,-166.666666666667,4,2,1,50,0,0
45783,-90.9090909090909,4,2,1,50,0,0
46056,-90.9090909090909,4,2,1,5,0,0
46147,-166.666666666667,4,2,1,50,0,0
46510,-111.111111111111,4,2,1,50,0,0
57419,-166.666666666667,4,2,1,50,0,0
58874,-83.3333333333333,4,2,1,60,0,1
75147,-83.3333333333333,4,2,1,5,0,1
75238,-83.3333333333333,4,2,1,60,0,1
87965,-111.111111111111,4,2,1,50,0,0
96692,-100,4,2,1,60,0,0
104147,-100,4,2,1,5,0,0

[Colours]
Combo1 : 0,128,255
Combo2 : 255,64,64
Combo3 : 255,128,64
Combo4 : 255,255,96

[HitObjects]
0,211,10874,6,0,P|24:197|50:186,1,55.9999982910157,6|0,3:0|0:0,0:0:0:0:
79,177,11147,2,0,P|105:167|132:162,1,55.9999982910157,2|0,3:0|0:0,0:0:0:0:
163,157,11419,2,0,P|190:152|218:151,1,55.9999982910157,2|0,3:0|0:0,0:0:0:0:
229,278,11783,5,8,3:2:0:0:
330,226,11965,1,8,3:2:0:0:
324,339,12147,1,8,3:2:0:0:
334,357,12328,5,6,3:2:0:0:
342,215,12510,1,0,0:0:0:0:
215,280,12692,1,0,1:0:0:0:
461,292,12874,2,0,P|485:346|425:338,1,143.999995605469,2|0,0:0|0:0,0:0:0:0:
348,282,13419,2,8,L|353:189,1,71.9999978027344,0|0,1:0|0:0,0:0:0:0:
151,196,13783,5,2,3:2:0:0:
290,165,13965,1,0,0:0:0:0:
151,196,14147,1,0,1:0:0:0:
281,8,14328,2,0,B|276:66|276:66|292:98|292:98|286:162,1,143.999995605469,2|0,0:0|0:0,0:0:0:0:
426,233,14874,2,0,B|431:153,1,71.9999978027344,0|0,1:0|0:0,0:0:0:0:
442,318,15238,5,2,3:2:0:0:
321,244,15419,1,0,0:0:0:0:
180,256,15601,1,0,1:0:0:0:
70,345,15783,2,0,P|30:338|-3:354,1,71.9999978027344,2|0,0:0|0:0,0:0:0:0:
196,364,16147,2,0,P|234:357|268:373,1,71.9999978027344,2|0,0:0|1:0,0:0:0:0:
180,256,16510,1,0,0:0:0:0:
85,349,16692,5,2,3:2:0:0:
187,265,16875,1,0,0:0:0:0:
318,254,17057,1,0,1:0:0:0:
431,323,17238,2,0,P|465:306|503:313,1,71.9999978027344,0|2,0:0|3:2,0:0:0:0:
493,163,17601,5,0,3:0:0:0:
500,170,17692,1,0,3:0:0:0:
507,177,17783,2,0,L|513:92,1,71.9999978027344,0|2,1:0|3:2,0:0:0:0:
345,149,18147,5,6,3:2:0:0:
486,156,18328,1,0,0:0:0:0:
422,30,18511,1,0,1:0:0:0:
407,273,18692,2,0,P|347:236|276:235,1,143.999995605469,2|0,0:2|0:0,0:0:0:0:
117,266,19238,2,0,P|148:249|204:254,1,71.9999978027344,0|0,1:0|0:0,0:0:0:0:
47,184,19601,5,2,3:2:0:0:
37,324,19783,1,0,0:0:0:0:
47,184,19965,1,0,1:0:0:0:
200,366,20147,2,0,P|254:343|206:307,1,143.999995605469,2|0,0:0|0:0,0:0:0:0:
341,236,20692,2,0,B|335:315,1,71.9999978027344,0|0,1:0|0:0,0:0:0:0:
383,128,21056,5,2,3:2:0:0:
511,166,21238,1,0,0:0:0:0:
341,236,21419,1,2,1:2:0:0:
212,198,21601,1,0,0:0:0:0:
347,32,21783,5,2,3:2:0:0:
309,160,21965,1,2,0:0:0:0:
379,331,22146,1,2,1:2:0:0:
418,202,22328,1,2,0:0:0:0:
250,263,22510,6,0,P|284:253|320:256,1,71.9999978027344,2|0,3:2|0:0,0:0:0:0:
161,236,22874,2,0,P|178:205|206:181,1,71.9999978027344,2|0,1:2|0:0,0:0:0:0:
82,280,23238,2,0,P|72:245|75:209,1,71.9999978027344,2|0,3:2|0:0,0:0:0:0:
58,366,23601,2,0,P|27:348|4:320,1,71.9999978027344,2|2,1:2|0:0,0:0:0:0:
171,321,23965,6,0,L|166:387,2,64,6|0|10,0:0|0:3|0:0,0:3:0:0:
310,355,24510,2,0,P|280:348|239:367,1,64,2|0,0:0|0:0,0:0:0:0:
391,382,24874,2,0,P|421:389|462:370,1,64,2|8,0:0|0:0,0:0:0:0:
486,253,25238,5,2,0:0:0:0:
486,253,25328,1,0,0:0:0:0:
486,253,25419,1,0,0:0:0:0:
379,192,25601,2,0,L|374:258,1,64,2|10,0:0|0:0,0:0:0:0:
487,140,25965,2,0,L|497:1,1,128
362,36,26510,2,0,P|312:24|269:53,1,96,10|0,0:0|0:0,0:0:0:0:
248,72,26874,6,0,B|200:68|200:68|171:84|171:84|124:79,2,128,2|8|0,0:0|0:0|0:0,0:0:0:0:
152,3,27783,1,0,0:0:0:0:
220,150,27965,2,0,L|213:227,1,64,10|0,0:0|0:0,0:0:0:0:
98,303,28328,2,0,P|148:291|191:320,1,96,2|0,0:0|0:0,0:0:0:0:
221,324,28692,2,0,B|269:320|269:320|298:336|298:336|345:331,2,128,8|2|10,1:2|3:2|1:2,0:0:0:0:
310,258,29601,1,0,0:0:0:0:
310,258,29692,1,0,0:0:0:0:
310,258,29783,1,2,3:2:0:0:
323,109,29965,6,0,P|292:102|262:112,2,64,2|10|2,0:0|0:0|0:0,0:0:0:0:
437,185,30510,2,0,P|467:191|497:181,2,64,0|2|10,0:0|0:0|0:0,0:0:0:0:
464,49,31056,1,2,0:0:0:0:
464,49,31147,1,0,0:0:0:0:
464,49,31238,2,0,L|458:121,1,64
345,198,31601,2,0,L|351:270,1,64,10|0,0:0|0:0,0:0:0:0:
471,345,31965,1,2,0:0:0:0:
479,234,32146,1,2,0:0:0:0:
361,347,32328,6,0,P|315:338|274:360,1,96,10|0,0:0|0:0,0:0:0:0:
239,379,32692,2,0,P|183:349|121:362,2,128,2|8|2,3:2|1:2|3:2,0:0:0:0:
258,247,33601,1,0,3:0:0:0:
152,143,33783,2,0,L|144:238,1,96,10|0,3:2|0:0,0:0:0:0:
108,256,34147,2,0,P|76:251|46:260,1,64,6|0,0:0|0:0,0:0:0:0:
180,334,34510,1,8,0:0:0:0:
188,223,34691,1,0,0:0:0:0:
188,223,35056,5,2,3:2:0:0:
188,223,35147,1,0,3:0:0:0:
188,223,35238,2,0,P|219:227|249:218,1,64,8|0,0:0|3:0,0:0:0:0:
398,303,35601,6,0,P|388:325|387:375,2,64,2|2|10,3:2|0:0|0:0,0:0:0:0:
500,209,36147,2,0,L|494:137,1,64,2|0,0:0|0:0,0:0:0:0:
388,46,36510,2,0,L|382:118,1,64,2|8,0:0|0:0,0:0:0:0:
296,202,36874,1,2,0:0:0:0:
296,202,36965,1,0,0:0:0:0:
296,202,37056,1,0,0:0:0:0:
166,174,37238,6,0,P|134:169|104:178,2,64,2|10|2,0:0|0:0|0:0,0:0:0:0:
259,54,37783,2,0,L|253:117,1,64
380,213,38147,2,0,L|372:308,1,96,10|0,0:0|0:0,0:0:0:0:
392,341,38510,6,0,B|458:314|456:378|512:357,2,128,2|8|0,0:0|0:0|0:0,0:0:0:0:
247,381,39419,1,0,0:0:0:0:
121,329,39601,6,0,P|89:324|59:333,1,64,10|0,0:0|0:0,0:0:0:0:
212,292,39965,2,0,L|219:196,1,96,2|0,0:0|0:0,0:0:0:0:
199,163,40329,2,0,B|133:190|135:126|78:146,2,128,8|2|10,1:2|3:2|1:2,0:0:0:0:
224,35,41238,1,0,0:0:0:0:
224,35,41328,1,0,0:0:0:0:
224,35,41419,1,2,3:2:0:0:
352,94,41601,5,2,0:0:0:0:
485,46,41783,2,0,L|479:109,2,64,10|2|2,0:0|0:0|0:0,0:0:0:0:
450,201,42328,2,0,P|478:188|510:189,1,64,2|8,0:0|0:0,0:0:0:0:
358,196,42692,2,0,P|361:164|378:137,1,64,2|0,0:0|0:0,0:0:0:0:
308,273,43056,2,0,P|282:254|267:226,1,64,2|8,0:0|0:0,0:0:0:0:
349,354,43419,5,2,0:0:0:0:
363,204,43601,1,2,0:0:0:0:
485,291,43783,1,2,0:0:0:0:
344,359,43965,2,0,B|306:375|296:327|252:348,1,96,10|0,0:0|0:0,0:0:0:0:
182,369,44328,6,0,P|129:332|67:348,1,132.00000402832,2|0,3:2|0:0,0:0:0:0:
67,347,44692,2,0,L|74:280,1,47.9999985351563,8|0,3:2|0:2,0:2:0:0:
7,121,45056,6,0,P|62:104|40:160,1,132.00000402832,2|0,3:2|0:0,0:0:0:0:
53,156,45419,2,0,L|46:223,1,47.9999985351563,8|0,3:2|0:2,0:2:0:0:
197,86,45783,6,0,B|262:58|255:133|318:109,1,132.00000402832,2|0,3:2|0:0,0:0:0:0:
317,109,46147,2,0,L|323:45,1,47.9999985351563,8|0,3:2|0:0,0:0:0:0:
303,240,46510,5,2,3:2:0:0:
455,306,46692,1,2,3:2:0:0:
455,306,46783,1,0,3:0:0:0:
455,306,46874,2,0,P|408:306|376:329,1,71.9999978027344,10|2,3:2|3:2,0:0:0:0:
492,172,47238,6,0,L|498:83,1,71.9999978027344,6|0,0:0|0:0,0:0:0:0:
333,3,47601,2,0,L|326:91,1,71.9999978027344,10|0,0:0|0:0,0:0:0:0:
154,148,47965,1,2,0:0:0:0:
46,75,48146,1,0,0:0:0:0:
214,0,48328,2,0,L|207:88,1,71.9999978027344,10|2,0:0|0:0,0:0:0:0:
270,223,48692,6,0,B|279:219|279:219|347:229,2,71.9999978027344,0|2|10,0:0|0:0|0:0,0:0:0:0:
84,277,49238,1,0,0:0:0:0:
84,277,49419,2,0,B|73:279|73:279|6:269,1,71.9999978027344,2|0,0:0|0:0,0:0:0:0:
190,212,49783,1,10,0:0:0:0:
196,346,49965,1,0,0:0:0:0:
322,301,50147,6,0,P|339:265|341:226,1,71.9999978027344,2|0,0:0|0:0,0:0:0:0:
282,49,50510,2,0,P|263:83|261:122,1,71.9999978027344,10|0,0:0|0:0,0:0:0:0:
427,154,50874,2,0,P|391:135|352:133,1,71.9999978027344,2|0,0:0|0:0,0:0:0:0:
175,194,51238,1,10,0:0:0:0:
306,226,51419,1,0,0:0:0:0:
282,25,51601,6,0,P|254:76|251:135,1,107.999996704102,2|0,0:0|0:0,0:0:0:0:
270,163,51965,2,0,L|263:269,1,71.9999978027344,10|2,0:0|0:0,0:0:0:0:
103,291,52328,2,0,L|58:297,3,35.9999989013672,2|0|0|0,3:2|0:0|0:0|0:0,0:0:0:0:
25,282,52692,1,10,3:2:0:0:
36,144,52874,1,2,3:2:0:0:
181,266,53056,2,0,B|195:279|195:279|188:381,1,107.999996704102,6|0,0:0|0:0,0:0:0:0:
229,382,53419,6,0,P|264:375|298:384,1,71.9999978027344,10|0,1:2|0:0,0:0:0:0:
461,307,53783,2,0,P|425:313|391:304,1,71.9999978027344,2|0,0:2|0:0,0:0:0:0:
285,165,54147,1,10,1:2:0:0:
273,302,54328,1,2,0:0:0:0:
428,205,54510,6,0,L|419:97,1,107.999996704102,6|0,0:0|0:0,0:0:0:0:
452,68,54874,2,0,P|437:35|441:0,1,71.9999978027344,10|0,1:2|0:0,0:0:0:0:
268,86,55238,2,0,P|282:118|278:154,1,71.9999978027344,10|0,0:2|0:0,0:0:0:0:
110,106,55601,5,10,1:2:0:0:
108,127,55692,1,0,0:0:0:0:
106,148,55783,1,0,0:0:0:0:
105,169,55874,1,0,0:0:0:0:
104,190,55965,6,0,P|60:186|27:205,1,71.9999978027344,6|0,3:2|0:0,0:0:0:0:
25,239,56238,1,0,3:0:0:0:
25,239,56328,2,0,L|18:330,1,71.9999978027344,8|0,0:0|3:0,0:0:0:0:
192,384,56692,2,0,L|199:293,1,71.9999978027344,0|0,3:0|0:0,0:0:0:0:
167,287,56965,1,0,3:0:0:0:
167,287,57056,1,10,0:0:0:0:
330,231,57238,5,0,3:0:0:0:
330,231,57328,1,0,3:0:0:0:
330,231,57419,2,0,L|337:140,2,71.9999978027344,2|2|2,3:2|3:2|3:2,0:0:0:0:
37,278,58874,5,6,0:0:0:0:
188,189,59056,1,2,0:0:0:0:
30,120,59238,1,2,1:2:0:0:
152,289,59419,2,0,L|145:387,1,95.9999970703126,2|0,0:0|0:0,0:0:0:0:
284,265,59783,2,0,L|291:167,1,95.9999970703126,2|0,0:0|1:0,0:0:0:0:
167,86,60147,1,2,0:0:0:0:
387,21,60328,6,0,L|378:164,1,143.999995605469,2|0,0:2|0:0,0:0:0:0:
449,203,60692,1,2,1:2:0:0:
303,268,60874,1,0,0:0:0:0:
433,362,61056,1,0,0:0:0:0:
441,375,61238,5,2,0:2:0:0:
291,267,61420,1,0,1:0:0:0:
460,193,61602,1,2,0:0:0:0:
283,13,61783,6,0,B|280:67|280:67|304:93|304:93|301:147,1,143.999995605469,2|0,3:2|0:0,0:0:0:0:
227,178,62147,1,2,1:2:0:0:
388,239,62328,2,0,P|366:273|361:332,1,95.9999970703126,2|0,0:0|0:0,0:0:0:0:
214,379,62692,2,0,P|210:331|186:290,1,95.9999970703126,2|0,0:0|1:0,0:0:0:0:
61,331,63056,1,2,0:0:0:0:
294,262,63238,6,0,L|302:107,1,143.999995605469,2|0,0:0|0:0,0:0:0:0:
235,74,63601,1,0,1:0:0:0:
97,142,63783,1,2,0:0:0:0:
301,258,63965,2,0,L|308:114,1,143.999995605469,2|0,0:0|0:0,0:0:0:0:
314,35,64328,1,0,1:0:0:0:
489,189,64510,5,0,0:0:0:0:
489,189,64601,1,0,0:0:0:0:
489,189,64692,2,0,P|467:230|465:278,1,95.9999970703126,6|2,0:0|0:0,0:0:0:0:
422,69,65056,2,0,P|469:65|511:43,1,95.9999970703126,0|2,1:0|0:0,0:0:0:0:
351,186,65419,2,0,P|324:145|283:120,1,95.9999970703126,2|2,0:0|0:0,0:0:0:0:
489,189,65783,1,2,1:2:0:0:
475,350,65965,1,2,0:0:0:0:
342,258,66147,1,0,0:0:0:0:
331,259,66328,5,2,0:0:0:0:
483,364,66510,1,2,1:2:0:0:
500,180,66692,1,2,0:0:0:0:
265,294,66874,2,0,B|199:308|206:231|133:254,1,143.999995605469,2|0,0:0|0:0,0:0:0:0:
72,210,67238,2,0,L|76:114,1,95.9999970703126,2|0,1:2|0:0,0:0:0:0:
285,4,67601,6,0,P|261:3|238:11,1,47.9999985351563,6|0,3:2|0:0,0:0:0:0:
160,65,67783,1,2,0:0:0:0:
371,112,67965,6,0,P|347:103|324:104,1,47.9999985351563,2|0,1:2|0:0,0:0:0:0:
234,131,68146,1,2,0:0:0:0:
390,247,68328,6,0,P|321:238|261:275,1,143.999995605469,2|0,0:0|0:0,0:0:0:0:
224,354,68692,1,2,1:2:0:0:
71,289,68874,1,0,0:0:0:0:
71,289,68965,1,0,0:0:0:0:
71,289,69056,2,0,L|67:385,2,95.9999970703126,6|0|2,3:2|0:0|1:2,0:0:0:0:
228,225,69601,1,2,0:2:0:0:
78,142,69783,5,0,0:0:0:0:
79,127,69874,1,0,0:0:0:0:
80,112,69965,1,2,3:2:0:0:
81,97,70056,1,0,3:0:0:0:
81,81,70147,2,0,P|58:79|35:87,1,47.9999985351563,2|0,1:2|0:0,0:0:0:0:
158,122,70328,2,0,P|181:124|204:116,1,47.9999985351563,2|0,0:0|0:0,0:0:0:0:
285,143,70510,5,6,0:0:0:0:
266,308,70692,1,2,0:0:0:0:
426,262,70874,1,2,1:2:0:0:
255,220,71056,2,0,P|210:237|181:274,1,95.9999970703126,2|0,0:0|0:0,0:0:0:0:
426,366,71419,2,0,L|435:255,1,95.9999970703126,2|0,0:0|1:0,0:0:0:0:
447,117,71783,1,2,0:0:0:0:
230,20,71965,6,0,L|224:164,1,143.999995605469,2|0,0:0|0:0,0:0:0:0:
290,209,72328,1,2,1:2:0:0:
144,274,72510,1,2,0:0:0:0:
274,368,72692,1,0,0:0:0:0:
282,381,72874,5,2,0:0:0:0:
132,273,73056,1,2,1:2:0:0:
301,199,73238,1,2,0:0:0:0:
108,72,73419,6,0,P|84:69|60:74,1,47.9999985351563,2|0,0:0|0:0,0:0:0:0:
184,36,73601,2,0,P|171:15|154:-1,1,47.9999985351563,2|0,0:0|0:0,0:0:0:0:
257,76,73783,2,0,P|266:54|269:30,1,47.9999985351563,2|0,1:2|0:0,0:0:0:0:
267,158,73965,2,0,B|282:171|282:171|279:259,1,95.9999970703126,2|0,0:0|0:0,0:0:0:0:
133,341,74328,2,0,B|118:328|118:328|121:240,1,95.9999970703126,0|2,0:0|1:2,0:0:0:0:
289,370,74692,1,0,0:3:0:0:
300,362,74783,1,0,0:0:0:0:
312,355,74874,6,0,B|384:324|385:399|446:376,1,143.999995605469,2|0,0:0|0:0,0:0:0:0:
512,331,75238,1,0,1:0:0:0:
382,228,75419,1,0,0:0:0:0:
154,353,75601,2,0,L|158:257,1,95.9999970703126,2|0,0:0|0:0,0:0:0:0:
97,216,75874,1,0,0:0:0:0:
97,216,75965,2,0,P|48:208|2:232,1,95.9999970703126,2|0,1:2|0:0,0:0:0:0:
225,82,76328,6,0,L|221:178,1,95.9999970703126,6|0,0:0|0:0,0:0:0:0:
441,95,76692,2,0,L|445:-1,1,95.9999970703126,0|2,1:0|0:0,0:0:0:0:
330,140,77056,5,2,0:0:0:0:
476,183,77238,1,0,0:0:0:0:
241,175,77419,5,2,1:2:0:0:
285,27,77601,1,0,0:0:0:0:
280,263,77783,5,2,0:0:0:0:
131,220,77965,1,0,0:0:0:0:
367,223,78147,5,2,1:2:0:0:
322,372,78328,1,0,0:0:0:0:
330,138,78510,6,0,P|376:132|420:150,1,95.9999970703126,2|0,0:0|0:0,0:0:0:0:
184,268,78874,2,0,P|137:261|93:279,1,95.9999970703126,2|0,1:2|0:0,0:0:0:0:
322,372,79238,1,2,0:2:0:0:
456,305,79419,1,0,0:0:0:0:
332,222,79601,1,0,1:0:0:0:
327,211,79783,5,2,0:0:0:0:
469,307,79965,1,2,0:0:0:0:
316,384,80146,1,2,0:0:0:0:
332,133,80328,2,0,B|407:101|411:176|484:142,1,143.999995605469,2|0,1:2|0:0,0:0:0:0:
512,82,80692,5,2,0:2:0:0:
502,232,80874,1,0,0:0:0:0:
420,66,81056,5,0,1:0:0:0:
410,216,81238,1,0,0:0:0:0:
328,50,81419,5,2,3:2:0:0:
318,200,81601,1,2,3:2:0:0:
236,34,81783,5,2,1:2:0:0:
226,184,81965,1,0,0:0:0:0:
9,114,82147,6,0,P|53:95|100:99,1,95.9999970703126,6|0,0:0|0:0,0:0:0:0:
259,269,82510,2,0,P|215:287|168:284,1,95.9999970703126,0|0,1:0|0:0,0:0:0:0:
313,145,82874,5,2,0:0:0:0:
451,185,83056,1,0,0:0:0:0:
265,261,83237,5,2,1:2:0:0:
124,220,83419,1,0,0:0:0:0:
270,37,83601,5,2,0:0:0:0:
228,178,83783,1,0,0:0:0:0:
305,365,83965,5,2,1:2:0:0:
348,223,84146,1,0,0:0:0:0:
110,304,84328,6,0,P|156:295|199:315,1,95.9999970703126,2|0,0:0|0:0,0:0:0:0:
437,211,84692,2,0,P|390:202|347:222,1,95.9999970703126,2|0,1:2|0:0,0:0:0:0:
167,18,85056,6,0,L|156:214,1,191.999994140625,6|0,0:0|0:0,0:0:0:0:
345,366,85783,2,0,L|356:170,1,191.999994140625,2|0,1:2|0:0,0:0:0:0:
166,18,86510,6,0,P|150:62|152:110,1,95.9999970703126,2|0,1:2|0:0,0:0:0:0:
358,207,86874,2,0,P|374:162|372:114,1,95.9999970703126,2|0,1:2|0:0,0:0:0:0:
333,95,87147,1,0,0:0:0:0:
333,95,87238,1,2,1:2:0:0:
212,155,87419,1,0,0:0:0:0:
205,287,87601,1,2,1:2:0:0:
315,359,87783,1,0,0:0:0:0:
321,370,87965,5,6,3:2:0:0:
334,219,88147,1,0,0:0:0:0:
195,288,88328,1,0,1:0:0:0:
460,301,88510,2,0,B|490:275|490:275|498:171,1,143.999995605469,2|0,0:0|0:0,0:0:0:0:
375,76,89056,2,0,L|369:147,1,71.9999978027344,0|0,1:0|0:0,0:0:0:0:
202,190,89419,5,2,3:2:0:0:
334,219,89601,1,0,0:0:0:0:
202,190,89783,1,0,1:0:0:0:
319,374,89965,2,0,P|249:363|180:383,1,143.999995605469,2|0,0:0|0:0,0:0:0:0:
27,319,90510,2,0,P|65:311|102:320,1,71.9999978027344,0|0,1:0|0:0,0:0:0:0:
123,175,90874,5,2,3:2:0:0:
250,110,91056,1,0,0:0:0:0:
369,187,91238,1,0,1:0:0:0:
360,328,91419,2,0,P|325:320|292:333,1,71.9999978027344,2|0,0:0|0:0,0:0:0:0:
443,380,91783,2,0,P|477:387|510:374,1,71.9999978027344,2|0,0:0|1:0,0:0:0:0:
464,262,92147,1,0,0:0:0:0:
350,321,92328,5,2,3:2:0:0:
357,193,92510,1,0,0:0:0:0:
250,124,92692,1,2,1:2:0:0:
136,182,92874,2,0,P|101:174|68:187,1,71.9999978027344,0|2,0:0|3:2,0:0:0:0:
229,238,93238,5,0,3:0:0:0:
236,245,93329,1,0,3:0:0:0:
243,252,93419,2,0,L|237:337,1,71.9999978027344,0|2,1:0|3:2,0:0:0:0:
391,266,93783,5,6,0:0:0:0:
250,259,93964,1,0,0:0:0:0:
313,384,94147,1,0,1:0:0:0:
327,140,94328,2,0,B|260:163|260:87|189:120,1,143.999995605469,2|0,0:0|0:0,0:0:0:0:
312,0,94874,2,0,L|306:85,1,71.9999978027344,0|0,1:0|0:0,0:0:0:0:
156,45,95238,5,2,3:2:0:0:
149,186,95419,1,0,0:0:0:0:
156,45,95601,1,0,1:0:0:0:
299,211,95783,2,0,P|353:188|305:152,1,143.999995605469,2|0,0:0|0:0,0:0:0:0:
418,263,96328,2,0,L|412:348,1,71.9999978027344,0|0,1:0|0:0,0:0:0:0:
274,381,96692,6,0,P|218:359|160:369,1,120,2|0,3:2|0:0,0:0:0:0:
89,384,97056,2,0,L|95:289,1,80,8|0,1:2|0:0,0:0:0:0:
10,123,97419,5,2,3:2:0:0:
201,72,97601,1,2,0:0:0:0:
0,126,97783,5,10,1:2:0:0:
191,177,97965,1,2,0:0:0:0:
110,0,98147,6,0,L|101:142,1,120,6|0,3:2|0:0,0:0:0:0:
87,193,98510,2,0,P|47:188|11:202,1,80,8|0,1:2|0:0,0:0:0:0:
205,169,98874,5,2,3:2:0:0:
195,360,99056,1,2,0:0:0:0:
219,161,99238,5,10,1:2:0:0:
209,352,99420,1,2,0:0:0:0:
378,264,99601,6,0,P|332:282|373:305,1,120,6|0,3:2|0:0,0:0:0:0:
448,302,99965,2,0,L|442:397,1,80,8|0,1:2|0:0,0:0:0:0:
512,202,100328,5,2,3:2:0:0:
342,151,100510,1,2,0:2:0:0:
157,234,100691,5,10,1:2:0:0:
326,285,100873,1,2,0:2:0:0:
254,64,101056,6,0,L|246:183,1,120,6|0,3:2|0:0,0:0:0:0:
241,259,101419,2,0,P|224:295|227:334,1,80,8|2,1:2|0:0,0:0:0:0:
407,363,101783,5,2,3:2:0:0:
417,172,101965,1,2,0:0:0:0:
248,260,102147,2,0,P|231:296|234:335,1,80,10|0,1:2|0:0,0:0:0:0:
54,306,102510,1,6,3:2:0:0:
321,353,102874,5,0,0:0:0:0:
332,190,103056,2,0,L|326:285,1,80,0|0,1:0|0:0,0:0:0:0:
429,307,103419,5,0,0:0:0:0:
440,144,103601,1,0,1:0:0:0:
440,144,103783,1,0,1:0:0:0:
