osu file format v14

[General]
AudioFilename: audio.mp3
AudioLeadIn: 0
PreviewTime: 58072
Countdown: 0
SampleSet: Soft
StackLeniency: 0.4
Mode: 0
LetterboxInBreaks: 0
WidescreenStoryboard: 1

[Editor]
DistanceSpacing: 0.9
BeatDivisor: 4
GridSize: 8
TimelineZoom: 1.7

[Metadata]
Title:Goshujinsama wa Otawamure (Cut Ver.)
TitleUnicode:ご主人様はおたわむれ (Cut Ver.)
Artist:Kagura Mea
ArtistUnicode:神楽めあ
Creator:Present
Version:Normal
Source:
Tags:Japanese Pop vtuber virtual youtuber niconico bilibili kuse KuBsNia_ZhoYL_ AngelSnow StrengeMistake
BeatmapID:2813356
BeatmapSetID:1356952

[Difficulty]
HPDrainRate:3
CircleSize:3
OverallDifficulty:4
ApproachRate:5
SliderMultiplier:1.2
SliderTickRate:1

[Events]
//Background and Video events
0,0,"mea.jpg",0,0
//Break Periods
//Storyboard Layer 0 (Background)
//Storyboard Layer 1 (Fail)
//Storyboard Layer 2 (Pass)
//Storyboard Layer 3 (Foreground)
//Storyboard Layer 4 (Overlay)
//Storyboard Sound Samples

[TimingPoints]
-762,363.636363636364,4,2,1,60,1,0
10874,-100,4,2,1,35,0,0
11783,-100,4,2,1,50,0,0
58874,-100,4,2,1,60,0,1
87965,-100,4,2,1,50,0,0
96692,-100,4,2,1,60,0,1
102510,-100,4,2,1,60,0,0
104328,-100,4,2,1,5,0,0

[Colours]
Combo1 : 0,128,255
Combo2 : 255,64,64
Combo3 : 255,128,64
Combo4 : 255,255,96

[HitObjects]
52,126,10874,6,0,L|38:30,2,90,6|2|2,3:0|3:0|3:0,0:0:0:0:
141,185,11783,2,0,P|200:160|257:171,1,120,8|8,3:2|3:2,0:0:0:0:
300,196,12328,6,0,L|310:255,1,60,6|0,3:2|0:0,0:0:0:0:
355,295,12692,1,0,1:0:0:0:
355,295,12874,2,0,B|390:290|412:306|412:306|401:275|407:235,1,120,2|0,0:0|0:0,0:0:0:0:
415,193,13419,1,0,1:0:0:0:
495,120,13783,6,0,L|485:61,1,60,2|0,3:2|0:0,0:0:0:0:
444,32,14147,1,0,1:0:0:0:
444,32,14329,2,0,B|374:31|404:75|330:71,1,120,2|0,0:0|0:0,0:0:0:0:
306,117,14874,1,0,1:0:0:0:
198,127,15238,6,0,L|189:194,2,60,2|0|0,3:2|0:0|1:0,0:0:0:0:
208,74,15783,2,0,P|161:39|92:41,1,120,2|2,0:0|0:0,0:0:0:0:
19,107,16510,1,0,0:0:0:0:
19,107,16692,6,0,L|10:174,2,60,2|0|0,3:2|0:0|1:0,0:0:0:0:
58,69,17238,2,0,P|99:80|117:158,1,120,0|0,0:0|3:0,0:0:0:0:
102,198,17783,1,0,1:0:0:0:
193,254,18147,6,0,L|260:244,1,60,6|0,3:2|0:0,0:0:0:0:
309,239,18511,1,0,1:0:0:0:
309,239,18693,2,0,B|344:234|368:245|368:245|379:282|348:314,1,120,2|0,0:2|0:0,0:0:0:0:
323,343,19238,1,0,1:0:0:0:
216,360,19602,6,0,L|157:348,1,60,2|0,3:2|0:0,0:0:0:0:
108,338,19966,1,0,1:0:0:0:
108,338,20148,2,0,P|80:285|106:228,1,120,2|0,0:0|0:0,0:0:0:0:
141,196,20693,1,0,1:0:0:0:
65,119,21056,6,0,L|53:0,2,120,2|2|2,3:2|1:2|3:2,0:0:0:0:
141,196,22147,1,2,1:2:0:0:
249,151,22510,2,0,P|281:140|319:149,1,60,2|0,3:2|0:0,0:0:0:0:
357,162,22874,1,2,1:2:0:0:
417,251,23238,2,0,P|410:284|383:312,1,60,2|0,3:2|0:0,0:0:0:0:
354,339,23602,1,2,1:2:0:0:
255,295,23965,6,0,P|197:292|139:338,1,120,6|10,0:0|0:0,0:0:0:0:
101,353,24510,2,0,L|96:290,1,60,2|0,0:0|0:0,0:0:0:0:
92,238,24874,1,2,0:0:0:0:
192,197,25238,2,0,L|205:74,1,120,2|2,0:0|0:0,0:0:0:0:
249,47,25783,1,10,0:0:0:0:
249,47,25966,2,0,P|278:43|311:57,1,60,2|0,0:0|0:0,0:0:0:0:
395,113,26510,5,10,0:0:0:0:
314,184,26874,2,0,P|289:246|306:300,2,120,2|8|0,0:0|0:0|0:0,0:0:0:0:
395,113,27965,2,0,L|405:174,1,60,10|0,0:0|0:0,0:0:0:0:
432,218,28328,2,0,P|445:275|420:329,1,120,2|8,0:0|1:2,0:0:0:0:
302,295,29056,2,0,B|259:294|259:294|225:309|225:309|174:308,1,120,2|10,3:2|1:2,0:0:0:0:
82,292,29783,5,2,3:2:0:0:
82,292,29965,2,0,P|80:321|87:351,2,60,2|10|2,0:0|0:0|0:0,0:0:0:0:
148,206,30692,2,0,P|150:177|142:146,1,60,2|10,0:0|0:0,0:0:0:0:
118,98,31056,2,0,B|92:82|92:82|189:66,1,120,2|0,0:0|0:0,0:0:0:0:
233,59,31601,1,10,0:0:0:0:
330,105,31965,2,0,P|361:110|392:102,2,60,2|2|10,0:0|0:0|0:0,0:0:0:0:
239,164,32692,6,0,P|259:201|245:281,1,120,2|8,3:2|1:2,0:0:0:0:
161,340,33419,2,0,P|141:303|155:223,1,120,2|10,3:2|3:2,0:0:0:0:
239,164,34147,2,0,B|311:153|281:207|374:179,1,120,6|8,0:0|0:0,0:0:0:0:
400,158,34692,1,0,0:0:0:0:
451,63,35056,2,0,P|422:50|385:54,1,60,2|8,3:2|0:0,0:0:0:0:
346,69,35419,1,0,3:0:0:0:
346,69,35601,6,0,P|290:93|217:87,1,120,2|10,3:2|0:0,0:0:0:0:
182,68,36147,2,0,P|143:65|130:144,1,120,2|2,0:0|0:0,0:0:0:0:
54,217,36874,2,0,P|72:261|76:340,1,120,2|2,0:0|0:0,0:0:0:0:
124,368,37419,1,10,0:0:0:0:
124,368,37601,2,0,P|154:359|197:356,1,60,2|0,0:0|0:0,0:0:0:0:
240,264,38147,2,0,L|234:202,1,60,10|0,0:0|0:0,0:0:0:0:
248,152,38510,6,0,P|249:84|225:29,2,120,2|8|0,0:0|0:0|0:0,0:0:0:0:
141,135,39601,2,0,P|108:136|81:143,1,60,10|0,0:0|0:0,0:0:0:0:
35,171,39965,2,0,P|16:231|60:252,1,120,2|8,0:0|1:2,0:0:0:0:
149,308,40692,2,0,B|224:313|190:263|273:273,1,120,2|10,3:2|1:2,0:0:0:0:
367,248,41419,5,2,3:2:0:0:
367,248,41601,2,0,L|430:257,2,60,2|10|2,0:0|0:0|0:0,0:0:0:0:
329,208,42147,2,0,P|307:159|332:93,1,120,2|8,0:0|0:0,0:0:0:0:
373,72,42692,2,0,B|404:66|423:42|423:42|437:68|469:86,2,120,2|2|2,0:0|0:0|0:0,0:0:0:0:
325,46,43601,2,0,P|296:39|262:43,1,60,2|2,0:0|0:0,0:0:0:0:
217,65,43965,1,10,0:0:0:0:
119,18,44328,5,2,3:2:0:0:
39,91,44692,2,0,B|16:123|16:123|24:211,1,120,8|2,3:2|3:2,0:0:0:0:
132,211,45419,2,0,B|197:221|180:179|247:189,1,120,8|2,3:2|3:2,0:0:0:0:
349,156,46147,2,0,P|399:178|384:232,1,120,8|2,3:2|3:2,0:0:0:0:
343,265,46692,1,2,3:2:0:0:
343,265,46874,2,0,P|310:266|283:275,1,60,10|2,3:2|3:2,0:0:0:0:
231,286,47238,6,0,P|156:270|94:279,2,120,6|10|2,0:0|0:0|0:0,0:0:0:0:
337,323,48328,2,0,P|345:294|337:252,1,60,10|2,0:0|0:0,0:0:0:0:
319,215,48692,2,0,P|305:172|337:90,1,120,0|10,0:0|0:0,0:0:0:0:
421,51,49419,2,0,P|435:94|403:176,1,120,2|10,0:0|0:0,0:0:0:0:
319,215,50147,6,0,B|278:211|278:211|243:224|243:224|192:220,2,120,2|10|2,0:0|0:0|0:0,0:0:0:0:
409,273,51238,1,10,0:0:0:0:
318,331,51601,2,0,B|277:335|277:335|242:322|242:322|191:326,1,120,2|10,0:0|0:0,0:0:0:0:
150,346,52147,1,2,0:0:0:0:
150,346,52328,2,0,P|125:294|147:236,1,120,2|10,3:2|3:2,0:0:0:0:
185,201,52874,1,2,3:2:0:0:
185,201,53056,6,0,P|204:146|179:93,1,120,6|10,0:0|1:2,0:0:0:0:
264,26,53783,2,0,B|314:-4|314:-4|385:16,1,120,2|10,0:2|1:2,0:0:0:0:
416,44,54328,1,2,0:0:0:0:
416,44,54510,2,0,P|423:100|397:168,1,120,6|10,0:0|1:2,0:0:0:0:
304,205,55238,2,0,P|297:261|323:329,1,120,10|10,0:2|1:2,0:0:0:0:
289,368,55783,1,0,0:0:0:0:
289,368,55965,6,0,L|191:381,2,90,6|0|0,3:2|3:0|3:0,0:0:0:0:
336,343,56692,2,0,L|434:356,2,90,0|0|0,3:0|3:0|3:0,0:0:0:0:
289,315,57419,6,0,P|269:271|276:217,2,90,2|2|2,3:2|3:2|3:2,0:0:0:0:
336,343,58147,2,0,B|427:355|427:355|488:330|460:265,1,180,2|2,3:2|3:2,0:0:0:0:
453,233,58874,6,0,L|459:170,1,60,6|2,0:0|0:0,0:0:0:0:
441,121,59238,1,2,1:2:0:0:
441,121,59419,2,0,B|368:107|394:157|313:138,1,120,2|2,0:0|0:0,0:0:0:0:
241,206,60147,1,2,0:0:0:0:
241,206,60328,2,0,B|168:220|194:170|113:189,1,120,2|2,0:2|1:2,0:0:0:0:
75,204,60874,2,0,P|54:142|81:77,1,120,0|2,0:0|0:2,0:0:0:0:
113,59,61419,1,0,1:0:0:0:
219,43,61783,6,0,P|257:56|291:133,1,120,2|2,3:2|1:2,0:0:0:0:
319,169,62328,2,0,P|308:227|307:298,2,120,2|2|2,0:0|0:0|0:0,0:0:0:0:
353,127,63238,2,0,P|389:128|427:208,1,120,2|0,0:0|1:0,0:0:0:0:
461,243,63783,1,2,0:0:0:0:
461,243,63965,2,0,P|450:301|449:372,1,120,2|0,0:0|1:0,0:0:0:0:
348,337,64692,5,6,0:0:0:0:
348,337,64874,2,0,P|317:336|287:342,1,60,2|0,0:0|1:0,0:0:0:0:
243,367,65238,1,2,0:0:0:0:
243,367,65419,2,0,P|238:310|215:246,1,120,2|2,0:0|1:2,0:0:0:0:
167,230,65965,1,2,0:0:0:0:
215,135,66328,1,2,0:0:0:0:
215,135,66510,2,0,P|248:137|286:121,1,60,2|2,1:2|0:0,0:0:0:0:
321,102,66874,2,0,P|360:106|433:169,1,120,2|2,0:0|1:2,0:0:0:0:
427,260,67601,6,0,P|397:271|366:270,1,60,6|2,3:2|0:0,0:0:0:0:
320,246,67965,2,0,P|290:235|259:236,1,60,2|2,1:2|0:0,0:0:0:0:
215,262,68328,2,0,P|168:280|128:337,1,120,2|2,0:0|1:2,0:0:0:0:
51,259,69056,2,0,L|38:135,1,120,6|2,3:2|1:2,0:0:0:0:
73,98,69601,1,2,0:2:0:0:
158,163,69965,2,0,L|144:235,2,60,2|2|2,3:2|1:2|0:0,0:0:0:0:
183,115,70510,6,0,P|181:85|171:56,1,60,6|2,0:0|0:0,0:0:0:0:
211,19,70874,1,2,1:2:0:0:
211,19,71055,2,0,P|261:-3|341:31,1,120,2|2,0:0|0:0,0:0:0:0:
386,100,71783,1,2,0:0:0:0:
386,100,71964,2,0,B|365:161|412:160|385:229,1,120,2|2,0:0|1:2,0:0:0:0:
351,254,72510,2,0,P|288:237|221:253,1,120,2|2,0:0|0:0,0:0:0:0:
185,268,73056,1,2,1:2:0:0:
92,323,73419,6,0,P|91:357|99:389,2,60,2|2|2,0:0|0:0|1:2,0:0:0:0:
77,270,73964,2,0,B|81:209|65:141|65:141|80:165|103:184,1,180,2|2,0:0|1:2,0:0:0:0:
153,198,74692,1,0,0:3:0:0:
153,198,74874,2,0,P|204:202|252:148,1,120,2|0,0:0|1:0,0:0:0:0:
207,56,75601,2,0,P|156:52|108:106,1,120,2|2,0:0|1:2,0:0:0:0:
153,198,76328,6,0,B|165:234|155:259|155:259|180:244|220:251,1,120,6|0,0:0|1:0,0:0:0:0:
261,270,76874,1,2,0:0:0:0:
261,270,77055,2,0,B|319:261|313:314|378:301,1,120,2|2,0:0|1:2,0:0:0:0:
463,243,77783,1,2,0:0:0:0:
413,146,78147,2,0,P|380:144|342:160,1,60,2|0,1:2|0:0,0:0:0:0:
302,167,78510,2,0,P|257:127|199:116,1,120,2|2,0:0|1:2,0:0:0:0:
107,174,79238,6,0,P|95:232|114:288,1,120,2|0,0:2|1:0,0:0:0:0:
162,313,79783,1,2,0:0:0:0:
162,313,79965,2,0,P|167:349|159:384,2,60,2|2|2,0:0|0:0|1:2,0:0:0:0:
225,225,80692,6,0,L|344:212,1,120,2|0,0:2|1:0,0:0:0:0:
394,193,81237,1,0,0:0:0:0:
394,193,81419,2,0,P|424:184|467:194,2,60,2|2|2,3:2|3:2|1:2,0:0:0:0:
288,219,82147,6,0,L|275:100,1,120,6|0,0:0|1:0,0:0:0:0:
245,54,82692,1,0,0:0:0:0:
245,54,82874,2,0,P|191:49|148:108,1,120,2|2,0:0|1:2,0:0:0:0:
195,192,83601,1,2,0:0:0:0:
92,226,83965,2,0,P|61:225|34:213,1,60,2|0,1:2|0:0,0:0:0:0:
6,168,84328,2,0,P|64:126|129:129,1,120,2|2,0:0|1:2,0:0:0:0:
195,192,85056,6,0,B|187:268|187:268|205:312,1,120,6|0,0:0|0:0,0:0:0:0:
308,308,85783,6,0,B|324:268|324:268|317:192,1,120,2|0,1:2|0:0,0:0:0:0:
256,103,86510,6,0,P|195:72|125:81,2,120,2|2|2,1:2|1:2|1:2,0:0:0:0:
309,97,87419,1,0,0:0:0:0:
309,97,87601,2,0,P|340:87|374:89,1,60,2|0,1:2|0:0,0:0:0:0:
406,125,87965,6,0,P|416:156|414:190,1,60,6|0,3:2|0:0,0:0:0:0:
387,229,88329,1,0,1:0:0:0:
387,229,88510,2,0,P|342:271|273:252,1,120,2|0,0:0|0:0,0:0:0:0:
249,224,89056,1,0,1:0:0:0:
152,271,89420,6,0,P|124:280|93:281,1,60,2|0,3:2|0:0,0:0:0:0:
53,243,89784,1,0,1:0:0:0:
53,243,89965,2,0,L|73:115,1,120,2|0,0:0|0:0,0:0:0:0:
105,81,90511,1,0,1:0:0:0:
190,147,90875,6,0,L|181:214,2,60,2|0|0,3:2|0:0|1:0,0:0:0:0:
215,99,91420,2,0,P|266:84|333:126,1,120,2|2,0:0|0:0,0:0:0:0:
408,188,92147,1,0,0:0:0:0:
408,188,92328,2,0,L|475:197,2,60,2|0|2,3:2|0:0|1:2,0:0:0:0:
362,217,92875,2,0,P|373:281|337:342,1,120,0|0,0:0|3:0,0:0:0:0:
299,346,93420,1,0,1:0:0:0:
226,265,93784,6,0,L|166:256,1,60,6|0,0:0|0:0,0:0:0:0:
118,281,94148,1,0,1:0:0:0:
118,281,94328,2,0,P|89:242|105:164,1,120
140,141,94875,1,0,1:0:0:0:
245,163,95239,6,0,L|304:175,1,60
356,162,95601,1,0,1:0:0:0:
356,162,95783,2,0,P|328:109|354:52,1,120
399,37,96328,1,0,1:0:0:0:
483,103,96693,6,0,L|472:233,1,120,2|0,3:2|1:0,0:0:0:0:
435,262,97238,1,0,0:0:0:0:
435,262,97419,2,0,P|408:251|374:255,1,60,2|2,3:2|0:0,0:0:0:0:
326,273,97784,1,10,1:2:0:0:
236,333,98147,6,0,L|106:322,1,120,6|8,3:2|1:2,0:0:0:0:
81,289,98692,1,0,0:0:0:0:
81,289,98874,2,0,P|78:259|89:231,1,60,2|2,3:2|0:0,0:0:0:0:
122,188,99238,1,10,1:2:0:0:
226,160,99602,6,0,P|229:102|183:44,1,120,6|8,3:2|1:2,0:0:0:0:
142,62,100147,1,0,0:0:0:0:
142,62,100328,2,0,L|84:75,1,60,2|2,3:2|0:0,0:0:0:0:
45,112,100692,1,10,1:2:0:0:
70,217,101056,6,0,P|128:220|186:174,1,120,6|8,3:2|1:2,0:0:0:0:
226,160,101601,1,2,0:0:0:0:
226,160,101784,2,0,L|287:165,1,60,2|0,3:2|0:0,0:0:0:0:
328,198,102146,1,10,1:2:0:0:
424,148,102510,6,0,B|480:131|520:39|431:12|397:56,2,180,6|0|0,3:2|1:0|1:0,0:0:0:0:
372,150,103783,2,0,B|314:134|272:43|359:14|394:58,1,180,0|0,1:0|0:0,0:0:0:0:
