osu file format v14

[General]
AudioFilename: audio.mp3
AudioLeadIn: 0
PreviewTime: 58072
Countdown: 0
SampleSet: Soft
StackLeniency: 0.4
Mode: 0
LetterboxInBreaks: 0
WidescreenStoryboard: 1

[Editor]
DistanceSpacing: 0.9
BeatDivisor: 4
GridSize: 8
TimelineZoom: 1.6

[Metadata]
Title:Goshujinsama wa Otawamure (Cut Ver.)
TitleUnicode:ご主人様はおたわむれ (Cut Ver.)
Artist:Kagura Mea
ArtistUnicode:神楽めあ
Creator:Present
Version:MeaMea
Source:
Tags:Japanese Pop vtuber virtual youtuber niconico bilibili kuse KuBsNia_ZhoYL_ AngelSnow StrengeMistake
BeatmapID:2808470
BeatmapSetID:1356952

[Difficulty]
HPDrainRate:5
CircleSize:4
OverallDifficulty:8.8
ApproachRate:9
SliderMultiplier:1.8
SliderTickRate:1

[Events]
//Background and Video events
0,0,"mea.jpg",0,0
//Break Periods
//Storyboard Layer 0 (Background)
//Storyboard Layer 1 (Fail)
//Storyboard Layer 2 (Pass)
//Storyboard Layer 3 (Foreground)
//Storyboard Layer 4 (Overlay)
//Storyboard Sound Samples

[TimingPoints]
-762,363.636363636364,4,2,1,60,1,0
10874,-66.6666666666667,4,2,1,35,0,0
11056,-66.6666666666667,4,2,1,5,0,0
11147,-66.6666666666667,4,2,1,35,0,0
11328,-66.6666666666667,4,2,1,5,0,0
11419,-66.6666666666667,4,2,1,35,0,0
11601,-66.6666666666667,4,2,1,5,0,0
11783,-100,4,2,1,50,0,0
12328,-100,4,2,1,50,0,0
23965,-111.111111111111,4,2,1,50,0,0
44328,-111.111111111111,4,2,1,50,0,0
44601,-111.111111111111,4,2,1,5,0,0
44692,-111.111111111111,4,2,1,50,0,0
45056,-111.111111111111,4,2,1,50,0,0
45328,-111.111111111111,4,2,1,5,0,0
45419,-111.111111111111,4,2,1,50,0,0
46056,-111.111111111111,4,2,1,5,0,0
46147,-111.111111111111,4,2,1,50,0,0
55965,-100,4,2,1,50,0,0
58874,-90.9090909090909,4,2,1,60,0,1
75147,-90.9090909090909,4,2,1,5,0,1
75238,-90.9090909090909,4,2,1,60,0,1
87965,-100,4,2,1,50,0,0
96692,-100,4,2,1,60,0,1
102510,-83.3333333333333,4,2,1,60,0,0
104147,-83.3333333333333,4,2,1,5,0,0

[Colours]
Combo1 : 0,128,255
Combo2 : 255,64,64
Combo3 : 255,128,64
Combo4 : 255,255,96

[HitObjects]
88,120,10692,5,0,3:0:0:0:
88,120,10783,1,0,3:0:0:0:
88,120,10874,2,0,P|137:68|177:98,1,135.000005149842,6|0,3:0|0:0,0:0:0:0:
177,98,11147,2,0,P|246:114|240:164,1,135.000005149842,2|0,3:0|0:0,0:0:0:0:
240,164,11419,2,0,P|260:232|214:252,1,135.000005149842,2|0,3:0|0:0,0:0:0:0:
212,251,11783,6,0,L|165:264,1,45,8|0,3:2|0:0,0:0:0:0:
88,358,11965,2,0,L|100:310,1,45,8|0,3:2|0:0,0:0:0:0:
56,200,12147,2,0,L|90:234,1,45,8|0,3:2|0:0,0:0:0:0:
220,338,12328,5,6,3:2:0:0:
276,197,12510,1,0,0:0:0:0:
367,318,12692,1,0,1:0:0:0:
311,116,12874,2,0,B|256:98|220:130|220:130|180:162|132:141,1,180,2|0,0:0|0:0,0:0:0:0:
46,8,13419,2,0,P|64:46|68:105,1,90,0|0,1:0|0:0,0:0:0:0:
78,216,13783,5,2,3:2:0:0:
164,68,13965,1,0,0:0:0:0:
276,197,14147,1,0,1:0:0:0:
140,279,14328,2,0,B|87:309|43:279|43:279|36:241|77:216,1,180,2|0,0:0|0:0,0:0:0:0:
210,241,14874,2,0,P|220:284|201:330,1,90,0|0,1:0|0:0,0:0:0:0:
360,202,15238,6,0,P|316:212|271:193,1,90,2|0,3:2|0:0,0:0:0:0:
430,151,15601,1,0,1:0:0:0:
412,267,15783,2,0,P|396:308|406:351,1,90,2|0,0:0|0:0,0:0:0:0:
500,198,16147,2,0,P|515:156|505:113,1,90,2|0,0:0|1:0,0:0:0:0:
313,39,16510,1,0,0:0:0:0:
430,151,16692,5,2,3:2:0:0:
275,196,16874,1,0,0:0:0:0:
313,39,17056,1,0,1:0:0:0:
371,244,17238,1,0,0:0:0:0:
198,147,17419,5,2,3:2:0:0:
472,88,17601,2,0,P|498:85|516:89,2,45,0|0|0,3:0|3:0|1:0,0:0:0:0:
371,244,17965,1,2,3:2:0:0:
198,147,18147,5,6,3:2:0:0:
77,246,18328,1,0,0:0:0:0:
222,303,18510,1,0,1:0:0:0:
267,99,18692,2,0,B|220:46|160:71|160:71|129:83|100:78,1,180,2|0,0:2|0:0,0:0:0:0:
271,185,19238,2,0,P|313:192|364:165,1,90,0|0,1:0|0:0,0:0:0:0:
450,70,19601,5,2,3:2:0:0:
425,242,19783,1,0,0:0:0:0:
512,130,19965,1,0,1:0:0:0:
355,173,20147,2,0,B|354:215|339:248|339:248|350:294|350:294|356:324|335:356,1,180,2|0,0:0|0:0,0:0:0:0:
168,320,20692,2,0,P|209:306|259:303,1,90,0|0,1:0|0:0,0:0:0:0:
425,242,21056,5,2,3:2:0:0:
377,87,21238,1,0,0:0:0:0:
263,211,21419,1,2,1:2:0:0:
294,30,21601,1,0,0:0:0:0:
459,146,21783,1,2,3:2:0:0:
219,107,21965,1,2,0:0:0:0:
432,24,22147,1,2,1:2:0:0:
263,211,22328,1,2,0:0:0:0:
294,30,22510,5,2,3:2:0:0:
425,242,22692,1,0,0:0:0:0:
219,107,22874,1,2,1:2:0:0:
425,242,23056,1,0,0:0:0:0:
263,211,23238,1,2,3:2:0:0:
425,242,23419,1,0,0:0:0:0:
320,314,23601,1,2,1:2:0:0:
425,242,23783,1,2,0:0:0:0:
280,134,23965,6,0,P|263:172|265:222,1,80.9999975280763,6|0,0:0|0:3,0:3:0:0:
320,314,24328,1,10,0:0:0:0:
200,310,24510,2,0,B|163:296|136:302|107:319|107:319|80:288|105:242,1,161.999995056153,2|2,0:0|0:0,0:0:0:0:
136,160,25056,1,8,0:0:0:0:
262,210,25238,1,2,0:0:0:0:
182,87,25419,6,0,P|140:71|88:88,1,80.9999975280763,0|2,0:0|0:0,0:0:0:0:
262,210,25783,1,10,0:0:0:0:
264,74,25965,2,0,P|245:32|196:8,1,80.9999975280763,2|0,0:0|0:0,0:0:0:0:
262,210,26328,1,0,0:0:0:0:
339,124,26510,2,0,P|354:81|338:29,1,80.9999975280763,10|0,0:0|0:0,0:0:0:0:
376,238,26874,6,0,B|417:275|417:275|391:382,2,161.999995056153,2|8|0,0:0|0:0|0:0,0:0:0:0:
321,310,27783,1,0,0:0:0:0:
326,162,27965,2,0,P|362:149|405:152,1,80.9999975280763,10|0,0:0|0:0,0:0:0:0:
268,234,28328,6,0,B|208:229|208:229|174:249|174:249|110:243,1,161.999995056153,2|8,0:0|1:2,0:0:0:0:
226,315,28874,1,0,0:0:0:0:
146,163,29056,2,0,P|133:127|135:84,1,80.9999975280763,2|0,3:2|0:0,0:0:0:0:
247,31,29419,2,0,P|250:71|236:109,1,80.9999975280763,10|0,1:2|0:0,0:0:0:0:
185,244,29783,5,2,3:2:0:0:
322,179,29965,1,2,0:0:0:0:
146,163,30147,1,10,0:0:0:0:
301,269,30328,2,0,P|342:272|388:240,1,80.9999975280763,2|0,0:0|0:0,0:0:0:0:
427,115,30692,1,2,0:0:0:0:
322,179,30874,1,10,0:0:0:0:
471,232,31056,1,2,0:0:0:0:
493,54,31238,6,0,P|441:24|383:37,1,121.499996292114,0|0,0:0|0:0,0:0:0:0:
323,80,31601,2,0,P|289:88|237:63,1,80.9999975280763,10|0,0:0|0:0,0:0:0:0:
138,9,31965,1,2,0:0:0:0:
33,62,32147,1,2,0:0:0:0:
134,164,32328,1,10,0:0:0:0:
138,9,32510,1,0,0:0:0:0:
22,223,32692,6,0,P|17:248|18:270,2,40.4999987640381,2|0|0,3:2|3:0|3:0,0:0:0:0:
134,164,33056,2,0,P|175:189|188:227,1,80.9999975280763,8|0,1:2|0:0,0:0:0:0:
154,384,33419,1,2,3:2:0:0:
118,259,33601,1,0,3:0:0:0:
239,284,33783,2,0,P|281:290|328:264,1,80.9999975280763,10|0,3:2|0:0,0:0:0:0:
321,114,34147,6,0,P|272:163|277:232,1,121.499996292114,6|0,0:0|0:0,0:0:0:0:
315,275,34510,1,8,0:0:0:0:
470,221,34692,1,0,0:0:0:0:
321,114,35056,6,0,L|311:73,2,40.4999987640381,2|0|8,3:2|3:0|0:0,0:0:0:0:
315,275,35419,1,0,3:0:0:0:
230,153,35601,5,2,3:2:0:0:
387,196,35783,1,2,0:0:0:0:
230,250,35965,1,10,0:0:0:0:
74,200,36147,2,0,P|67:162|81:114,1,80.9999975280763,2|0,0:0|0:0,0:0:0:0:
108,278,36510,2,0,P|78:303|30:314,1,80.9999975280763,2|8,0:0|0:0,0:0:0:0:
74,200,36874,1,2,0:0:0:0:
163,208,37056,6,0,P|199:220|233:257,1,80.9999975280763,0|2,0:0|0:0,0:0:0:0:
387,313,37419,1,10,0:0:0:0:
369,216,37601,1,2,0:0:0:0:
244,345,37783,2,0,L|233:385,2,40.4999987640381,0|0|0,0:0|0:0|0:0,0:0:0:0:
292,193,38147,2,0,L|316:114,1,80.9999975280763,10|0,0:0|0:0,0:0:0:0:
230,43,38510,6,0,B|185:29|146:58|146:58|109:83|61:69,2,161.999995056153,2|8|0,0:0|0:0|0:0,0:0:0:0:
315,115,39419,1,0,0:0:0:0:
239,197,39601,2,0,P|217:166|208:104,1,80.9999975280763,10|0,0:0|0:0,0:0:0:0:
351,28,39965,2,0,B|404:53|418:-6|473:45|473:45|456:58|448:80,1,161.999995056153,2|8,0:0|1:2,0:0:0:0:
489,208,40510,1,0,0:0:0:0:
393,123,40692,2,0,P|354:111|314:114,1,80.9999975280763,2|0,3:2|0:0,0:0:0:0:
296,288,41056,2,0,P|325:260|342:224,1,80.9999975280763,10|0,1:2|0:0,0:0:0:0:
207,124,41419,6,0,P|216:163|239:197,1,80.9999975280763,2|2,3:2|0:0,0:0:0:0:
342,224,41783,1,10,0:0:0:0:
188,289,41965,1,2,0:0:0:0:
314,366,42147,1,2,0:0:0:0:
238,196,42328,2,0,P|199:184|159:187,1,80.9999975280763,2|8,0:0|0:0,0:0:0:0:
79,254,42692,6,0,P|55:193|72:129,1,121.499996292114,2|0,0:0|0:0,0:0:0:0:
142,103,43056,2,0,P|134:60|103:29,1,80.9999975280763,2|8,0:0|0:0,0:0:0:0:
10,81,43419,1,2,0:0:0:0:
225,52,43601,1,2,0:0:0:0:
159,186,43783,1,2,0:0:0:0:
304,117,43965,2,0,P|343:118|382:134,1,80.9999975280763,10|0,0:0|0:0,0:0:0:0:
313,308,44328,6,0,P|326:264|383:209,1,121.499996292114,2|0,3:2|0:0,0:0:0:0:
453,177,44692,2,0,L|479:183,6,20.2499993820191,8|0|0|0|0|0|0,3:2|0:2|0:2|0:2|0:2|0:2|0:2,0:2:0:0:
448,258,45056,6,0,B|435:323|481:306|466:382,1,121.499996292114,2|0,3:2|0:0,0:0:0:0:
385,357,45419,2,0,L|359:366,6,20.2499993820191,8|0|0|0|0|0|0,3:2|0:0|0:0|0:0|0:0|0:0|0:0,0:0:0:0:
313,308,45783,6,0,L|180:300,1,121.499996292114,2|0,3:2|0:0,0:0:0:0:
117,327,46147,2,0,L|102:349,6,20.2499993820191,8|0|0|0|0|0|0,3:2|0:0|0:0|0:0|0:0|0:0|0:0,0:0:0:0:
131,247,46510,5,2,3:2:0:0:
35,125,46692,1,2,3:2:0:0:
35,125,46783,1,0,3:0:0:0:
35,125,46874,1,10,3:2:0:0:
198,96,47056,1,2,3:2:0:0:
303,224,47238,6,0,P|342:231|387:215,1,80.9999975280763,6|0,0:0|0:0,0:0:0:0:
334,77,47601,2,0,P|326:116|342:161,1,80.9999975280763,10|0,0:0|0:0,0:0:0:0:
487,106,47965,2,0,P|448:98|403:114,1,80.9999975280763,2|0,0:0|0:0,0:0:0:0:
457,257,48328,2,0,P|464:218|448:173,1,80.9999975280763,10|2,0:0|0:0,0:0:0:0:
334,77,48692,5,0,0:0:0:0:
380,219,48874,1,2,0:0:0:0:
234,189,49056,2,0,P|195:180|153:191,1,80.9999975280763,10|0,0:0|0:0,0:0:0:0:
30,259,49419,1,2,0:0:0:0:
113,116,49601,1,0,0:0:0:0:
196,259,49783,2,0,P|205:298|196:337,1,80.9999975280763,10|0,0:0|0:0,0:0:0:0:
155,189,50147,6,0,P|218:183|265:220,1,121.499996292114,2|0,0:0|0:0,0:0:0:0:
330,177,50510,2,0,P|320:137|329:98,1,80.9999975280763,10|0,0:0|0:0,0:0:0:0:
467,78,50874,1,2,0:0:0:0:
417,207,51056,1,0,0:0:0:0:
329,98,51238,2,0,P|286:95|244:109,1,80.9999975280763,10|0,0:0|0:0,0:0:0:0:
118,191,51601,5,2,0:0:0:0:
175,44,51783,1,0,0:0:0:0:
216,197,51965,1,10,0:0:0:0:
93,97,52147,1,2,0:0:0:0:
250,105,52328,2,0,L|279:102,6,20.2499993820191,2|0|0|0|0|0|0,3:2|0:0|0:0|0:0|0:0|0:0|0:0,0:0:0:0:
216,197,52692,6,0,P|223:218|226:238,1,40.4999987640381,10|0,3:2|0:0,0:0:0:0:
306,280,52874,2,0,P|299:301|296:321,1,40.4999987640381,2|0,3:2|0:0,0:0:0:0:
211,351,53056,6,0,P|169:356|129:335,1,80.9999975280763,6|0,0:0|0:0,0:0:0:0:
93,178,53419,1,10,1:2:0:0:
299,205,53601,1,0,0:0:0:0:
113,260,53783,1,2,0:2:0:0:
213,84,53965,1,0,0:0:0:0:
392,178,54147,1,10,1:2:0:0:
206,233,54328,1,2,0:0:0:0:
298,59,54510,5,6,0:0:0:0:
369,311,54692,1,0,0:0:0:0:
405,81,54874,1,10,1:2:0:0:
286,274,55056,1,0,0:0:0:0:
480,155,55238,5,10,0:2:0:0:
206,233,55420,1,0,0:0:0:0:
467,338,55601,2,0,L|470:291,3,40.4999987640381,10|0|0|0,1:2|0:0|0:0|0:0,0:0:0:0:
480,155,55965,6,0,P|432:175|353:163,1,90,6|0,3:2|0:0,0:0:0:0:
323,149,56238,2,0,P|300:144|275:150,1,45,0|8,3:0|0:0,0:0:0:0:
297,305,56510,1,0,3:0:0:0:
109,348,56692,6,0,L|99:256,1,90,0|0,3:0|0:0,0:0:0:0:
157,205,56965,2,0,P|161:183|160:161,1,45,0|10,3:0|0:0,0:0:0:0:
31,227,57238,1,0,3:0:0:0:
31,227,57328,1,0,3:0:0:0:
31,227,57419,6,0,P|11:177|19:134,1,90,2|0,3:2|0:0,0:0:0:0:
73,83,57692,2,0,B|88:64|98:46|98:46|111:61|138:77,1,90,2|0,3:2|0:0,0:0:0:0:
211,107,57965,1,2,3:2:0:0:
232,262,58147,6,0,B|271:263|296:286|296:286|324:247|381:244,2,135,2|2|2,3:2|3:2|3:2,0:0:0:0:
137,339,58874,5,6,0:0:0:0:
81,145,59056,1,2,0:0:0:0:
279,181,59238,1,2,1:2:0:0:
105,247,59419,2,0,P|51:248|3:213,1,99.0000030212403,2|0,0:0|0:0,0:0:0:0:
187,159,59783,2,0,P|241:158|289:193,1,99.0000030212403,2|0,0:0|1:0,0:0:0:0:
105,247,60147,1,2,0:0:0:0:
172,81,60328,6,0,B|172:62|182:40|182:40|128:8|73:48,1,148.50000453186,2|0,0:2|0:0,0:0:0:0:
21,89,60692,1,2,1:2:0:0:
157,284,60874,1,0,0:0:0:0:
13,225,61056,1,0,0:0:0:0:
278,180,61238,2,0,P|297:174|329:181,2,49.5000015106202,2|0|0,0:2|0:0|1:0,0:0:0:0:
183,30,61601,1,2,0:0:0:0:
407,142,61783,6,0,B|432:207|384:203|414:268|414:268|429:300|397:347,1,198.000006042481,2|2,3:2|1:2,0:0:0:0:
240,297,62328,2,0,P|288:280|334:289,1,99.0000030212403,2|0,0:0|0:0,0:0:0:0:
175,140,62692,2,0,P|192:188|183:234,1,99.0000030212403,2|0,0:0|1:0,0:0:0:0:
240,72,63056,1,2,0:0:0:0:
10,223,63238,6,0,B|54:179|115:200|115:200|96:220|89:249,1,148.50000453186,2|0,0:0|0:0,0:0:0:0:
133,303,63601,1,0,1:0:0:0:
284,185,63783,1,2,0:0:0:0:
67,100,63965,2,0,P|64:156|83:197,1,99.0000030212403,2|0,0:0|0:0,0:0:0:0:
240,72,64328,2,0,P|192:41|146:37,1,99.0000030212403,0|0,1:0|0:0,0:0:0:0:
202,218,64692,5,6,0:0:0:0:
386,80,64874,2,0,P|388:137|369:178,1,99.0000030212403,2|0,0:0|1:0,0:0:0:0:
406,299,65238,1,2,0:0:0:0:
202,218,65419,1,2,0:0:0:0:
307,120,65601,1,2,0:0:0:0:
236,306,65783,1,2,1:2:0:0:
168,120,65965,1,2,0:0:0:0:
20,237,66147,6,0,P|1:290|12:339,1,99.0000030212403,0|2,0:0|0:0,0:0:0:0:
173,340,66510,1,2,1:2:0:0:
43,157,66692,1,2,0:0:0:0:
86,378,66874,2,0,P|141:367|178:333,1,99.0000030212403,2|0,0:0|0:0,0:0:0:0:
116,199,67238,2,0,P|161:217|191:256,1,99.0000030212403,2|0,1:2|0:0,0:0:0:0:
341,344,67601,5,6,3:2:0:0:
303,111,67783,1,2,0:0:0:0:
438,351,67965,1,2,1:2:0:0:
462,98,68147,1,2,0:0:0:0:
271,289,68328,6,0,P|254:340|262:392,1,99.0000030212403,2|0,0:0|0:0,0:0:0:0:
485,272,68692,2,0,P|489:223|473:176,1,99.0000030212403,2|0,1:2|0:0,0:0:0:0:
175,131,69056,6,0,B|214:115|232:87|232:87|256:108|323:112,1,148.50000453186,6|0,3:2|0:0,0:0:0:0:
387,163,69419,1,2,1:2:0:0:
150,246,69601,1,2,0:2:0:0:
150,246,69965,6,0,P|143:277|144:306,2,49.5000015106202,2|0|2,3:2|3:0|1:2,0:0:0:0:
232,93,70328,1,2,0:0:0:0:
64,153,70510,5,6,0:0:0:0:
267,204,70692,1,2,0:0:0:0:
206,5,70874,1,2,1:2:0:0:
64,153,71056,2,0,P|45:198|52:246,1,99.0000030212403,2|0,0:0|0:0,0:0:0:0:
192,189,71419,2,0,P|199:140|180:95,1,99.0000030212403,2|0,0:0|1:0,0:0:0:0:
144,284,71783,1,2,0:0:0:0:
331,336,71965,6,0,B|355:257|355:257|326:227|332:164,1,148.50000453186,2|0,0:0|0:0,0:0:0:0:
369,119,72328,1,2,1:2:0:0:
256,280,72510,1,2,0:0:0:0:
418,196,72692,1,0,0:0:0:0:
279,118,72874,2,0,P|252:114|232:120,2,49.5000015106202,2|0|2,0:0|0:0|1:2,0:0:0:0:
341,239,73237,1,2,0:0:0:0:
109,313,73419,5,2,0:0:0:0:
155,159,73601,1,2,0:0:0:0:
263,277,73783,1,2,1:2:0:0:
51,208,73964,2,0,B|58:129|139:108|139:108|139:146|163:169,1,198.000006042481,2|0,0:0|0:0,0:0:0:0:
263,277,74510,2,0,P|212:280|170:260,1,99.0000030212403,2|0,1:2|0:3,0:3:0:0:
218,111,74874,6,0,B|244:148|230:196|230:196|270:170|318:187,1,148.50000453186,2|0,0:0|0:0,0:0:0:0:
373,198,75238,1,0,1:0:0:0:
327,363,75419,1,0,0:0:0:0:
440,257,75601,2,0,P|460:208|454:162,1,99.0000030212403,2|0,0:0|0:0,0:0:0:0:
286,180,75965,2,0,P|292:232|321:268,1,99.0000030212403,2|0,1:2|0:0,0:0:0:0:
443,89,76328,6,0,B|393:75|358:107|358:107|303:91|303:91|277:107|236:106,1,198.000006042481,6|0,0:0|1:0,0:0:0:0:
373,198,76874,1,2,0:0:0:0:
203,274,77056,2,0,P|193:232|211:172,1,99.0000030212403,2|0,0:0|0:0,0:0:0:0:
47,317,77419,2,0,P|95:307|142:320,1,99.0000030212403,2|0,1:2|0:0,0:0:0:0:
3,157,77783,2,0,P|13:199|-5:259,1,99.0000030212403,2|0,0:0|0:0,0:0:0:0:
159,114,78146,2,0,P|110:123|63:110,1,99.0000030212403,2|0,1:2|0:0,0:0:0:0:
263,30,78510,1,2,0:0:0:0:
206,178,78692,1,0,0:0:0:0:
68,19,78874,2,0,P|116:9|163:22,1,99.0000030212403,2|0,1:2|0:0,0:0:0:0:
298,127,79238,6,0,B|447:118|447:118|420:109|407:86,1,198.000006042481,2|0,0:2|1:0,0:0:0:0:
263,30,79783,1,2,0:0:0:0:
206,178,79965,1,2,0:0:0:0:
378,206,80147,1,2,0:0:0:0:
221,265,80328,2,0,P|217:314|233:361,1,99.0000030212403,2|0,1:2|0:0,0:0:0:0:
206,178,80692,6,0,B|138:159|138:159|73:142|14:198,1,198.000006042481,2|0,0:2|1:0,0:0:0:0:
2,362,81238,1,0,0:0:0:0:
103,246,81419,1,2,3:2:0:0:
76,355,81601,1,2,3:2:0:0:
53,174,81783,2,0,P|42:124|61:79,1,99.0000030212403,2|0,1:2|0:0,0:0:0:0:
319,119,82147,6,0,P|250:147|117:128,1,198.000006042481,6|0,0:0|1:0,0:0:0:0:
212,14,82692,1,0,0:0:0:0:
223,152,82874,6,0,L|233:255,1,99.0000030212403,2|0,0:0|0:0,0:0:0:0:
338,316,83238,2,0,L|348:213,1,99.0000030212403,2|0,1:2|0:0,0:0:0:0:
155,257,83601,2,0,L|165:360,1,99.0000030212403,2|0,0:0|0:0,0:0:0:0:
338,316,83965,2,0,L|348:213,1,99.0000030212403,2|0,1:2|0:0,0:0:0:0:
278,74,84328,1,2,0:0:0:0:
417,122,84510,1,0,0:0:0:0:
223,152,84692,2,0,L|121:141,1,99.0000030212403,2|0,1:2|0:0,0:0:0:0:
278,74,85056,6,0,B|336:135|296:207|296:207|322:182|368:189,1,198.000006042481,6|0,0:0|0:0,0:0:0:0:
223,152,85783,6,0,B|220:236|141:258|141:258|177:259|205:296,1,198.000006042481,2|0,1:2|0:0,0:0:0:0:
128,166,86510,6,0,B|66:223|-4:182|-4:182|19:209|14:255,2,198.000006042481,2|2|2,1:2|1:2|1:2,0:0:0:0:
201,60,87419,1,0,0:0:0:0:
261,175,87601,2,0,P|236:217|233:266,1,99.0000030212403,2|0,1:2|0:0,0:0:0:0:
358,252,87965,5,6,3:2:0:0:
130,284,88147,1,0,0:0:0:0:
284,354,88328,1,0,1:0:0:0:
260,175,88510,2,0,B|205:193|169:161|169:161|129:129|81:150,1,180,2|0,0:0|0:0,0:0:0:0:
200,10,89056,2,0,P|218:48|222:107,1,90,0|0,1:0|0:0,0:0:0:0:
101,230,89419,5,2,3:2:0:0:
268,278,89601,1,0,0:0:0:0:
174,165,89783,1,0,1:0:0:0:
238,353,89965,2,0,B|289:367|322:339|322:339|361:305|407:324,1,180,2|0,0:0|0:0,0:0:0:0:
305,201,90510,2,0,P|274:233|268:282,1,90,0|0,1:0|0:0,0:0:0:0:
393,192,90874,6,0,P|380:149|340:119,1,90,2|0,3:2|0:0,0:0:0:0:
196,204,91238,1,0,1:0:0:0:
358,274,91419,2,0,P|400:284|446:265,1,90,2|0,0:0|0:0,0:0:0:0:
430,116,91783,2,0,P|387:105|341:124,1,90,2|0,0:0|1:0,0:0:0:0:
196,204,92147,1,0,0:0:0:0:
393,192,92328,5,2,3:2:0:0:
158,116,92510,1,0,0:0:0:0:
234,289,92692,1,2,1:2:0:0:
256,70,92874,1,0,0:0:0:0:
76,151,93056,5,2,3:2:0:0:
234,289,93238,2,0,L|247:336,2,45,0|0|0,3:0|3:0|1:0,0:0:0:0:
256,70,93601,1,2,3:2:0:0:
107,259,93783,5,6,0:0:0:0:
311,203,93965,1,0,0:0:0:0:
76,151,94147,1,0,1:0:0:0:
139,358,94328,2,0,B|168:353|199:365|199:365|259:390|306:337,1,180,2|0,0:0|0:0,0:0:0:0:
311,203,94874,2,0,P|272:185|215:198,1,90,0|0,1:0|0:0,0:0:0:0:
57,328,95237,5,2,3:2:0:0:
256,277,95419,1,0,0:0:0:0:
55,208,95601,1,0,1:0:0:0:
139,358,95783,2,0,B|152:333|144:303|144:303|129:259|129:259|148:223|140:182,1,180,2|0,0:0|0:0,0:0:0:0:
204,42,96328,2,0,P|225:76|234:139,1,90,0|0,1:0|0:0,0:0:0:0:
237,266,96692,5,2,3:2:0:0:
403,188,96874,1,0,0:0:0:0:
223,272,97055,1,8,1:2:0:0:
444,296,97237,1,0,0:0:0:0:
433,60,97419,5,2,3:2:0:0:
258,110,97601,1,2,0:0:0:0:
304,281,97783,1,10,1:2:0:0:
477,232,97964,1,2,0:0:0:0:
172,167,98147,6,0,P|150:221|157:255,1,90,6|0,3:2|0:0,0:0:0:0:
323,360,98510,1,8,1:2:0:0:
258,110,98692,1,0,0:0:0:0:
214,347,98874,5,2,3:2:0:0:
366,136,99055,1,2,0:0:0:0:
155,251,99237,1,10,1:2:0:0:
419,299,99419,1,2,0:0:0:0:
203,162,99601,5,6,3:2:0:0:
433,126,99783,1,0,0:0:0:0:
216,133,99965,1,8,1:2:0:0:
423,156,100147,1,0,0:0:0:0:
149,62,100328,5,2,3:2:0:0:
118,286,100510,1,2,0:2:0:0:
344,313,100692,1,10,1:2:0:0:
375,89,100874,1,2,0:2:0:0:
136,52,101056,5,6,2:2:0:0:
101,296,101238,1,0,2:0:0:0:
351,325,101420,1,8,2:2:0:0:
385,80,101602,1,2,2:0:0:0:
128,36,101783,5,2,3:2:0:0:
91,307,101965,1,2,0:0:0:0:
364,338,102147,1,10,1:2:0:0:
401,67,102329,1,0,0:0:0:0:
229,236,102510,6,0,B|194:214|158:166|217:109|250:152|250:152|297:105|343:173|307:225|256:244,1,323.999990112305,6|0,3:2|1:0,0:0:0:0:
253,321,103601,5,0,1:0:0:0:
113,191,103783,2,0,B|85:197|63:231|63:231|105:149|77:79|77:79,1,215.999993408203,0|0,1:0|0:0,0:0:0:0:
