osu file format v14

[General]
AudioFilename: audio.mp3
AudioLeadIn: 0
PreviewTime: 58072
Countdown: 0
SampleSet: Soft
StackLeniency: 0.3
Mode: 0
LetterboxInBreaks: 0
WidescreenStoryboard: 1

[Editor]
DistanceSpacing: 0.9
BeatDivisor: 4
GridSize: 8
TimelineZoom: 1.5

[Metadata]
Title:Goshujinsama wa Otawamure (Cut Ver.)
TitleUnicode:ご主人様はおたわむれ (Cut Ver.)
Artist:Kagura Mea
ArtistUnicode:神楽めあ
Creator:Present
Version:Kuse's Hard
Source:
Tags:Japanese Pop vtuber virtual youtuber niconico bilibili kuse KuBsNia_ZhoYL_ AngelSnow StrengeMistake
BeatmapID:2813701
BeatmapSetID:1356952

[Difficulty]
HPDrainRate:3.5
CircleSize:3.5
OverallDifficulty:7
ApproachRate:7.7
SliderMultiplier:1.4
SliderTickRate:1

[Events]
//Background and Video events
0,0,"mea.jpg",0,0
//Break Periods
//Storyboard Layer 0 (Background)
//Storyboard Layer 1 (Fail)
//Storyboard Layer 2 (Pass)
//Storyboard Layer 3 (Foreground)
//Storyboard Layer 4 (Overlay)
//Storyboard Sound Samples

[TimingPoints]
-762,363.636363636364,4,2,1,60,1,0
6510,-125,4,2,1,30,0,0
10874,-111.111111111111,4,2,1,35,0,0
12328,-100,4,2,1,50,0,0
23965,-111.111111111111,4,2,1,50,0,0
32601,-111.111111111111,4,2,1,50,0,0
32692,-111.111111111111,4,2,1,50,0,0
44601,-111.111111111111,4,2,1,5,0,0
44692,-111.111111111111,4,2,1,50,0,0
45419,-111.111111111111,4,2,1,50,0,0
46147,-111.111111111111,4,2,1,50,0,0
53056,-100,4,2,1,50,0,0
58874,-90.9090909090909,4,2,1,60,0,1
84965,-90.9090909090909,4,2,1,60,0,1
85056,-90.9090909090909,4,2,1,60,0,1
87965,-100,4,2,1,50,0,0
96692,-100,4,2,1,60,0,0
104147,-100,4,2,1,5,0,0

[Colours]
Combo1 : 0,128,255
Combo2 : 255,64,64
Combo3 : 255,128,64
Combo4 : 255,255,96

[HitObjects]
181,219,10874,6,0,L|186:110,2,94.499997116089,6|2|2,3:0|3:0|3:0,0:0:0:0:
181,219,11783,1,8,3:2:0:0:
236,287,11965,1,8,3:2:0:0:
314,245,12147,1,8,3:2:0:0:
372,316,12328,6,0,L|455:331,2,70,6|0|0,3:2|0:0|1:0,0:0:0:0:
314,245,12874,2,0,L|301:91,1,140,2|0,0:0|0:0,0:0:0:0:
368,33,13419,2,0,P|424:41|455:60,1,70,0|0,1:0|0:0,0:0:0:0:
494,125,13783,6,0,L|504:202,2,70,2|0|0,3:2|0:0|1:0,0:0:0:0:
418,187,14328,2,0,P|376:228|283:202,1,140,2|0,0:0|0:0,0:0:0:0:
206,188,14874,2,0,P|174:203|142:229,1,70,0|0,1:0|0:0,0:0:0:0:
51,197,15238,6,0,L|43:108,1,70,2|0,3:2|0:0,0:0:0:0:
84,37,15601,1,0,1:0:0:0:
161,96,15783,2,0,P|203:72|244:69,1,70,2|0,0:0|0:0,0:0:0:0:
309,116,16147,2,0,P|351:131|404:131,1,70,2|0,0:0|1:0,0:0:0:0:
472,117,16510,1,0,0:0:0:0:
432,206,16692,5,2,3:2:0:0:
479,291,16874,1,0,0:0:0:0:
422,374,17056,1,0,1:0:0:0:
372,289,17238,2,0,P|308:245|240:244,1,140,0|0,0:0|3:0,0:0:0:0:
208,272,17692,1,0,3:0:0:0:
208,272,17783,1,0,1:0:0:0:
142,198,17965,1,2,3:2:0:0:
208,125,18147,6,0,L|217:45,2,70,6|0|0,3:2|0:0|1:0,0:0:0:0:
280,190,18692,2,0,P|328:158|429:148,1,140,2|0,0:2|0:0,0:0:0:0:
484,207,19238,2,0,L|474:295,1,70,0|0,1:0|0:0,0:0:0:0:
385,314,19601,6,0,L|392:391,2,70,2|0|0,3:2|0:0|1:0,0:0:0:0:
294,273,20147,2,0,B|210:262|236:326|138:303,1,140,2|0,0:0|0:0,0:0:0:0:
92,239,20692,2,0,L|102:157,1,70,0|0,1:0|0:0,0:0:0:0:
52,83,21056,6,0,P|103:120|201:107,1,140,2|2,3:2|1:2,0:0:0:0:
265,77,21601,1,0,0:0:0:0:
334,145,21783,2,0,L|414:153,2,70,2|2|2,3:2|0:0|1:2,0:0:0:0:
271,220,22328,6,0,L|283:363,1,140,2|0,0:0|0:0,0:0:0:0:
381,354,22874,2,0,L|392:274,1,70,2|0,1:2|0:0,0:0:0:0:
460,214,23238,2,0,L|441:137,1,70,2|0,3:2|0:0,0:0:0:0:
416,51,23601,1,2,1:2:0:0:
416,51,23783,1,2,0:0:0:0:
351,148,23965,6,0,P|310:143|281:120,1,62.9999980773926,6|0,0:0|0:3,0:0:0:0:
216,86,24328,1,10,0:0:0:0:
216,86,24510,2,0,P|189:124|91:129,1,125.999996154785,2|2,0:0|0:0,0:0:0:0:
45,195,25056,1,8,0:0:0:0:
112,251,25238,6,0,L|120:322,1,62.9999980773926,2|0,0:0|0:0,0:0:0:0:
194,359,25601,1,2,0:0:0:0:
256,297,25783,1,10,0:0:0:0:
329,345,25965,2,0,P|389:333|413:266,1,125.999996154785,2|0,0:0|0:0,0:0:0:0:
360,208,26510,2,0,L|350:143,1,62.9999980773926,10|0,0:0|0:0,0:0:0:0:
432,111,26874,6,0,L|451:241,2,125.999996154785,2|8|0,0:0|0:0|0:0,0:0:0:0:
361,58,27783,1,0,0:0:0:0:
350,145,27965,2,0,L|280:137,1,62.9999980773926,10|0,0:0|0:0,0:0:0:0:
209,95,28328,6,0,L|70:116,2,125.999996154785,2|8|2,0:0|1:2|3:2,0:0:0:0:
287,137,29238,1,0,0:0:0:0:
230,203,29419,2,0,P|220:248|234:289,1,62.9999980773926,10|0,1:2|0:0,0:0:0:0:
285,326,29783,5,2,3:2:0:0:
340,257,29965,1,2,0:0:0:0:
340,257,30147,2,0,L|431:267,1,62.9999980773926,10|2,0:0|0:0,0:0:0:0:
467,203,30510,1,0,0:0:0:0:
404,141,30692,1,2,0:0:0:0:
475,89,30874,2,0,L|485:17,1,62.9999980773926,10|2,0:0|0:0,0:0:0:0:
396,7,31238,6,0,P|365:38|321:47,1,62.9999980773926
266,78,31601,1,10,0:0:0:0:
198,21,31783,1,0,0:0:0:0:
138,86,31965,2,0,L|146:154,1,62.9999980773926,2|2,0:0|0:0,0:0:0:0:
99,223,32328,2,0,P|76:264|85:336,1,94.499997116089,10|0,0:0|0:0,0:0:0:0:
111,336,32692,6,0,L|243:358,2,125.999996154785,2|8|2,3:2|1:2|3:2,0:0:0:0:
44,278,33601,1,0,3:0:0:0:
106,216,33783,2,0,L|102:150,1,62.9999980773926,10|0,3:2|0:0,0:0:0:0:
179,109,34147,6,0,P|218:116|248:130,1,62.9999980773926,6|0,0:0|0:0,0:0:0:0:
293,194,34510,2,0,P|329:190|397:115,1,125.999996154785,8|0,0:0|0:0,0:0:0:0:
333,64,35056,1,2,3:2:0:0:
333,64,35147,1,0,3:0:0:0:
333,64,35238,1,8,0:0:0:0:
399,6,35419,1,0,3:0:0:0:
478,102,35601,6,0,L|466:183,1,62.9999980773926,2|2,3:2|0:0,0:0:0:0:
401,222,35965,1,10,0:0:0:0:
401,222,36147,2,0,P|428:265|403:353,1,125.999996154785,2|2,0:0|0:0,0:0:0:0:
338,377,36692,1,8,0:0:0:0:
279,311,36874,6,0,L|214:304,1,62.9999980773926,2|0,0:0|0:0,0:0:0:0:
127,307,37238,1,2,0:0:0:0:
169,229,37420,1,10,0:0:0:0:
88,192,37602,2,0,P|93:127|167:91,1,125.999996154785,2|0,0:0|0:0,0:0:0:0:
220,125,38147,2,0,L|284:131,1,62.9999980773926,10|0,0:0|0:0,0:0:0:0:
321,52,38511,6,0,L|188:41,2,125.999996154785,2|8|0,0:0|0:0|0:0,0:0:0:0:
380,127,39420,1,0,0:0:0:0:
291,132,39602,2,0,L|298:223,1,62.9999980773926,10|0,0:0|0:0,0:0:0:0:
244,266,39965,6,0,P|307:250|374:256,2,125.999996154785,2|8|2,0:0|1:2|3:2,0:0:0:0:
188,335,40875,1,0,0:0:0:0:
151,255,41056,2,0,P|117:243|63:240,1,62.9999980773926,10|0,1:2|0:0,0:0:0:0:
3,255,41420,5,2,3:2:0:0:
36,173,41602,1,2,0:0:0:0:
36,173,41784,2,0,L|29:98,1,62.9999980773926,10|2,0:0|0:0,0:0:0:0:
90,45,42147,1,2,0:0:0:0:
153,106,42329,1,2,0:0:0:0:
206,35,42511,2,0,L|284:46,1,62.9999980773926,8|2,0:0|0:0,0:0:0:0:
316,118,42875,6,0,L|308:206,1,62.9999980773926,0|2,0:0|0:0,0:0:0:0:
244,239,43238,1,8,0:0:0:0:
292,312,43420,1,2,0:0:0:0:
359,255,43602,2,0,L|433:243,1,62.9999980773926,2|2,0:0|0:0,0:0:0:0:
461,166,43965,2,0,L|396:153,1,62.9999980773926,10|0,0:0|0:0,0:0:0:0:
324,106,44328,6,0,P|254:75|213:88,1,94.499997116089,2|0,3:2|0:0,0:0:0:0:
208,109,44692,2,0,L|221:261,1,125.999996154785,8|2,3:2|3:2,0:0:0:0:
44,265,45419,6,0,L|59:128,1,125.999996154785,8|2,3:2|3:2,0:0:0:0:
194,27,46147,6,0,B|287:19|236:61|334:52,1,125.999996154785,8|2,3:2|3:2,0:0:0:0:
408,41,46693,1,2,3:2:0:0:
408,41,46784,1,0,3:0:0:0:
408,41,46875,1,10,3:2:0:0:
369,119,47056,1,2,3:2:0:0:
440,171,47238,6,0,L|427:317,2,125.999996154785,6|10|2,0:0|0:0|0:0,0:0:0:0:
289,262,48328,1,10,0:0:0:0:
289,262,48510,6,0,P|237:289|211:292,1,62.9999980773926,2|0,0:0|0:0,0:0:0:0:
158,241,48874,1,2,0:0:0:0:
76,273,49056,2,0,L|84:199,1,62.9999980773926,10|0,0:0|0:0,0:0:0:0:
136,139,49419,2,0,L|128:57,1,62.9999980773926,2|0,0:0|0:0,0:0:0:0:
215,53,49783,2,0,L|222:134,1,62.9999980773926,10|0,0:0|0:0,0:0:0:0:
300,153,50147,6,0,P|345:124|425:124,2,125.999996154785,2|10|2,0:0|0:0|0:0,0:0:0:0:
439,260,51238,2,0,L|433:334,1,62.9999980773926,10|0,0:0|0:0,0:0:0:0:
356,365,51601,6,0,P|321:341|279:339,1,62.9999980773926,2|0,0:0|0:0,0:0:0:0:
224,381,51965,1,10,0:0:0:0:
152,329,52147,2,0,L|166:178,1,125.999996154785,2|0,0:0|0:0,0:0:0:0:
213,130,52692,1,10,3:2:0:0:
255,207,52874,1,2,3:2:0:0:
325,102,53056,6,0,L|334:26,1,70,6|0,0:0|0:0,0:0:0:0:
430,19,53419,2,0,L|442:103,1,70,10|0,1:2|0:0,0:0:0:0:
392,174,53783,2,0,L|380:252,1,70,2|0,0:2|0:0,0:0:0:0:
314,315,54147,1,10,1:2:0:0:
264,230,54328,1,2,0:0:0:0:
264,230,54419,1,0,0:0:0:0:
264,230,54510,6,0,L|180:237,1,70,6|0,0:0|0:0,0:0:0:0:
119,300,54874,2,0,L|39:286,1,70,10|0,1:2|0:0,0:0:0:0:
2,201,55238,2,0,L|20:117,1,70,10|0,0:2|0:0,0:0:0:0:
73,52,55601,2,0,L|67:14,3,35,10|0|0|0,1:2|0:0|0:0|0:0,0:0:0:0:
99,82,55965,6,0,B|133:89|133:89|170:76|170:76|215:83,2,105,6|0|0,3:2|3:0|3:0,0:0:0:0:
49,166,56692,2,0,L|39:292,2,105,0|0|0,3:0|3:0|3:0,0:0:0:0:
97,169,57328,1,0,3:0:0:0:
97,169,57419,6,0,L|211:177,2,105,2|2|2,3:2|3:2|3:2,0:0:0:0:
97,169,58874,6,0,L|106:262,1,77.0000023498536,6|2,0:0|0:0,0:0:0:0:
195,289,59238,1,2,1:2:0:0:
195,289,59419,2,0,L|205:210,1,77.0000023498536,2|0,0:0|0:0,0:0:0:0:
285,152,59783,2,0,L|272:66,1,77.0000023498536,2|0,0:0|1:0,0:0:0:0:
196,10,60147,1,2,0:0:0:0:
138,91,60328,6,0,P|141:154|212:214,1,154.000004699707,2|2,0:2|1:2,0:0:0:0:
285,152,60874,2,0,P|349:141|424:194,1,154.000004699707,0|2,0:0|0:2,0:0:0:0:
458,280,61419,1,0,1:0:0:0:
458,280,61601,1,2,0:0:0:0:
385,348,61783,6,0,L|301:325,1,77.0000023498536,2|0,3:2|0:0,0:0:0:0:
227,270,62147,1,2,1:2:0:0:
227,270,62328,2,0,L|143:279,1,77.0000023498536,2|0,0:0|0:0,0:0:0:0:
119,182,62692,2,0,L|212:172,1,77.0000023498536,2|0,0:0|1:0,0:0:0:0:
253,91,63056,1,2,0:0:0:0:
340,140,63238,6,0,P|388:185|378:278,1,154.000004699707,2|0,0:0|1:0,0:0:0:0:
308,333,63783,1,2,0:0:0:0:
231,268,63965,2,0,B|180:273|180:273|133:316|133:316|65:326,1,154.000004699707,2|0,0:0|1:0,0:0:0:0:
6,273,64510,1,0,0:0:0:0:
78,184,64692,6,0,L|84:105,1,77.0000023498536,6|2,0:0|0:0,0:0:0:0:
145,27,65056,1,0,1:0:0:0:
187,117,65238,1,2,0:0:0:0:
272,65,65419,2,0,L|356:71,2,77.0000023498536,2|2|2,0:0|0:0|1:2,0:0:0:0:
187,117,65965,6,0,L|202:209,1,77.0000023498536,2|0,0:0|0:0,0:0:0:0:
279,253,66328,1,2,0:0:0:0:
336,170,66510,1,2,1:2:0:0:
410,236,66692,2,0,L|490:225,1,77.0000023498536,2|2,0:0|0:0,0:0:0:0:
503,324,67056,1,0,0:0:0:0:
410,361,67238,2,0,L|309:353,1,77.0000023498536,2|0,1:2|0:0,0:0:0:0:
269,277,67601,6,0,L|287:188,1,77.0000023498536,6|2,3:2|0:0,0:0:0:0:
222,122,67965,2,0,L|213:41,1,77.0000023498536,2|2,1:2|0:0,0:0:0:0:
311,25,68328,2,0,L|319:117,1,77.0000023498536,2|0,0:0|0:0,0:0:0:0:
411,137,68692,2,0,P|453:140|496:204,1,115.50000352478,2|0,1:2|0:0,0:0:0:0:
469,238,69056,6,0,L|302:214,1,154.000004699707,6|2,3:2|1:2,0:0:0:0:
231,268,69601,2,0,L|155:281,1,77.0000023498536,2|0,0:2|0:0,0:0:0:0:
109,295,69874,1,0,0:0:0:0:
109,295,69965,1,2,3:2:0:0:
148,202,70147,1,2,1:2:0:0:
24,44,70510,6,0,L|33:137,1,77.0000023498536,6|2,0:0|0:0,0:0:0:0:
136,122,70874,1,2,1:2:0:0:
136,122,71056,2,0,L|146:43,1,77.0000023498536,2|0,0:0|0:0,0:0:0:0:
239,9,71419,2,0,L|318:27,1,77.0000023498536,2|0,0:0|1:0,0:0:0:0:
400,77,71783,1,2,0:0:0:0:
315,130,71964,6,0,P|346:181|313:300,1,154.000004699707,2|2,0:0|1:2,0:0:0:0:
255,333,72510,2,0,P|194:288|119:297,1,154.000004699707,2|2,0:0|0:0,0:0:0:0:
36,350,73055,1,2,1:2:0:0:
36,350,73237,1,2,0:0:0:0:
16,251,73419,6,0,L|32:174,1,77.0000023498536,2|2,0:0|0:0,0:0:0:0:
95,97,73783,1,2,1:2:0:0:
95,97,73964,2,0,B|186:97|123:188|243:186,1,154.000004699707,2|0,0:0|0:0,0:0:0:0:
305,150,74510,1,2,1:2:0:0:
240,73,74692,1,0,0:3:0:0:
323,17,74874,6,0,P|397:55|394:130,1,154.000004699707,2|0,0:0|1:0,0:0:0:0:
305,150,75419,1,0,0:0:0:0:
381,214,75601,2,0,L|391:318,1,77.0000023498536,2|0,0:0|0:0,0:0:0:0:
296,331,75965,2,0,L|289:239,1,77.0000023498536,2|0,1:2|0:0,0:0:0:0:
212,191,76328,6,0,L|45:163,1,154.000004699707,6|0,0:0|1:0,0:0:0:0:
2,82,76874,1,2,0:0:0:0:
83,23,77056,2,0,L|159:16,1,77.0000023498536,2|0,0:0|0:0,0:0:0:0:
244,68,77419,2,0,L|337:89,1,77.0000023498536,2|0,1:2|0:0,0:0:0:0:
370,2,77783,6,0,L|382:160,1,154.000004699707,2|2,0:0|1:2,0:0:0:0:
446,231,78328,1,0,0:0:0:0:
371,298,78510,2,0,L|284:279,1,77.0000023498536,2|0,0:0|0:0,0:0:0:0:
217,217,78874,2,0,L|119:241,1,77.0000023498536,2|0,1:2|0:0,0:0:0:0:
81,315,79238,6,0,L|101:149,1,154.000004699707,2|0,0:2|1:0,0:0:0:0:
50,74,79783,1,2,0:0:0:0:
121,4,79965,1,2,0:0:0:0:
172,90,80147,1,2,0:0:0:0:
252,30,80328,2,0,P|309:24|357:87,1,115.50000352478,2|0,1:2|0:0,0:0:0:0:
330,107,80692,6,0,L|312:259,2,154.000004699707,2|0|2,0:2|1:0|3:2,0:0:0:0:
396,31,81601,1,2,3:2:0:0:
452,113,81783,2,0,L|463:208,1,77.0000023498536,2|0,1:2|0:0,0:0:0:0:
511,273,82147,6,0,P|435:243|356:258,1,154.000004699707,6|0,0:0|1:0,0:0:0:0:
284,313,82692,1,0,0:0:0:0:
213,242,82874,2,0,L|224:157,1,77.0000023498536,2|0,0:0|0:0,0:0:0:0:
289,89,83238,2,0,L|281:11,1,77.0000023498536,2|0,1:2|0:0,0:0:0:0:
180,9,83601,6,0,L|190:113,1,77.0000023498536,2|0,0:0|0:0,0:0:0:0:
116,157,83965,2,0,P|80:169|49:194,1,77.0000023498536,2|0,1:2|0:0,0:0:0:0:
57,293,84328,2,0,P|108:322|150:321,1,77.0000023498536,2|0,0:0|0:0,0:0:0:0:
213,275,84692,2,0,L|336:249,1,115.50000352478,2|0,1:2|0:0,0:0:0:0:
369,277,85056,6,0,P|388:190|347:141,1,154.000004699707,6|0,0:0|0:0,0:0:0:0:
196,16,85783,2,0,L|211:189,1,154.000004699707,2|0,1:2|0:0,0:0:0:0:
153,252,86328,1,0,0:0:0:0:
73,193,86510,6,0,P|121:156|209:169,1,154.000004699707,2|2,1:2|1:2,0:0:0:0:
260,267,87056,1,0,0:0:0:0:
260,267,87147,1,0,0:0:0:0:
260,267,87238,2,0,P|298:282|338:285,1,77.0000023498536,2|0,1:2|0:0,0:0:0:0:
401,211,87601,1,2,1:2:0:0:
271,82,87965,6,0,L|181:97,2,70,6|0|0,3:2|0:0|1:0,0:0:0:0:
341,13,88511,2,0,L|326:164,1,140,2|0,0:0|0:0,0:0:0:0:
253,217,89056,2,0,P|202:235|171:236,1,70,0|0,1:0|0:0,0:0:0:0:
111,172,89420,6,0,L|119:95,2,70,2|0|0,3:2|0:0|1:0,0:0:0:0:
38,238,89965,2,0,P|18:291|78:343,1,140,2|0,0:0|0:0,0:0:0:0:
162,303,90511,2,0,P|200:306|235:320,1,70,0|0,1:0|0:0,0:0:0:0:
322,351,90875,6,0,L|312:262,1,70,2|0,3:2|0:0,0:0:0:0:
296,184,91238,1,0,1:0:0:0:
365,114,91420,2,0,P|408:125|445:153,1,70,2|0,0:0|0:0,0:0:0:0:
482,221,91784,2,0,L|468:308,1,70,2|0,0:0|1:0,0:0:0:0:
447,379,92147,1,0,0:0:0:0:
379,308,92329,5,2,3:2:0:0:
310,377,92511,1,0,0:0:0:0:
252,297,92693,1,2,1:2:0:0:
321,227,92875,2,0,P|257:183|189:182,1,140,0|0,0:0|3:0,0:0:0:0:
152,192,93329,1,0,3:0:0:0:
152,192,93420,1,0,1:0:0:0:
77,127,93602,1,2,3:2:0:0:
146,57,93784,6,0,L|138:-13,2,70,6|0|0,0:0|0:0|1:0,0:0:0:0:
230,107,94329,2,0,P|278:75|379:65,1,140,2|0,0:0|0:0,0:0:0:0:
431,128,94875,2,0,L|421:216,1,70,0|0,1:0|0:0,0:0:0:0:
443,293,95238,6,0,L|532:308,2,70,2|0|0,3:2|0:0|1:0,0:0:0:0:
352,332,95784,2,0,P|272:339|222:292,1,140,2|0,0:0|0:0,0:0:0:0:
135,272,96329,2,0,L|141:367,1,70,0|0,1:0|0:0,0:0:0:0:
42,361,96693,6,0,L|35:205,1,140,6|0,3:2|0:0,0:0:0:0:
82,135,97238,1,0,0:0:0:0:
161,192,97420,2,0,L|241:200,2,70,2|2|10,3:2|0:0|1:2,0:0:0:0:
82,135,97965,6,0,P|133:97|232:123,1,140,2|0,0:0|0:0,0:0:0:0:
296,141,98511,2,0,L|307:61,1,70,8|0,1:2|0:0,0:0:0:0:
403,81,98874,2,0,L|391:-9,2,70,2|2|10,3:2|0:0|1:2,0:0:0:0:
466,156,99419,6,0,L|454:319,1,140,2|0,0:0|0:0,0:0:0:0:
362,328,99965,2,0,L|357:239,1,70,8|0,1:2|0:0,0:0:0:0:
309,172,100328,2,0,L|305:96,2,70,2|2|10,3:2|0:2|1:2,0:0:0:0:
244,248,100874,6,0,P|164:241|130:186,1,140,2|0,0:2|0:0,0:0:0:0:
211,135,101419,2,0,L|218:60,1,70,8|2,1:2|0:0,0:0:0:0:
154,1,101783,1,2,3:2:0:0:
102,84,101965,1,2,0:0:0:0:
8,53,102147,2,0,L|20:139,1,70,10|0,1:2|0:0,0:0:0:0:
1,219,102510,6,0,P|20:184|124:195,1,140,6|0,3:2|0:0,0:0:0:0:
176,253,103056,2,0,P|226:301|317:274,1,140,0|0,1:0|0:0,0:0:0:0:
373,239,103601,1,0,1:0:0:0:
373,239,103783,1,0,1:0:0:0:
