osu file format v14

[General]
AudioFilename: audio.mp3
AudioLeadIn: 0
PreviewTime: 58072
Countdown: 0
SampleSet: Soft
StackLeniency: 0.4
Mode: 0
LetterboxInBreaks: 0
WidescreenStoryboard: 1

[Editor]
DistanceSpacing: 0.9
BeatDivisor: 4
GridSize: 8
TimelineZoom: 1.700001

[Metadata]
Title:Goshujinsama wa Otawamure (Cut Ver.)
TitleUnicode:ご主人様はおたわむれ (Cut Ver.)
Artist:Kagura Mea
ArtistUnicode:神楽めあ
Creator:Present
Version:Insane
Source:
Tags:Japanese Pop vtuber virtual youtuber niconico bilibili kuse KuBsNia_ZhoYL_ AngelSnow StrengeMistake
BeatmapID:2813700
BeatmapSetID:1356952

[Difficulty]
HPDrainRate:4.5
CircleSize:4
OverallDifficulty:8.2
ApproachRate:8.4
SliderMultiplier:1.6
SliderTickRate:1

[Events]
//Background and Video events
0,0,"mea.jpg",0,0
//Break Periods
//Storyboard Layer 0 (Background)
//Storyboard Layer 1 (Fail)
//Storyboard Layer 2 (Pass)
//Storyboard Layer 3 (Foreground)
//Storyboard Layer 4 (Overlay)
//Storyboard Sound Samples

[TimingPoints]
-762,363.636363636364,4,2,1,60,1,0
10874,-83.3333333333333,4,2,1,35,0,0
11783,-100,4,2,1,50,0,0
12328,-100,4,2,1,50,0,0
23965,-111.111111111111,4,2,1,50,0,0
44328,-111.111111111111,4,2,1,50,0,0
44601,-111.111111111111,4,2,1,5,0,0
44692,-111.111111111111,4,2,1,50,0,0
44965,-111.111111111111,4,2,1,5,0,0
45056,-111.111111111111,4,2,1,50,0,0
45328,-111.111111111111,4,2,1,5,0,0
45419,-111.111111111111,4,2,1,50,0,0
45692,-111.111111111111,4,2,1,5,0,0
45783,-111.111111111111,4,2,1,50,0,0
46056,-111.111111111111,4,2,1,5,0,0
46147,-111.111111111111,4,2,1,50,0,0
46419,-111.111111111111,4,2,1,5,0,0
46510,-111.111111111111,4,2,1,50,0,0
55965,-100,4,2,1,50,0,0
58874,-90.9090909090909,4,2,1,60,0,1
60601,-90.9090909090909,4,2,1,60,0,1
60692,-90.9090909090909,4,2,1,60,0,1
72238,-90.9090909090909,4,2,1,60,0,1
72328,-90.9090909090909,4,2,1,60,0,1
75238,-90.9090909090909,4,2,1,60,0,1
87965,-100,4,2,1,50,0,0
96692,-100,4,2,1,60,0,1
102510,-66.6666666666667,4,2,1,60,0,0
104147,-66.6666666666667,4,2,1,5,0,0

[Colours]
Combo1 : 0,128,255
Combo2 : 255,64,64
Combo3 : 255,128,64
Combo4 : 255,255,96

[HitObjects]
88,120,10692,5,0,3:0:0:0:
88,120,10783,1,0,3:0:0:0:
88,120,10874,2,0,B|118:101|151:124|151:124|187:150|225:126,2,143.999995605469,6|2|2,3:0|3:0|3:0,0:0:0:0:
53,266,11783,6,0,P|39:306|49:347,2,80,8|8|8,3:2|3:2|3:2,0:0:0:0:
123,192,12328,5,6,3:2:0:0:
186,266,12510,2,0,P|199:303|192:341,1,80,0|0,0:0|1:0,0:0:0:0:
265,198,12874,2,0,B|304:233|360:214|360:214|357:186|378:151,1,160,2|0,0:0|0:0,0:0:0:0:
276,44,13419,2,0,P|275:83|292:119,1,80,0|0,1:0|0:0,0:0:0:0:
446,210,13783,5,2,3:2:0:0:
440,92,13965,2,0,P|405:71|366:69,1,80,0|0,0:0|1:0,0:0:0:0:
224,172,14328,2,0,P|193:101|199:12,1,160,2|0,0:0|0:0,0:0:0:0:
118,157,14874,2,0,L|101:240,1,80,0|0,1:0|0:0,0:0:0:0:
211,305,15238,6,0,L|227:383,2,80,2|0|0,3:2|0:0|1:0,0:0:0:0:
223,171,15783,2,0,P|261:158|304:169,1,80,2|0,0:0|0:0,0:0:0:0:
392,311,16147,6,0,L|375:232,1,80,2|0,0:0|1:0,0:0:0:0:
402,130,16510,1,0,0:0:0:0:
255,67,16692,1,2,3:2:0:0:
362,28,16874,1,0,0:0:0:0:
299,166,17056,1,0,1:0:0:0:
176,104,17238,1,0,0:0:0:0:
102,186,17419,6,0,L|86:272,1,80,2|0,3:2|3:0,0:0:0:0:
135,334,17692,1,0,3:0:0:0:
135,334,17783,2,0,P|171:339|219:320,1,80,0|2,1:0|3:2,0:0:0:0:
361,356,18147,5,6,3:2:0:0:
304,258,18328,2,0,L|317:173,1,80,0|0,0:0|1:0,0:0:0:0:
282,91,18692,2,0,B|237:109|229:148|229:148|220:187|179:207,1,160,2|0,0:2|0:0,0:0:0:0:
141,128,19238,2,0,L|154:49,1,80,0|0,1:0|0:0,0:0:0:0:
90,201,19601,5,2,3:2:0:0:
134,280,19783,2,0,P|170:296|226:280,1,80,0|0,0:0|1:0,0:0:0:0:
288,238,20147,2,0,B|344:224|385:255|385:255|374:229|379:193,1,160,2|0,0:0|0:0,0:0:0:0:
454,135,20692,2,0,P|466:174|444:246,1,80,0|0,1:0|0:0,0:0:0:0:
360,103,21056,6,0,B|309:108|309:108|267:84|267:84|204:92,1,160,2|2,3:2|1:2,0:0:0:0:
116,131,21601,1,0,0:0:0:0:
244,176,21783,2,0,P|221:215|221:251,1,80,2|2,3:2|0:0,0:0:0:0:
338,311,22147,2,0,P|335:271|314:238,1,80,2|2,1:2|0:0,0:0:0:0:
179,205,22510,5,2,3:2:0:0:
73,225,22692,1,0,0:0:0:0:
93,331,22874,1,2,1:2:0:0:
199,310,23056,1,0,0:0:0:0:
187,192,23238,5,2,3:2:0:0:
60,216,23420,1,0,0:0:0:0:
84,343,23602,1,2,1:2:0:0:
211,318,23784,1,2,0:0:0:0:
313,236,23965,6,0,P|308:277|326:312,2,71.9999978027344,6|0|10,0:0|0:3|0:0,0:3:0:0:
427,174,24510,2,0,P|453:211|374:252,1,143.999995605469,2|2,0:0|0:0,0:0:0:0:
341,152,25056,1,8,0:0:0:0:
237,202,25238,6,0,B|196:211|173:184|173:184|148:150|102:162,1,143.999995605469,2|2,0:0|0:0,0:0:0:0:
109,240,25783,1,10,0:0:0:0:
28,182,25965,2,0,P|26:147|41:115,1,71.9999978027344,2|0,0:0|0:0,0:0:0:0:
188,293,26510,6,0,P|203:325|201:360,1,71.9999978027344,10|0,0:0|0:0,0:0:0:0:
77,315,26874,2,0,P|48:258|109:240,2,143.999995605469,2|8|0,0:0|0:0|0:0,0:0:0:0:
161,346,27783,1,0,0:0:0:0:
195,215,27965,2,0,P|227:199|262:201,1,71.9999978027344,10|0,0:0|0:0,0:0:0:0:
334,257,28328,6,0,P|303:192|307:121,1,143.999995605469,2|8,0:0|1:2,0:0:0:0:
368,60,28874,1,0,0:0:0:0:
219,8,29056,2,0,L|229:80,1,71.9999978027344,2|0,3:2|0:0,0:0:0:0:
131,171,29419,2,0,L|141:99,1,71.9999978027344,10|0,1:2|0:0,0:0:0:0:
288,147,29783,6,0,P|256:167|218:167,1,71.9999978027344,2|2,3:2|0:0,0:0:0:0:
228,79,30147,1,10,0:0:0:0:
342,88,30328,2,0,B|373:119|373:119|357:240,1,143.999995605469,2|2,0:0|0:0,0:0:0:0:
341,338,30874,1,10,0:0:0:0:
450,294,31056,1,2,0:0:0:0:
359,218,31238,6,0,P|319:216|279:237,1,71.9999978027344
257,369,31601,2,0,L|247:289,1,71.9999978027344,10|0,0:0|0:0,0:0:0:0:
99,285,31965,2,0,P|139:287|179:266,1,71.9999978027344,2|2,0:0|0:0,0:0:0:0:
201,134,32328,2,0,L|211:214,1,71.9999978027344,10|0,0:0|0:0,0:0:0:0:
40,235,32692,6,0,P|26:258|23:283,2,35.9999989013672,2|0|0,3:2|3:0|3:0,0:0:0:0:
114,139,33056,2,0,L|124:219,1,71.9999978027344,8|0,1:2|0:0,0:0:0:0:
104,330,33419,1,2,3:2:0:0:
217,248,33601,1,0,3:0:0:0:
204,365,33783,2,0,P|241:364|273:349,1,71.9999978027344,10|0,3:2|0:0,0:0:0:0:
342,274,34147,6,0,B|365:308|420:304|420:304|401:333,1,107.999996704102,6|0,0:0|0:0,0:0:0:0:
360,380,34510,1,8,0:0:0:0:
407,219,34692,1,0,0:0:0:0:
407,219,35056,6,0,L|442:230,2,35.9999989013672,2|0|8,3:2|3:0|0:0,0:0:0:0:
328,152,35419,1,0,3:0:0:0:
419,98,35601,6,0,P|416:66|391:31,1,71.9999978027344,2|2,3:2|0:0,0:0:0:0:
293,75,35965,1,10,0:0:0:0:
201,38,36147,2,0,B|162:30|144:0|144:0|148:26|133:78,1,143.999995605469,2|2,0:0|0:0,0:0:0:0:
213,134,36692,1,8,0:0:0:0:
120,172,36874,1,2,0:0:0:0:
198,239,37056,6,0,P|235:246|283:231,1,71.9999978027344,0|2,0:0|0:0,0:0:0:0:
393,182,37419,2,0,P|355:174|307:189,1,71.9999978027344,10|2,0:0|0:0,0:0:0:0:
306,310,37783,2,0,L|301:346,2,35.9999989013672
198,239,38147,2,0,L|194:166,1,71.9999978027344,10|0,0:0|0:0,0:0:0:0:
129,58,38510,6,0,B|88:93|88:93|92:187,2,143.999995605469,2|8|0,0:0|0:0|0:0,0:0:0:0:
271,54,39419,1,0,0:0:0:0:
197,171,39601,2,0,P|189:140|209:91,1,71.9999978027344,10|0,0:0|0:0,0:0:0:0:
324,137,39965,6,0,B|365:172|365:172|336:257,1,143.999995605469,2|8,0:0|1:2,0:0:0:0:
251,303,40510,1,0,0:0:0:0:
266,204,40692,2,0,P|227:192|187:195,1,71.9999978027344,2|0,3:2|0:0,0:0:0:0:
98,275,41056,2,0,P|137:287|177:284,1,71.9999978027344,10|0,1:2|0:0,0:0:0:0:
16,231,41419,6,0,P|4:270|7:310,1,71.9999978027344,2|2,3:2|0:0,0:0:0:0:
95,179,41783,1,10,0:0:0:0:
98,275,41965,1,2,0:0:0:0:
146,107,42147,1,2,0:0:0:0:
146,107,42328,2,0,P|110:93|67:98,1,71.9999978027344,2|8,0:0|0:0,0:0:0:0:
210,42,42692,6,0,B|216:75|235:90|235:90|221:112|226:162,1,107.999996704102,2|0,0:0|0:0,0:0:0:0:
305,132,43056,2,0,P|341:118|384:123,1,71.9999978027344,2|8,0:0|0:0,0:0:0:0:
479,129,43419,1,2,0:0:0:0:
361,210,43601,1,2,0:0:0:0:
418,42,43783,1,2,0:0:0:0:
418,42,43965,2,0,P|448:66|465:105,1,71.9999978027344,10|0,0:0|0:0,0:0:0:0:
305,132,44328,6,0,B|270:111|270:111|196:132,1,107.999996704102,2|0,3:2|0:0,0:0:0:0:
121,151,44692,2,0,P|125:100|179:55,1,107.999996704102,8|0,3:2|0:2,0:2:0:0:
250,61,45056,6,0,B|271:96|271:96|250:170,1,107.999996704102,2|0,3:2|0:0,0:0:0:0:
196,223,45419,2,0,P|200:273|254:318,1,107.999996704102,8|0,3:2|0:0,0:0:0:0:
276,239,45783,6,0,B|305:231|305:231|379:254,1,107.999996704102,2|0,3:2|0:0,0:0:0:0:
415,327,46147,2,0,P|452:289|457:236,1,107.999996704102,8|0,3:2|0:0,0:0:0:0:
400,179,46510,5,2,3:2:0:0:
294,147,46692,2,0,L|260:138,2,35.9999989013672,2|0|10,3:2|3:0|3:2,0:0:0:0:
375,73,47056,1,2,3:2:0:0:
204,68,47238,6,0,B|165:89|165:89|178:187,2,143.999995605469,6|10|2,0:0|0:0|0:0,0:0:0:0:
259,137,48147,1,0,0:0:0:0:
126,79,48328,1,10,0:0:0:0:
95,205,48510,2,0,P|139:263|219:259,1,143.999995605469,2|2,0:0|0:0,0:0:0:0:
250,171,49056,2,0,L|177:187,1,71.9999978027344,10|0,0:0|0:0,0:0:0:0:
290,248,49419,1,2,0:0:0:0:
319,102,49601,1,0,0:0:0:0:
380,239,49783,2,0,P|376:278|338:323,1,71.9999978027344,10|0,0:0|0:0,0:0:0:0:
205,265,50147,6,0,B|158:271|158:271|120:299|120:299|65:307,2,143.999995605469,2|10|2,0:0|0:0|0:0,0:0:0:0:
228,177,51056,1,0,0:0:0:0:
112,157,51238,2,0,P|87:191|84:238,1,71.9999978027344,10|0,0:0|0:0,0:0:0:0:
180,117,51601,2,0,B|172:94|151:83|151:83|263:71,1,143.999995605469,2|10,0:0|0:0,0:0:0:0:
228,177,52147,1,2,0:0:0:0:
403,132,52328,5,2,3:2:0:0:
294,69,52510,1,0,0:0:0:0:
333,213,52692,1,10,3:2:0:0:
482,169,52874,1,2,3:2:0:0:
360,293,53056,6,0,P|318:298|282:279,1,71.9999978027344,6|0,0:0|0:0,0:0:0:0:
143,173,53419,1,10,1:2:0:0:
200,303,53601,1,0,0:0:0:0:
230,161,53783,1,2,0:2:0:0:
124,259,53965,1,0,0:0:0:0:
272,236,54147,1,10,1:2:0:0:
178,100,54328,1,2,0:0:0:0:
330,48,54510,6,0,P|340:92|333:128,1,71.9999978027344,6|0,0:0|0:0,0:0:0:0:
272,236,54874,1,10,1:2:0:0:
259,89,55056,1,0,0:0:0:0:
195,185,55238,1,10,0:2:0:0:
342,170,55419,1,0,0:0:0:0:
178,100,55601,2,0,P|163:95|143:96,3,35.9999989013672,10|0|0|0,1:2|0:0|0:0|0:0,0:0:0:0:
80,51,55965,6,0,P|65:94|84:145,1,80,6|0,3:2|0:0,0:0:0:0:
139,174,56238,1,0,3:0:0:0:
139,174,56328,2,0,L|119:270,1,80,8|0,0:0|3:0,0:0:0:0:
223,318,56692,6,0,L|239:239,1,80,0|0,3:0|0:0,0:0:0:0:
297,189,56965,1,0,3:0:0:0:
297,189,57057,2,0,P|333:174|372:180,1,80,10|0,0:0|3:0,0:0:0:0:
434,133,57328,1,0,3:0:0:0:
434,133,57419,2,0,B|474:88|474:88|480:23,2,120,2|2|2,3:2|3:2|3:2,0:0:0:0:
392,45,58147,6,0,B|332:19|280:58|280:58|219:21|160:58,1,240,2|2,3:2|3:2,0:0:0:0:
24,46,58874,5,6,0:0:0:0:
9,156,59056,1,2,0:0:0:0:
111,115,59238,1,2,1:2:0:0:
215,149,59419,2,0,P|257:172|297:172,1,88.000002685547,2|0,0:0|0:0,0:0:0:0:
134,219,59783,2,0,P|90:219|53:242,1,88.000002685547,2|0,0:0|1:0,0:0:0:0:
117,320,60147,1,2,0:0:0:0:
229,292,60328,6,0,B|229:268|214:244|214:244|255:164,1,132.00000402832,2|0,0:2|0:0,0:0:0:0:
298,101,60692,1,2,1:2:0:0:
384,109,60874,1,0,0:0:0:0:
264,28,61056,1,0,0:0:0:0:
134,87,61238,2,0,B|95:137|95:137|117:250,1,176.000005371094,2|2,0:2|0:0,0:0:0:0:
206,321,61783,6,0,B|245:271|245:271|223:158,1,176.000005371094,2|2,3:2|1:2,0:0:0:0:
134,87,62328,2,0,P|85:78|39:94,1,88.000002685547,2|0,0:0|0:0,0:0:0:0:
209,0,62692,2,0,P|220:42|211:84,1,88.000002685547,2|0,0:0|1:0,0:0:0:0:
93,166,63056,1,2,0:0:0:0:
222,227,63238,6,0,B|271:264|329:235|329:235|343:208|299:164,1,176.000005371094,2|0,0:0|1:0,0:0:0:0:
211,84,63783,1,2,0:0:0:0:
330,69,63965,2,0,P|380:66|419:86,1,88.000002685547,2|0,0:0|0:0,0:0:0:0:
396,192,64328,2,0,P|345:194|307:175,1,88.000002685547,0|0,1:0|0:0,0:0:0:0:
222,227,64692,6,0,L|228:317,2,88.000002685547,6|2|0,0:0|0:0|1:0,0:0:0:0:
143,153,65238,1,2,0:0:0:0:
40,232,65419,1,2,0:0:0:0:
79,97,65601,1,2,0:0:0:0:
133,255,65783,1,2,1:2:0:0:
19,311,65965,1,2,0:0:0:0:
227,314,66147,6,0,L|222:227,2,88.000002685547,0|2|2,0:0|0:0|1:2,0:0:0:0:
106,376,66692,1,2,0:0:0:0:
273,377,66874,2,0,P|299:347|306:294,1,88.000002685547,2|0,0:0|0:0,0:0:0:0:
380,182,67238,2,0,L|385:269,1,88.000002685547,2|0,1:2|0:0,0:0:0:0:
388,362,67601,5,6,3:2:0:0:
282,156,67783,1,2,0:0:0:0:
227,314,67965,1,2,1:2:0:0:
380,182,68147,1,2,0:0:0:0:
267,61,68328,6,0,P|221:77|187:127,1,88.000002685547,2|0,0:0|0:0,0:0:0:0:
139,260,68692,2,0,P|148:212|121:158,1,88.000002685547,2|0,1:2|0:0,0:0:0:0:
0,90,69056,6,0,B|33:79|45:57|45:57|85:101|44:168,1,176.000005371094,6|2,3:2|1:2,0:0:0:0:
139,260,69601,1,2,0:2:0:0:
139,260,69965,6,0,P|132:291|132:314,2,44.0000013427735,2|0|2,3:2|3:0|1:2,0:0:0:0:
186,125,70328,1,2,0:0:0:0:
320,174,70510,5,6,0:0:0:0:
221,230,70692,1,2,0:0:0:0:
274,98,70874,1,2,1:2:0:0:
403,145,71056,2,0,P|408:193|388:238,1,88.000002685547,2|0,0:0|0:0,0:0:0:0:
318,339,71419,2,0,P|303:297|310:254,1,88.000002685547,2|0,0:0|1:0,0:0:0:0:
274,98,71783,1,2,0:0:0:0:
221,230,71965,6,0,B|165:251|165:251|130:263|80:235,1,132.00000402832,2|0,0:0|0:0,0:0:0:0:
55,164,72328,1,2,1:2:0:0:
203,94,72510,1,2,0:0:0:0:
146,173,72692,1,0,0:0:0:0:
102,37,72874,2,0,P|78:32|58:37,2,44.0000013427735,2|0|2,0:0|0:0|1:2,0:0:0:0:
243,22,73237,1,2,0:0:0:0:
328,119,73419,6,0,L|316:217,2,88.000002685547,2|2|2,0:0|0:0|1:2,0:0:0:0:
475,239,73964,2,0,B|383:272|383:272|355:302|308:300,1,176.000005371094,2|0,0:0|0:0,0:0:0:0:
224,162,74510,6,0,L|234:249,1,88.000002685547,2|0,1:2|0:3,0:3:0:0:
170,354,74874,2,0,B|110:323|110:323|146:207,1,176.000005371094,2|0,0:0|1:0,0:0:0:0:
234,249,75419,1,0,0:0:0:0:
210,78,75601,2,0,P|161:103|125:104,1,88.000002685547,2|0,0:0|0:0,0:0:0:0:
44,240,75965,2,0,P|46:185|63:153,1,88.000002685547,2|0,1:2|0:0,0:0:0:0:
253,154,76328,6,0,B|302:163|321:205|321:205|343:174|404:171,1,176.000005371094,6|0,0:0|1:0,0:0:0:0:
397,279,76874,1,2,0:0:0:0:
214,343,77056,2,0,B|195:293|229:236|229:236|185:247|151:217,2,176.000005371094,2|2|2,0:0|1:2|0:0,0:0:0:0:
307,299,77965,1,0,0:0:0:0:
291,151,78147,2,0,P|230:148|201:167,1,88.000002685547,2|0,1:2|0:0,0:0:0:0:
88,207,78510,1,2,0:0:0:0:
144,96,78692,1,0,0:0:0:0:
21,141,78874,2,0,P|-1:184|0:233,1,88.000002685547,2|0,1:2|0:0,0:0:0:0:
138,339,79238,6,0,B|89:372|46:340|46:340|50:296|94:284,1,176.000005371094,2|0,0:2|1:0,0:0:0:0:
221,312,79783,1,2,0:0:0:0:
246,199,79965,1,2,0:0:0:0:
161,251,80147,1,2,0:0:0:0:
309,283,80328,2,0,P|357:285|378:247,1,88.000002685547,2|0,1:2|0:0,0:0:0:0:
444,158,80692,6,0,B|443:111|392:99|392:99|357:133|299:121,1,176.000005371094,2|0,0:2|1:0,0:0:0:0:
327,36,81238,1,0,0:0:0:0:
202,98,81419,2,0,P|225:143|225:186,1,88.000002685547,2|2,3:2|3:2,0:0:0:0:
106,246,81783,2,0,P|108:202|130:164,1,88.000002685547,2|0,1:2|0:0,0:0:0:0:
204,269,82147,6,0,B|331:255|331:255|296:286|298:304,1,176.000005371094,6|0,0:0|1:0,0:0:0:0:
237,370,82692,1,0,0:0:0:0:
400,297,82874,2,0,P|410:254|402:211,1,88.000002685547,2|0,0:0|0:0,0:0:0:0:
482,187,83238,2,0,P|459:148|422:124,1,88.000002685547,2|0,1:2|0:0,0:0:0:0:
327,117,83601,2,0,B|277:114|250:79|250:79|241:119|190:147,2,176.000005371094,2|2|2,0:0|1:2|0:0,0:0:0:0:
277,205,84510,1,0,0:0:0:0:
137,205,84692,2,0,P|112:168|113:118,1,88.000002685547,2|0,1:2|0:0,0:0:0:0:
208,254,85056,6,0,B|182:318|228:367|228:367|254:321|299:321,1,176.000005371094,6|0,0:0|0:0,0:0:0:0:
137,205,85783,6,0,B|94:150|29:165|29:165|55:211|33:250,1,176.000005371094,2|0,1:2|0:0,0:0:0:0:
218,163,86510,6,0,B|286:153|305:89|305:89|253:89|230:50,2,176.000005371094,2|2|2,1:2|1:2|1:2,0:0:0:0:
137,205,87419,1,0,0:0:0:0:
167,74,87601,2,0,P|182:30|220:4,1,88.000002685547,2|0,1:2|0:0,0:0:0:0:
343,72,87965,5,6,3:2:0:0:
396,201,88147,2,0,P|409:238|402:276,1,80,0|0,0:0|1:0,0:0:0:0:
182,213,88511,2,0,B|233:191|278:237|278:237|309:234|337:246,1,160,2|0,0:0|0:0,0:0:0:0:
229,361,89056,2,0,P|211:325|212:285,1,80,0|0,1:0|0:0,0:0:0:0:
316,160,89420,5,2,3:2:0:0:
149,142,89602,2,0,L|157:58,1,80,0|0,0:0|1:0,0:0:0:0:
241,201,89965,2,0,L|227:368,1,160,2|0,0:0|0:0,0:0:0:0:
137,270,90510,2,0,L|53:262,1,80,0|0,1:0|0:0,0:0:0:0:
43,112,90875,6,0,P|18:148|17:196,2,80,2|0|0,3:2|0:0|1:0,0:0:0:0:
176,119,91419,2,0,P|198:156|196:204,1,80,2|0,0:0|0:0,0:0:0:0:
93,347,91784,6,0,L|99:262,1,80,2|0,0:0|1:0,0:0:0:0:
107,176,92147,1,0,0:0:0:0:
217,281,92329,1,2,3:2:0:0:
285,140,92511,1,0,0:0:0:0:
298,320,92693,1,2,1:2:0:0:
406,255,92875,1,0,0:0:0:0:
242,74,93056,6,0,P|217:100|209:155,1,80,2|0,3:2|3:0,0:0:0:0:
247,214,93329,1,0,3:0:0:0:
247,214,93420,2,0,L|332:215,1,80,0|2,1:0|3:2,0:0:0:0:
460,156,93784,5,6,0:0:0:0:
396,272,93965,2,0,P|377:307|383:351,1,80,0|0,0:0|1:0,0:0:0:0:
326,214,94328,2,0,B|263:214|263:214|231:233|231:233|170:232,1,160,2|0,0:0|0:0,0:0:0:0:
285,294,94874,2,0,P|303:329|297:373,1,80,0|0,1:0|0:0,0:0:0:0:
169,354,95238,5,2,3:2:0:0:
93,258,95420,2,0,P|87:218|103:182,1,80,0|0,0:0|1:0,0:0:0:0:
173,114,95783,2,0,B|231:113|231:113|263:132|263:132|327:131,1,160,2|0,0:0|0:0,0:0:0:0:
103,182,96328,2,0,P|87:218|93:258,1,80,0|0,1:0|0:0,0:0:0:0:
326,214,96692,6,0,B|263:214|263:214|231:233|231:233|170:232,1,160,2|8,3:2|1:2,0:0:0:0:
285,294,97238,1,0,0:0:0:0:
429,225,97419,5,2,3:2:0:0:
370,331,97601,1,2,0:0:0:0:
278,135,97783,1,10,1:2:0:0:
470,148,97965,1,2,0:0:0:0:
213,185,98147,6,0,P|194:143|206:93,1,80,6|0,3:2|0:0,0:0:0:0:
351,81,98510,2,0,P|370:123|358:173,1,80,8|0,1:2|0:0,0:0:0:0:
280,348,98875,5,2,3:2:0:0:
153,324,99057,1,2,0:0:0:0:
177,197,99239,1,10,1:2:0:0:
304,222,99419,1,2,0:0:0:0:
280,348,99601,6,0,B|379:373|379:373|436:331,1,160,6|8,3:2|1:2,0:0:0:0:
437,238,100147,1,0,0:0:0:0:
408,121,100328,5,2,3:2:0:0:
291,150,100510,1,2,0:2:0:0:
319,267,100692,1,10,1:2:0:0:
437,238,100874,1,2,0:2:0:0:
416,106,101056,5,6,3:2:0:0:
276,141,101238,1,0,0:0:0:0:
310,281,101420,1,8,1:2:0:0:
451,246,101602,1,2,0:0:0:0:
427,88,101783,5,2,3:2:0:0:
258,130,101965,1,2,0:0:0:0:
299,299,102147,2,0,P|250:306|222:296,1,80,10|0,1:2|0:0,0:0:0:0:
81,201,102510,6,0,B|23:166|27:114|68:73|107:112|107:112|157:67|197:139|187:185|98:218,1,360.000013732911,6|0,3:2|1:0,0:0:0:0:
353,271,103601,5,0,1:0:0:0:
282,208,103783,2,0,B|315:175|353:174|353:174|295:114|303:7,1,240.000009155274,0|0,1:0|0:0,0:0:0:0:
