osu file format v14

[General]
AudioFilename: audio.mp3
AudioLeadIn: 0
PreviewTime: 65664
Countdown: 0
SampleSet: Soft
StackLeniency: 0.5
Mode: 0
LetterboxInBreaks: 0
WidescreenStoryboard: 1

[Editor]
Bookmarks: 158865
DistanceSpacing: 0.5
BeatDivisor: 4
GridSize: 4
TimelineZoom: 1.2

[Metadata]
Title:Beast Dance (Cut Ver.)
TitleUnicode:ビースト・ダンス (Cut Ver.)
Artist:Kagura Mea
ArtistUnicode:神楽めあ
Creator:Present
Version:MeaMea
Source:
Tags:japanese pop rock WADATAKEAKI jpop j-pop paryi project ぱりぷろ 和田たけあき くらげP vtuber virtual youtouber vtb bilibili -[pino]- xenon xen [[pika]] tarrasky riana angelsnow weedy
BeatmapID:2518177
BeatmapSetID:1003202

[Difficulty]
HPDrainRate:5
CircleSize:4
OverallDifficulty:9.2
ApproachRate:9.2
SliderMultiplier:1.6
SliderTickRate:1

[Events]
//Background and Video events
0,0,"1570868718967.jpg",0,0
//Break Periods
//Storyboard Layer 0 (Background)
//Storyboard Layer 1 (Fail)
//Storyboard Layer 2 (Pass)
//Storyboard Layer 3 (Foreground)
//Storyboard Layer 4 (Overlay)
//Storyboard Sound Samples

[TimingPoints]
840,324.324324324324,4,2,2,35,1,0
4731,-111.111111111111,4,2,2,35,0,0
5056,-111.111111111111,4,2,2,35,0,0
5380,-111.111111111111,4,2,2,35,0,0
5704,-74.0740740740741,4,2,2,35,0,0
6029,-100,4,2,6,65,0,0
15839,-100,4,2,6,5,0,0
16407,-125,4,2,2,45,0,0
25488,-111.111111111111,4,2,6,55,0,0
26461,-83.3333333333333,4,2,6,55,0,0
26785,-111.111111111111,4,2,6,55,0,0
41056,-83.3333333333333,4,2,6,55,0,0
41299,-83.3333333333333,4,2,6,55,0,0
41380,-83.3333333333333,4,2,6,55,0,0
41623,-83.3333333333333,4,2,6,55,0,0
41704,-83.3333333333333,4,2,6,55,0,0
41948,-83.3333333333333,4,2,6,55,0,0
42029,-83.3333333333333,4,2,6,55,0,0
42353,-111.111111111111,4,2,6,55,0,0
44948,-125,4,2,2,45,0,0
49812,-83.3333333333333,4,2,6,45,0,0
50137,-66.6666666666667,4,2,6,55,0,0
50461,-66.6666666666667,4,2,6,55,0,0
50785,-66.6666666666667,4,2,6,55,0,0
51110,-66.6666666666667,4,2,6,55,0,0
51434,-66.6666666666667,4,2,6,55,0,0
51758,-66.6666666666667,4,2,6,55,0,0
52083,-66.6666666666667,4,2,6,55,0,0
52731,-60.6060606060606,4,2,6,55,0,0
53056,-60.6060606060606,4,2,6,55,0,0
53380,-60.6060606060606,4,2,6,55,0,0
53704,-60.6060606060606,4,2,6,55,0,0
54029,-60.6060606060606,4,2,6,55,0,0
54353,-60.6060606060606,4,2,6,55,0,0
54677,-181.818181818182,4,2,6,55,0,0
55326,-83.3333333333333,4,2,6,75,0,1
56623,-83.3333333333333,4,2,6,75,0,1
56867,-83.3333333333333,4,2,6,75,0,1
56948,-83.3333333333333,4,2,6,75,0,1
57191,-83.3333333333333,4,2,6,75,0,1
57272,-83.3333333333333,4,2,6,75,0,1
57596,-83.3333333333333,4,2,6,75,0,1
57839,-83.3333333333333,4,2,6,75,0,1
57921,-83.3333333333333,4,2,6,75,0,1
58164,-83.3333333333333,4,2,6,75,0,1
58245,-83.3333333333333,4,2,6,75,0,1
58488,-83.3333333333333,4,2,6,75,0,1
58569,-83.3333333333333,4,2,6,75,0,1
58975,-83.3333333333333,4,2,6,75,0,1
59056,-83.3333333333333,4,2,6,75,0,1
59218,-83.3333333333333,4,2,6,75,0,1
59461,-83.3333333333333,4,2,6,75,0,1
59542,-83.3333333333333,4,2,6,75,0,1
59785,-83.3333333333333,4,2,6,75,0,1
59867,-83.3333333333333,4,2,6,75,0,1
65056,-100,4,2,6,75,0,1
65380,-62.5,4,2,6,75,0,1
65623,-71.4285714285714,4,2,6,75,0,0
65704,-76.9230769230769,4,2,6,75,0,1
76083,-111.111111111111,4,2,6,65,0,0
80948,-111.111111111111,4,2,6,55,0,0
81272,-100,4,2,6,65,0,0
91002,-100,4,2,6,65,0,0
91083,-100,4,2,6,5,0,0
91326,-100,4,2,6,65,0,0
91407,-100,4,2,6,5,0,0
91650,-400,4,2,6,65,0,0
91975,-400,4,2,6,5,0,0

[Colours]
Combo1 : 64,228,255
Combo2 : 255,64,155
Combo3 : 255,142,64
Combo4 : 255,255,96

[HitObjects]
125,48,4731,6,0,L|113:120,1,71.9999978027344,10|0,0:0|0:0,0:0:0:0:
18,191,5056,2,0,L|11:119,1,71.9999978027344,8|0,0:0|0:0,0:0:0:0:
103,203,5380,6,0,L|91:274,1,71.9999978027344,10|0,0:0|0:0,0:0:0:0:
173,345,5704,6,0,L|190:238,1,107.999996704102,10|0,0:0|0:0,0:0:0:0:
278,59,6029,5,14,0:0:0:0:
278,59,6110,1,0,0:0:0:0:
278,59,6191,2,0,L|316:73,1,40
457,119,6353,1,0,0:0:0:0:
279,233,6515,2,0,B|245:264|195:262|167:239|167:239|195:208,1,160,8|0,0:0|0:0,0:0:0:0:
315,72,7002,1,2,1:2:0:0:
108,131,7164,1,0,0:0:0:0:
329,163,7326,5,10,0:0:0:0:
329,163,7407,1,0,0:0:0:0:
329,163,7488,2,0,L|368:175,1,40
457,297,7650,1,0,0:0:0:0:
432,114,7812,1,8,0:0:0:0:
279,233,7975,1,0,0:0:0:0:
419,22,8137,1,0,0:0:0:0:
445,206,8299,1,2,0:0:0:0:
452,213,8623,5,14,0:0:0:0:
452,213,8704,1,0,0:0:0:0:
452,213,8785,2,0,L|443:253,1,40
362,158,8948,1,0,0:0:0:0:
362,158,9029,1,0,0:0:0:0:
362,158,9110,2,0,B|406:103|475:119|475:119|457:88,1,160,8|0,0:0|0:0,0:0:0:0:
283,137,9596,2,0,P|285:183|302:213,1,80,2|0,1:2|0:0,0:0:0:0:
445,206,9921,5,14,0:0:0:0:
272,59,10083,1,0,0:0:0:0:
445,206,10245,1,0,0:0:0:0:
203,139,10407,1,0,0:0:0:0:
292,293,10569,5,10,0:0:0:0:
272,59,10731,1,0,0:0:0:0:
134,241,10894,1,0,0:0:0:0:
354,215,11056,1,0,0:0:0:0:
112,149,11218,5,14,0:0:0:0:
112,149,11299,1,0,0:0:0:0:
112,149,11380,2,0,L|102:103,1,40
206,0,11542,1,0,0:0:0:0:
23,52,11704,2,0,B|9:135|9:135|1:180|33:206,1,160,8|0,0:0|0:0,0:0:0:0:
273,190,12191,1,2,1:2:0:0:
157,56,12353,1,0,0:0:0:0:
115,252,12515,5,10,0:0:0:0:
115,252,12596,1,0,0:0:0:0:
115,252,12677,2,0,L|122:295,1,40
232,362,12839,1,0,0:0:0:0:
282,159,13002,1,8,0:0:0:0:
115,252,13164,1,0,0:0:0:0:
368,314,13326,1,0,0:0:0:0:
358,113,13488,1,2,0:2:0:0:
365,120,13812,5,14,0:0:0:0:
365,120,13894,1,0,0:0:0:0:
365,120,13975,2,0,L|360:78,1,40
342,199,14137,1,0,0:0:0:0:
342,199,14218,1,0,0:0:0:0:
342,199,14299,2,0,B|420:207|440:141|440:141|453:175,1,160,8|0,0:0|0:0,0:0:0:0:
500,349,14785,1,2,1:2:0:0:
252,285,14948,1,0,0:0:0:0:
365,120,15110,6,0,B|342:58|391:66|369:2,2,120,6|0|0,0:0|0:0|0:0,0:0:0:0:
500,349,15758,2,0,L|457:336,1,40,8|0,0:0|0:0,0:0:0:0:
168,38,16407,6,0,P|194:50|243:52,1,64,10|0,0:0|0:0,0:0:0:0:
366,105,16731,2,0,P|342:121|316:162,1,64,2|2,0:0|0:0,0:0:0:0:
205,237,17056,2,0,P|202:208|179:165,1,64,10|0,0:0|0:0,0:0:0:0:
89,100,17380,1,2,0:0:0:0:
78,239,17542,1,2,0:0:0:0:
188,102,17704,6,0,B|257:95|236:152|304:146,1,128,10|2,0:0|0:0,0:0:0:0:
406,101,18191,1,2,0:0:0:0:
354,239,18353,2,0,P|320:241|286:250,1,64,10|0,0:0|0:0,0:0:0:0:
235,355,18677,1,0,0:0:0:0:
131,229,18839,1,0,0:0:0:0:
131,229,18921,1,0,0:0:0:0:
131,229,19002,6,0,B|105:268|105:268|127:360,2,128,10|2|10,0:0|0:0|0:0,0:0:0:0:
159,220,19975,1,2,0:0:0:0:
274,262,20137,1,2,0:0:0:0:
252,113,20299,2,0,P|236:176|240:193,1,64,10|2,0:0|0:0,0:0:0:0:
349,119,20623,2,0,P|346:87|332:58,1,64,2|2,0:0|0:0,0:0:0:0:
126,14,20948,6,0,B|189:-3|182:51|249:31,1,128,10|0,0:0|0:0,0:0:0:0:
147,100,21434,1,0,0:0:0:0:
147,100,21515,1,0,0:0:0:0:
147,100,21596,6,0,P|134:134|137:170,1,64,10|2,0:0|0:0,0:0:0:0:
24,233,21921,2,0,P|55:233|85:245,1,64,10|2,0:0|0:0,0:0:0:0:
192,351,22245,2,0,B|176:274|176:274|207:236,1,128,10|0,0:0|0:0,0:0:0:0:
336,233,22731,1,2,0:0:0:0:
294,300,22894,5,10,0:0:0:0:
253,175,23056,1,2,0:0:0:0:
404,281,23218,2,0,B|435:292|471:271,1,64,10|2,0:0|0:0,0:0:0:0:
442,94,23542,2,0,B|411:132|411:132|427:209,1,128,10|0,0:0|0:0,0:0:0:0:
503,155,24029,1,2,0:0:0:0:
337,350,24191,6,0,L|315:224,1,128,10|2,0:0|0:0,0:0:0:0:
298,135,24839,6,0,B|270:111|235:128|235:128|180:155,1,128,8|2,0:0|0:0,0:0:0:0:
197,245,25488,5,10,0:0:0:0:
115,92,25650,2,0,L|102:149,1,35.9999989013672
61,301,25812,1,10,0:0:0:0:
180,154,25975,1,0,0:0:0:0:
218,336,26137,2,0,L|226:371,2,35.9999989013672,2|0|0,3:2|3:0|3:0,3:0:0:0:
61,301,26461,5,8,0:0:0:0:
180,154,26623,1,0,0:0:0:0:
218,336,26785,2,0,P|253:345|289:338,1,71.9999978027344,6|0,1:2|0:0,0:0:0:0:
326,229,27110,2,0,P|291:220|255:227,1,71.9999978027344,10|0,0:0|0:0,0:0:0:0:
383,308,27434,2,0,P|408:282|420:247,1,71.9999978027344,2|0,0:0|0:0,0:0:0:0:
345,134,27758,1,10,0:0:0:0:
496,183,27921,1,0,0:0:0:0:
326,229,28083,5,2,0:0:0:0:
285,41,28246,1,0,0:0:0:0:
421,160,28407,1,10,0:0:0:0:
230,295,28569,1,0,0:0:0:0:
160,161,28731,2,0,P|192:145|227:143,1,71.9999978027344
119,251,29056,2,0,P|89:231|70:200,1,71.9999978027344,8|0,0:0|0:0,0:0:0:0:
106,84,29380,6,0,P|170:52|241:49,1,143.999995605469,6|10,1:2|0:0,0:0:0:0:
204,186,29867,1,0,0:0:0:0:
340,140,30029,2,0,P|337:101|320:71,1,71.9999978027344
204,186,30353,2,0,P|187:217|185:253,1,71.9999978027344,10|0,0:0|0:0,0:0:0:0:
315,314,30677,5,0,0:0:0:0:
340,140,30839,1,0,0:0:0:0:
313,334,31002,1,10,0:0:0:0:
204,186,31164,1,0,0:0:0:0:
381,244,31326,2,0,P|416:250|450:242,1,71.9999978027344
451,69,31650,1,8,0:0:0:0:
451,69,31975,6,0,P|417:62|380:71,1,71.9999978027344,6|0,1:2|0:0,0:0:0:0:
315,163,32299,1,10,0:0:0:0:
279,29,32461,1,0,0:0:0:0:
215,119,32623,2,0,P|180:127|145:120,1,71.9999978027344,2|0,0:0|0:0,0:0:0:0:
36,211,32948,2,0,P|46:176|69:149,1,71.9999978027344,10|0,0:0|0:0,0:0:0:0:
48,10,33272,6,0,P|72:35|84:69,1,71.9999978027344
180,44,33596,2,0,P|214:35|249:42,1,71.9999978027344,10|0,0:0|0:0,0:0:0:0:
339,89,33921,2,0,P|314:114|302:148,1,71.9999978027344
226,213,34245,2,0,P|250:238|262:272,1,71.9999978027344,10|0,0:2|0:0,0:0:0:0:
340,336,34569,6,0,L|411:344,2,71.9999978027344,14|0|0,0:0|0:0|0:0,0:0:0:0:
262,272,35056,1,8,0:0:0:0:
354,233,35218,2,0,L|425:241,1,71.9999978027344,10|0,0:0|0:0,0:0:0:0:
491,352,35542,1,8,0:0:0:0:
491,352,35867,5,14,0:0:0:0:
425,241,36029,2,0,L|428:203,2,35.9999989013672,8|0|0,3:2|0:0|3:0,0:0:0:0:
340,336,36353,1,0,3:0:0:0:
364,157,36515,1,10,0:0:0:0:
418,317,36677,1,8,0:0:0:0:
286,176,36839,2,0,L|289:138,3,35.9999989013672,2|0|0|0,3:2|3:0|3:0|3:0,3:0:0:0:
247,73,37164,6,0,B|215:94|215:94|204:199,1,143.999995605469,6|8,1:2|0:0,0:0:0:0:
153,302,37650,1,0,0:0:0:0:
66,225,37812,2,0,P|4:248|0:318,1,143.999995605469,0|10,0:0|0:0,0:0:0:0:
66,225,38461,2,0,P|77:159|18:121,1,143.999995605469,2|10,0:0|0:0,0:0:0:0:
18,121,39110,1,2,1:2:0:0:
66,225,39272,1,0,0:0:0:0:
0,317,39434,1,10,0:0:0:0:
73,225,39596,1,2,0:0:0:0:
153,302,39758,6,0,P|223:320|289:297,1,143.999995605469,14|0,0:0|0:0,0:0:0:0:
216,181,40245,1,0,0:0:0:0:
216,181,40407,2,0,P|165:232|152:301,1,143.999995605469,10|0,0:0|0:0,0:0:0:0:
288,297,40894,1,2,0:0:0:0:
288,297,41056,6,0,P|355:319|423:301,1,143.999995605469,14|0,0:0|0:0,0:0:0:0:
471,235,41380,2,0,P|457:165|407:114,1,143.999995605469,10|0,0:0|0:0,0:0:0:0:
326,109,41704,2,0,P|272:155|253:224,1,143.999995605469,10|0,0:0|0:0,0:0:0:0:
288,297,42029,1,10,0:0:0:0:
288,297,42353,6,0,P|355:319|423:301,1,143.999995605469,6|0,1:2|0:0,0:0:0:0:
358,214,42839,1,2,0:0:0:0:
358,214,43002,2,0,P|350:177|356:142,1,71.9999978027344,10|0,0:0|0:0,0:0:0:0:
295,82,43326,2,0,P|258:90|223:84,1,71.9999978027344,2|0,0:0|0:0,0:0:0:0:
167,148,43650,2,0,P|175:185|169:220,1,71.9999978027344,10|0,0:0|0:0,0:0:0:0:
230,281,43975,2,0,P|267:273|302:279,1,71.9999978027344,2|0,0:0|0:0,0:0:0:0:
395,335,44299,5,10,0:0:0:0:
394,225,44461,1,0,0:0:0:0:
300,278,44623,1,2,1:2:0:0:
395,335,44785,1,2,0:0:0:0:
394,225,44948,6,0,L|411:162,2,64,8|0|0,0:0|0:0|0:0,0:0:0:0:
300,278,45434,1,0,0:3:0:0:
255,162,45596,2,0,L|191:175,1,64,8|0,0:0|0:3,0:3:0:0:
92,234,45921,2,0,L|156:247,1,64,0|0,0:2|0:3,0:3:0:0:
208,373,46245,6,0,P|224:351|232:309,1,64,8|0,0:0|0:0,0:0:0:0:
323,335,46569,2,0,P|318:308|294:272,1,64
246,151,46894,2,0,P|230:173|222:215,1,64,8|0,0:0|0:0,0:0:0:0:
131,189,47218,2,0,P|135:215|159:251,1,64
45,307,47542,6,0,L|34:371,2,64,8|0|0,0:0|0:0|0:0,0:0:0:0:
26,215,48029,1,0,0:0:0:0:
95,153,48191,2,0,P|125:159|162:148,1,64,8|0,0:0|0:0,0:0:0:0:
243,46,48515,2,0,L|229:111,1,64
271,244,48839,6,0,L|284:181,1,64,8|0,0:0|0:0,0:0:0:0:
418,136,49163,2,0,P|387:131|357:139,1,64
386,299,49488,2,0,L|372:236,1,64,8|0,0:0|0:0,0:0:0:0:
467,218,49812,2,0,B|482:182|482:182|506:127|475:82,1,143.999995605469,10|0,0:0|0:0,0:0:0:0:
374,70,50137,6,0,L|355:188,1,120,14|0,0:0|0:0,0:0:0:0:
229,151,50461,2,0,P|255:108|284:150,1,120,2|0,0:0|0:0,0:0:0:0:
157,188,50785,6,0,L|138:70,1,120,10|0,0:0|0:0,0:0:0:0:
315,14,51110,2,0,P|257:2|199:16,1,120,2|0,0:0|0:0,0:0:0:0:
374,70,51434,6,0,L|355:188,1,120,10|0,0:0|0:0,0:0:0:0:
420,234,51758,2,0,L|323:304,1,120,8|0,0:0|0:0,0:0:0:0:
336,382,52083,2,0,L|217:362,1,120,8|0,0:0|0:0,0:0:0:0:
104,217,52731,6,0,P|78:159|93:90,1,132.00000402832,14|0,0:0|0:0,0:0:0:0:
321,147,53056,2,0,L|188:147,1,132.00000402832,8|0,0:0|0:0,0:0:0:0:
421,93,53380,6,0,P|434:157|408:217,1,132.00000402832,10|0,0:0|0:0,0:0:0:0:
217,227,53704,2,0,B|239:253|255:281|255:281|271:253|293:226,1,132.00000402832,8|0,0:0|0:0,0:0:0:0:
134,308,54029,6,0,P|132:359|201:354,1,132.00000402832,10|0,0:0|0:0,0:0:0:0:
377,307,54353,2,0,P|371:366|313:358,1,132.00000402832,8|0,0:0|0:0,0:0:0:0:
293,226,54677,6,0,B|271:253|255:281|255:281|239:253|216:226,1,132.00000402832,8|0,0:0|0:0,0:0:0:0:
74,203,55326,6,0,P|86:156|118:122,1,95.9999970703126,6|0,1:2|0:0,0:0:0:0:
256,149,55650,1,10,0:0:0:0:
182,39,55812,1,0,0:0:0:0:
314,67,55975,6,0,L|408:86,1,95.9999970703126,2|0,0:0|0:0,0:0:0:0:
256,149,56299,1,10,0:0:0:0:
182,39,56461,1,2,0:0:0:0:
217,227,56623,6,0,P|285:229|338:178,1,143.999995605469,2|0,1:2|0:0,0:0:0:0:
416,131,56948,2,0,P|379:189|397:260,1,143.999995605469,10|0,0:0|0:0,0:0:0:0:
400,352,57272,1,2,0:0:0:0:
475,206,57434,1,0,0:0:0:0:
400,352,57596,2,0,P|367:291|296:270,1,143.999995605469,10|0,0:0|0:0,0:0:0:0:
224,323,57921,6,0,P|164:355|88:347,1,143.999995605469,2|0,1:2|0:0,0:0:0:0:
73,144,58245,2,0,P|31:202|29:273,1,143.999995605469,10|0,0:0|0:0,0:0:0:0:
140,241,58569,1,2,1:2:0:0:
170,130,58731,2,0,P|227:165|258:235,1,143.999995605469,2|0,1:2|0:0,0:0:0:0:
140,241,59056,1,2,1:2:0:0:
170,130,59218,6,0,P|240:138|303:105,1,143.999995605469,10|0,0:0|0:0,0:0:0:0:
388,61,59542,2,0,L|370:203,1,143.999995605469,2|0,0:0|0:0,0:0:0:0:
389,298,59867,1,10,0:0:0:0:
265,244,60029,1,0,0:0:0:0:
220,349,60191,1,0,1:0:0:0:
399,296,60353,1,0,0:0:0:0:
250,239,60515,6,0,P|202:237|156:259,1,95.9999970703126,14|0,0:0|0:0,0:0:0:0:
53,369,60839,1,2,0:0:0:0:
21,188,61002,1,0,0:0:0:0:
158,257,61164,2,0,P|205:256|251:237,1,95.9999970703126,10|0,0:0|0:0,0:0:0:0:
386,158,61488,5,2,0:0:0:0:
181,140,61650,1,2,0:0:0:0:
174,140,61731,1,0,0:0:0:0:
167,140,61812,1,10,1:2:0:0:
196,361,61975,1,0,0:0:0:0:
403,293,62137,1,0,0:0:0:0:
374,72,62299,2,0,B|274:88|324:176|239:195,1,191.999994140625,8|0,0:0|0:0,0:0:0:0:
386,158,62785,6,0,L|430:175,1,47.9999985351563,0|0,1:0|0:0,0:0:0:0:
378,238,62948,2,0,L|407:274,1,47.9999985351563,0|0,1:0|0:0,0:0:0:0:
332,307,63110,5,14,0:0:0:0:
128,250,63272,1,0,0:0:0:0:
342,307,63434,1,10,0:0:0:0:
100,347,63596,1,0,0:0:0:0:
352,307,63758,1,10,0:0:0:0:
108,244,63921,1,0,0:0:0:0:
362,307,64083,1,10,0:0:0:0:
82,350,64245,1,0,0:0:0:0:
199,96,64407,5,14,0:0:0:0:
89,334,64569,1,0,0:0:0:0:
199,86,64731,1,10,0:0:0:0:
82,350,64894,1,0,0:0:0:0:
199,77,65056,2,0,B|161:59|161:59|128:80,1,80,10|0,0:0|0:0,0:0:0:0:
99,285,65380,6,0,B|81:348|81:348|206:325,1,192,2|0,1:2|0:0,0:0:0:0:
372,307,65704,5,14,0:0:0:0:
311,128,65867,1,0,0:0:0:0:
294,340,66029,1,2,1:2:0:0:
381,161,66192,1,0,0:0:0:0:
239,275,66353,5,10,0:0:0:0:
452,192,66516,1,0,0:0:0:0:
241,94,66677,1,2,1:2:0:0:
372,307,66839,1,2,0:0:0:0:
161,169,67002,6,0,P|135:128|134:73,1,103.999995239258,14|0,0:0|0:0,0:0:0:0:
327,17,67326,2,0,P|353:58|354:113,1,103.999995239258,2|0,1:2|0:0,0:0:0:0:
89,284,67650,5,10,0:0:0:0:
166,22,67812,1,0,0:0:0:0:
247,301,67975,1,2,1:2:0:0:
166,17,68137,1,0,0:0:0:0:
476,101,68299,5,14,0:0:0:0:
219,185,68461,1,0,0:0:0:0:
377,9,68623,1,2,1:2:0:0:
317,290,68785,1,0,0:0:0:0:
240,47,68948,5,10,0:0:0:0:
470,252,69110,1,0,0:0:0:0:
188,193,69272,1,2,1:2:0:0:
503,90,69434,1,2,0:0:0:0:
317,290,69596,5,10,0:0:0:0:
129,85,69758,1,0,0:0:0:0:
377,9,69921,2,0,L|357:111,1,103.999995239258,10|0,0:0|0:0,0:0:0:0:
280,290,70245,2,0,L|260:188,1,103.999995239258,2|0,1:2|0:0,0:0:0:0:
240,48,70569,5,10,0:0:0:0:
86,164,70731,1,0,0:0:0:0:
193,251,70894,6,0,L|213:353,1,103.999995239258,14|0,0:0|0:0,0:0:0:0:
379,261,71218,1,2,1:2:0:0:
173,147,71380,1,0,0:0:0:0:
41,323,71542,1,10,0:0:0:0:
74,89,71704,1,0,0:0:0:0:
276,204,71867,1,2,1:2:0:0:
58,207,72029,1,2,0:0:0:0:
270,88,72191,6,0,L|378:67,1,103.999995239258,10|0,0:0|0:0,0:0:0:0:
276,204,72515,1,2,1:2:0:0:
74,89,72677,1,0,0:0:0:0:
270,88,72839,1,8,0:0:0:0:
271,336,73001,1,0,0:0:0:0:
172,151,73164,1,0,1:0:0:0:
400,16,73326,1,0,0:0:0:0:
403,281,73488,5,14,0:0:0:0:
179,36,73650,1,0,1:0:0:0:
434,168,73812,1,10,0:0:0:0:
164,266,73974,1,0,1:0:0:0:
179,36,74137,5,10,0:0:0:0:
403,281,74299,1,0,1:0:0:0:
172,151,74461,1,10,0:0:0:0:
468,55,74623,1,0,1:0:0:0:
403,281,74785,5,14,0:0:0:0:
179,36,74948,1,0,1:0:0:0:
468,55,75110,1,8,0:0:0:0:
164,266,75272,1,0,1:0:0:0:
179,36,75434,5,14,3:2:0:0:
358,330,75596,1,0,1:0:0:0:
43,197,75758,1,8,3:2:0:0:
376,120,75921,1,0,1:0:0:0:
156,381,76083,1,14,0:2:0:0:
43,197,76731,5,10,0:0:0:0:
43,197,77218,5,2,1:2:0:0:
256,290,77380,1,10,0:0:0:0:
350,134,77542,5,0,0:0:0:0:
256,290,77704,1,8,0:0:0:0:
167,133,77867,5,0,0:0:0:0:
256,290,78029,1,10,0:0:0:0:
256,290,78677,5,14,1:2:0:0:
469,197,79325,5,10,0:0:0:0:
469,197,79812,5,2,1:2:0:0:
256,290,79974,1,10,0:0:0:0:
167,133,80136,5,0,0:0:0:0:
256,290,80298,1,8,0:0:0:0:
350,134,80461,5,0,0:0:0:0:
256,290,80623,1,8,0:0:0:0:
256,290,80948,6,0,L|256:311,6,17.9999994506836,2|0|0|0|0|0|0,3:2|3:0|3:0|3:0|3:0|3:0|3:0,3:0:0:0:
198,208,81272,5,14,0:0:0:0:
198,208,81353,1,0,0:0:0:0:
198,208,81434,2,0,L|160:222,1,40
68,159,81596,1,0,0:0:0:0:
15,265,81758,2,0,B|5:325|37:388|37:388|65:352,1,160,8|0,0:0|0:0,0:0:0:0:
163,332,82245,1,8,0:0:0:0:
68,159,82407,1,0,0:0:0:0:
254,78,82569,5,8,0:0:0:0:
254,78,82650,1,0,0:0:0:0:
254,78,82731,2,0,L|293:90,1,40
452,208,82893,1,0,0:0:0:0:
472,25,83056,1,8,0:0:0:0:
358,238,83218,5,0,0:0:0:0:
343,18,83380,1,0,0:0:0:0:
259,173,83542,1,2,1:2:0:0:
266,180,83866,5,10,0:0:0:0:
266,180,83947,1,0,0:0:0:0:
266,180,84028,2,0,L|274:221,1,40
292,89,84191,1,0,0:0:0:0:
292,89,84272,1,0,0:0:0:0:
292,89,84353,2,0,B|224:74|179:128|179:128|170:94,1,160,8|0,0:0|0:0,0:0:0:0:
275,0,84839,2,0,P|321:2|351:19,1,80,2|0,1:2|0:0,0:0:0:0:
358,172,85164,5,14,0:0:0:0:
170,95,85326,1,0,0:0:0:0:
358,172,85488,1,0,0:0:0:0:
105,153,85650,1,0,0:0:0:0:
263,333,85812,5,8,0:0:0:0:
292,89,85974,1,0,0:0:0:0:
263,333,86137,1,0,0:0:0:0:
105,153,86299,1,0,0:0:0:0:
55,339,86461,5,14,0:0:0:0:
55,339,86542,1,0,0:0:0:0:
55,339,86623,2,0,L|65:293,1,40
105,153,86785,1,0,0:0:0:0:
17,57,86947,2,0,B|100:43|100:43|145:35|171:67,1,160,8|0,0:0|0:0,0:0:0:0:
284,180,87434,1,8,0:0:0:0:
105,153,87596,1,0,0:0:0:0:
371,101,87758,5,10,0:0:0:0:
371,101,87839,1,0,0:0:0:0:
371,101,87920,2,0,L|414:108,1,40
284,180,88082,1,0,0:0:0:0:
322,0,88245,1,8,0:0:0:0:
389,229,88407,1,0,0:0:0:0:
236,90,88569,1,0,0:0:0:0:
209,272,88731,1,2,1:2:0:0:
216,279,89055,5,10,0:0:0:0:
216,279,89137,1,0,0:0:0:0:
216,279,89218,2,0,L|209:330,1,40
223,194,89380,1,0,0:0:0:0:
223,194,89461,1,0,0:0:0:0:
223,194,89542,2,0,B|284:197|309:268|309:268|344:241,1,160,8|0,0:0|0:0,0:0:0:0:
229,83,90028,1,2,1:2:0:0:
210,318,90191,1,0,0:0:0:0:
406,181,90353,6,0,B|468:199|456:157|522:176,2,106.666666666667,14|0|0,0:0|0:0|0:0,0:0:0:0:
32,190,91001,2,0,L|75:177,1,40,8|0,0:0|0:0,0:0:0:0:
124,104,91326,2,0,L|167:104,1,40,8|0,0:0|0:0,0:0:0:0:
223,179,91650,6,0,L|261:190,1,40,14|0,0:0|0:0,0:0:0:0:
