osu file format v14

[General]
AudioFilename: audio.mp3
AudioLeadIn: 0
PreviewTime: 135959
Countdown: 0
SampleSet: Soft
StackLeniency: 0.5
Mode: 0
LetterboxInBreaks: 0
WidescreenStoryboard: 1

[Editor]
DistanceSpacing: 1.6
BeatDivisor: 4
GridSize: 32
TimelineZoom: 1.200001

[Metadata]
Title:Ano Yume o Nazotte
TitleUnicode:あの夢をなぞって
Artist:Kagura Mea
ArtistUnicode:神楽めあ
Creator:Present
Version:Hard
Source:
Tags:japanese pop yoasobi angelsnow vtuber virtual youtuber meaqua tete vtb niconico bilibili Kuki1537 PikAqours 幾田りら Ikuta Lilas Rira ikura Ayase Tracing that Dream Project Paryi NHOTBOT NHOT BOT NHOT-BOT cover jpop j-pop kowari
BeatmapID:3007469
BeatmapSetID:1464216

[Difficulty]
HPDrainRate:4
CircleSize:3.8
OverallDifficulty:7
ApproachRate:8
SliderMultiplier:1.1
SliderTickRate:1

[Events]
//Background and Video events
0,0,"1.jpg",0,0
//Break Periods
2,158757,166757
//Storyboard Layer 0 (Background)
//Storyboard Layer 1 (Fail)
//Storyboard Layer 2 (Pass)
//Storyboard Layer 3 (Foreground)
//Storyboard Layer 4 (Overlay)
//Storyboard Sound Samples

[TimingPoints]
20001,333.333333333333,4,2,22,45,1,0
22501,-100,4,2,22,55,0,0
22834,-100,4,2,22,55,0,0
25168,-100,4,2,22,65,0,0
36001,-100,4,2,22,55,0,0
41334,-100,4,2,22,55,0,0
46584,-100,4,2,22,5,0,0
46668,-100,4,2,22,55,0,0
47918,-100,4,2,22,5,0,0
48001,-100,4,2,22,55,0,0
49251,-100,4,2,22,5,0,0
49334,-100,4,2,22,55,0,0
50584,-100,4,2,22,5,0,0
50668,-100,4,2,22,55,0,0
51918,-100,4,2,22,5,0,0
52001,-100,4,2,22,55,0,0
57334,-100,4,2,22,45,0,0
58918,-100,4,2,22,5,0,0
59001,-100,4,2,22,45,0,0
66584,-100,4,2,22,5,0,0
66668,-100,4,2,22,45,0,0
68000,-100,4,2,22,45,0,0
69251,-100,4,2,22,5,0,0
69334,-100,4,2,22,45,0,0
70584,-100,4,2,22,5,0,0
70668,-100,4,2,22,45,0,0
71918,-100,4,2,22,5,0,0
72001,-100,4,2,22,45,0,0
73334,-100,4,2,22,65,0,0
73584,-100,4,2,22,5,0,0
73668,-100,4,2,22,65,0,0
77584,-100,4,2,22,5,0,0
77668,-100,4,2,22,65,0,0
78667,-90.9090909090909,4,2,22,75,0,1
81251,-90.9090909090909,4,2,22,5,0,1
81334,-90.9090909090909,4,2,22,75,0,1
83918,-90.9090909090909,4,2,22,5,0,1
84001,-90.9090909090909,4,2,22,75,0,1
86584,-90.9090909090909,4,2,22,5,0,1
86668,-90.9090909090909,4,2,22,75,0,1
87918,-90.9090909090909,4,2,22,5,0,1
88001,-90.9090909090909,4,2,22,75,0,1
91918,-90.9090909090909,4,2,22,5,0,1
92001,-90.9090909090909,4,2,22,75,0,1
99959,-90.9090909090909,4,2,22,75,0,0
100000,-90.9090909090909,4,2,22,75,0,1
102584,-90.9090909090909,4,2,22,5,0,1
102668,-90.9090909090909,4,2,22,75,0,1
105251,-90.9090909090909,4,2,22,5,0,1
105334,-90.9090909090909,4,2,22,75,0,1
107918,-90.9090909090909,4,2,22,5,0,1
108001,-90.9090909090909,4,2,22,75,0,1
118667,-100,4,2,22,65,0,0
118918,-100,4,2,22,5,0,0
119001,-100,4,2,22,65,0,0
121584,-100,4,2,22,5,0,0
121668,-100,4,2,22,65,0,0
124251,-100,4,2,22,5,0,0
124334,-100,4,2,22,65,0,0
129251,-100,4,2,22,5,0,0
129334,-100,4,2,22,65,0,0
131918,-100,4,2,22,5,0,0
132001,-100,4,2,22,65,0,0
134918,-100,4,2,22,5,0,0
135001,-100,4,2,22,65,0,0
137334,-100,4,2,22,45,0,0
148001,-100,4,2,22,55,0,0
153334,-100,4,2,22,65,0,0
155918,-100,4,2,22,5,0,0
156001,-100,4,2,22,65,0,0
158667,-100,4,2,22,45,0,0
169251,-100,4,2,22,5,0,0
169334,-100,4,2,22,55,0,0
174667,-100,4,2,22,65,0,0
180001,-100,4,2,22,75,0,0
180167,-83.3333333333333,4,2,22,75,0,0
182667,-100,4,2,22,75,0,0
185251,-100,4,2,22,5,0,0
185334,-83.3333333333333,4,2,22,85,0,1
186584,-83.3333333333333,4,2,22,5,0,1
186668,-83.3333333333333,4,2,22,85,0,1
187918,-83.3333333333333,4,2,22,5,0,1
188001,-83.3333333333333,4,2,22,85,0,1
189251,-83.3333333333333,4,2,22,5,0,1
189334,-83.3333333333333,4,2,22,85,0,1
190584,-83.3333333333333,4,2,22,5,0,1
190668,-83.3333333333333,4,2,22,85,0,1
191918,-83.3333333333333,4,2,22,5,0,1
192001,-83.3333333333333,4,2,22,85,0,1
193251,-83.3333333333333,4,2,22,5,0,1
193334,-83.3333333333333,4,2,22,85,0,1
195918,-83.3333333333333,4,2,22,5,0,1
196001,-83.3333333333333,4,2,22,85,0,1
198584,-83.3333333333333,4,2,22,5,0,1
198668,-83.3333333333333,4,2,22,85,0,1
199918,-83.3333333333333,4,2,22,5,0,1
200001,-83.3333333333333,4,2,22,85,0,1
203959,-83.3333333333333,4,2,22,85,0,0
204000,-83.3333333333333,4,2,22,85,0,1
205251,-83.3333333333333,4,2,22,5,0,1
205334,-83.3333333333333,4,2,22,85,0,1
206584,-83.3333333333333,4,2,22,5,0,1
206668,-83.3333333333333,4,2,22,85,0,1
207918,-83.3333333333333,4,2,22,5,0,1
208001,-83.3333333333333,4,2,22,85,0,1
209251,-83.3333333333333,4,2,22,5,0,1
209334,-83.3333333333333,4,2,22,85,0,1
210584,-83.3333333333333,4,2,22,5,0,1
210668,-83.3333333333333,4,2,22,85,0,1
211918,-83.3333333333333,4,2,22,5,0,1
212001,-83.3333333333333,4,2,22,85,0,1
213251,-83.3333333333333,4,2,22,5,0,1
213334,-83.3333333333333,4,2,22,85,0,1
214584,-83.3333333333333,4,2,22,5,0,1
214668,-83.3333333333333,4,2,22,85,0,1
221417,-83.3333333333333,4,2,22,5,0,1
221500,-83.3333333333333,4,2,22,85,0,1
228000,-90.9090909090909,4,2,22,85,0,0
237167,-90.9090909090909,4,2,22,65,0,0

[Colours]
Combo1 : 255,126,246
Combo2 : 126,237,255
Combo3 : 255,199,126
Combo4 : 126,199,255

[HitObjects]
88,81,20001,6,0,P|59:82|34:95,2,55,2|0|2,1:2|1:2|0:2,0:0:0:0:
151,134,20501,2,0,L|138:250,1,110,2|2,0:2|0:0,0:0:0:0:
26,364,21167,1,2,1:2:0:0:
191,362,21501,2,0,P|194:328|181:288,1,55,2|2,1:2|1:2,0:0:0:0:
138,243,21834,1,2,1:2:0:0:
191,179,22001,2,0,L|200:118,2,55,2|2|2,1:2|0:0|1:2,0:0:0:0:
263,218,22501,6,0,P|321:231|386:202,1,110,6|4,1:2|0:3,0:0:0:0:
421,152,23001,1,8,1:2:0:0:
396,73,23167,1,8,1:2:0:0:
317,98,23334,1,8,1:2:0:0:
247,53,23501,1,8,1:2:0:0:
203,122,23667,1,8,1:2:0:0:
137,71,23834,6,0,B|96:62|96:62|66:76|66:76|14:66,2,110,8|10|10,1:2|1:2|1:2,0:0:0:0:
107,233,24834,2,0,P|97:268|102:306,1,55,2|2,0:0|0:0,0:0:0:0:
165,332,25167,6,0,B|226:343|210:300|272:310,1,110,6|0,1:2|3:0,0:0:0:0:
345,340,25667,1,10,0:0:0:0:
352,257,25834,2,0,L|341:195,1,55,2|0,3:0|1:0,0:0:0:0:
289,139,26167,2,0,P|258:130|213:139,2,55,0|10|0,3:0|0:0|3:0,0:0:0:0:
370,127,26667,6,0,P|391:107|408:69,1,55,2|0,1:2|3:0,0:0:0:0:
378,5,27001,1,10,0:0:0:0:
305,42,27167,2,0,P|274:51|229:42,1,55,2|0,3:0|1:0,0:0:0:0:
172,76,27501,2,0,L|104:61,2,55,0|10|0,3:0|0:0|3:0,0:0:0:0:
235,131,28001,6,0,P|238:164|229:193,1,55,2|0,1:2|3:0,0:0:0:0:
168,236,28334,1,10,0:0:0:0:
90,206,28501,2,0,B|60:242|60:242|76:310,1,110,2|0,3:0|3:0,0:0:0:0:
143,349,29001,1,10,0:0:0:0:
210,302,29167,1,2,3:0:0:0:
282,341,29334,6,0,L|340:326,1,55,2|0,1:2|3:0,0:0:0:0:
384,260,29667,2,0,L|326:245,1,55,10|0,0:0|3:0,0:0:0:0:
265,194,30001,1,2,1:2:0:0:
265,194,30084,2,0,P|263:162|276:133,1,55,8|0,0:0|0:0,0:0:0:0:
296,108,30334,1,10,0:0:0:0:
355,179,30501,1,4,3:3:0:0:
355,179,30584,1,12,3:0:0:0:
355,179,30667,6,0,L|408:192,2,55,6|0|10,1:2|3:0|0:0,0:0:0:0:
326,256,31167,2,0,B|274:279|274:279|220:267,1,110,2|2,3:0|3:0,0:0:0:0:
144,240,31667,1,10,0:0:0:0:
71,280,31834,1,0,3:0:0:0:
38,203,32001,6,0,P|41:147|71:99,1,110,2|10,1:2|0:0,0:0:0:0:
146,128,32501,2,0,B|210:132|189:95|253:97,1,110,2|2,3:0|3:0,0:0:0:0:
326,71,33001,1,10,0:0:0:0:
387,124,33167,1,0,3:0:0:0:
462,90,33334,6,0,P|479:70|494:30,2,55,2|0|10,1:2|3:0|0:0,0:0:0:0:
387,124,33834,2,0,B|360:159|360:159|383:236,1,110,2|2,3:0|3:0,0:0:0:0:
457,248,34334,1,10,0:0:0:0:
455,330,34501,1,2,3:0:0:0:
375,349,34667,6,0,B|317:348|333:307|264:309,1,110,6|8,1:2|1:3,0:0:0:0:
205,287,35167,1,2,0:2:0:0:
205,287,35251,1,2,0:2:0:0:
205,287,35334,2,0,P|192:258|191:217,1,55,10|4,0:3|0:3,0:0:0:0:
257,188,35667,2,0,P|270:159|271:118,1,55,4|0,0:3|1:0,0:0:0:0:
203,90,36001,6,0,P|150:100|116:155,2,110,6|2|2,1:2|1:2|1:2,0:0:0:0:
348,168,37001,2,0,L|404:155,1,55,2|0,1:2|0:2,0:2:0:0:
412,73,37334,2,0,L|297:99,1,110,2|2,1:2|1:2,0:2:0:0:
261,167,37834,1,0,0:2:0:0:
261,167,38001,2,0,L|250:302,1,110,2|2,1:2|1:2,0:2:0:0:
394,360,38667,6,0,L|402:250,1,110,2|0,1:2|1:2,0:2:0:0:
442,179,39167,1,2,0:2:0:0:
442,179,39334,2,0,P|415:169|386:171,1,55,2|0,1:2|0:0,0:2:0:0:
327,225,39667,2,0,P|300:235|271:233,1,55,2|2,1:2|0:2,0:0:0:0:
203,190,40001,1,2,1:2:0:0:
64,100,40334,6,0,L|70:168,1,55,0|0,1:2|0:0,0:0:0:0:
131,209,40667,2,0,L|125:277,1,55,2|0,1:2|0:2,0:2:0:0:
54,306,41001,2,0,L|60:374,1,55,2|0,1:2|0:2,0:2:0:0:
140,372,41334,6,0,B|203:377|185:336|245:340,1,110,2|2,1:2|1:2,0:2:0:0:
326,359,41834,1,0,0:2:0:0:
326,359,42001,2,0,P|325:325|315:294,1,55,2|0,1:2|0:2,0:2:0:0:
249,261,42334,2,0,P|250:227|260:196,1,55,2|0,1:2|0:2,0:2:0:0:
328,168,42667,2,0,P|383:184|380:244,2,110,2|2|0,1:2|1:2|1:2,0:2:0:0:
166,201,43667,2,0,L|106:216,1,55,2|2,1:2|0:2,0:0:0:0:
79,290,44001,6,0,P|114:317|193:296,2,110,2|2|2,1:2|1:2|1:2,0:2:0:0:
39,223,44834,1,0,0:2:0:0:
39,223,45001,2,0,P|44:194|59:166,1,55,2|0,1:2|0:2,0:2:0:0:
120,119,45334,2,0,B|144:94|141:47|141:47|174:65,1,110,2|0,1:2|1:2,0:2:0:0:
245,96,45834,1,2,0:2:0:0:
314,51,46001,2,0,P|345:39|384:43,1,55,2|8,1:2|0:3,0:0:0:0:
361,124,46334,1,8,0:2:0:0:
361,124,46667,6,0,L|374:195,1,55,6|0,1:2|0:0,0:2:0:0:
441,222,47001,2,0,L|431:276,1,55,10|0,0:2|0:2,0:0:0:0:
359,316,47334,2,0,L|346:245,1,55,2|4,0:2|1:3,0:0:0:0:
279,218,47668,2,0,L|288:163,1,55,10|0,0:2|0:0,0:2:0:0:
347,105,48000,6,0,B|396:103|420:141|420:141|453:135,2,110,2|10|2,1:2|0:2|0:2,0:2:0:0:
288,163,48834,1,4,1:3:0:0:
266,83,49000,2,0,L|263:20,1,55,10|0,0:2|0:0,0:2:0:0:
191,69,49334,6,0,L|194:132,1,55,2|0,1:2|0:2,0:2:0:0:
123,168,49667,2,0,L|126:231,1,55,10|0,0:2|0:2,0:2:0:0:
188,276,50000,2,0,P|216:275|241:264,1,55,2|4,0:2|1:3,0:0:0:0:
293,200,50334,2,0,P|321:201|346:212,1,55,10|0,0:2|0:0,0:0:0:0:
414,257,50667,2,0,P|386:303|391:364,1,110,2|8,1:2|0:2,0:2:0:0:
495,231,51334,6,0,L|485:163,1,55,2|4,0:2|1:3,0:0:0:0:
418,130,51667,2,0,L|428:62,1,55,10|0,0:2|0:0,0:2:0:0:
361,23,52000,6,0,B|297:21|325:64|247:56,1,110,6|10,1:2|0:2,0:2:0:0:
181,82,52500,2,0,P|172:112|174:144,1,55,2|0,0:2|0:0,0:2:0:0:
235,197,52834,1,4,1:3:0:0:
235,197,53000,2,0,P|244:227|241:259,1,55,8|2,0:2|0:2,0:0:0:0:
179,303,53334,6,0,P|133:330|64:312,1,110,2|10,1:2|0:2,0:2:0:0:
66,240,53834,2,0,P|112:213|181:231,1,110,2|4,0:2|1:3,0:2:0:0:
243,250,54334,2,0,P|269:259|310:251,1,55,8|8,0:2|0:3,0:0:0:0:
358,202,54667,6,0,L|348:146,1,55,4|0,1:2|0:0,0:0:0:0:
381,72,55000,1,2,1:2:0:0:
481,203,55334,1,8,0:2:0:0:
498,283,55500,1,0,1:2:0:0:
417,262,55667,1,8,0:2:0:0:
359,320,55834,1,4,1:2:0:0:
228,219,56167,5,8,0:2:0:0:
164,166,56334,2,0,P|113:162|68:200,2,110,8|0|4,0:2|1:2|1:3,0:0:0:0:
296,167,57334,5,6,1:2:0:0:
260,293,57667,2,0,P|232:301|185:297,1,55,2|2,1:2|0:0,0:0:0:0:
127,275,58000,2,0,P|104:294|91:324,3,55,8|2|2|2,0:0|0:0|0:0|0:0,0:0:0:0:
20,356,58667,2,0,P|10:308|18:243,1,110,0|4,1:0|1:3,0:0:0:0:
174,197,59334,2,0,P|184:149|176:84,1,110,10|2,0:2|0:2,0:0:0:0:
25,24,60000,5,0,1:0:0:0:
90,175,60334,1,2,1:2:0:0:
140,18,60667,1,10,0:0:0:0:
254,136,61000,1,2,0:2:0:0:
90,175,61334,6,0,P|81:201|77:248,1,55,2|0,1:2|0:0,0:0:0:0:
144,275,61667,2,0,P|153:301|157:348,1,55,4|2,1:3|0:0,0:0:0:0:
228,370,62000,2,0,L|286:359,1,55,10|0,0:2|0:2,0:2:0:0:
337,297,62334,2,0,L|395:308,1,55,2|0,1:2|0:2,0:0:0:0:
465,342,62667,6,0,P|481:290|467:231,2,110,2|2|10,1:2|1:2|0:0,0:0:0:0:
307,290,63667,1,2,0:2:0:0:
346,129,64000,2,0,L|333:17,2,110,0|4|8,1:0|1:3|0:0,0:0:0:0:
469,236,65000,1,2,0:0:0:0:
346,129,65334,6,0,P|294:114|228:122,1,110,0|0,1:0|1:0,0:0:0:0:
109,221,66000,2,0,P|161:236|227:228,1,110,8|2,0:0|1:2,0:0:0:0:
379,203,66667,1,2,1:2:0:0:
379,203,67334,6,0,L|373:137,1,55,10|0,0:0|0:0,0:0:0:0:
326,80,67667,1,10,0:3:0:0:
272,143,67834,1,2,1:2:0:0:
272,143,67917,1,0,1:0:0:0:
272,143,68000,6,0,P|245:151|203:144,1,55,4|0,1:2|0:0,0:0:0:0:
164,85,68334,2,0,P|136:83|110:91,1,55,10|0,0:0|0:0,0:0:0:0:
60,157,68667,1,0,3:0:0:0:
141,169,68834,1,4,1:3:0:0:
90,233,69000,2,0,P|82:262|82:290,1,55,10|0,0:0|0:0,0:0:0:0:
155,324,69334,6,0,P|207:327|254:360,2,110,2|10|2,1:2|0:0|3:0,0:0:0:0:
81,362,70167,1,4,1:3:0:0:
10,318,70334,2,0,P|2:291|11:254,1,55,10|0,0:0|0:0,0:0:0:0:
63,205,70667,6,0,B|124:215|109:165|171:179,1,110,2|10,1:2|0:0,0:0:0:0:
234,223,71167,1,0,1:0:0:0:
234,223,71334,2,0,P|242:198|244:157,1,55,2|4,3:2|1:3,0:0:0:0:
196,102,71667,2,0,P|188:77|186:36,1,55,10|0,0:0|0:0,0:0:0:0:
265,27,72000,6,0,B|294:32|318:16|318:16|335:42|370:54,1,110,2|8,1:2|0:0,0:0:0:0:
417,109,72500,1,0,0:0:0:0:
397,189,72667,2,0,P|371:207|329:213,1,55,2|4,3:2|1:3,0:0:0:0:
288,156,73000,2,0,P|314:138|356:132,1,55,10|0,0:0|0:3,0:0:0:0:
417,109,73334,6,0,B|452:115|452:115|481:194,1,110,6|8,1:2|0:0,0:0:0:0:
444,260,73834,2,0,L|452:315,2,55,2|10|2,0:0|0:0|0:0,0:0:0:0:
397,189,74334,1,8,0:0:0:0:
337,245,74500,1,4,1:3:0:0:
286,179,74667,6,0,P|255:178|221:196,1,55,10|2,0:0|0:0,0:0:0:0:
167,237,75000,1,8,0:0:0:0:
98,190,75167,1,0,0:0:0:0:
128,113,75334,2,0,P|132:85|121:51,1,55,8|4,0:0|1:3,0:0:0:0:
46,36,75667,2,0,P|42:64|53:98,1,55,8|0,0:0|1:0,0:0:0:0:
19,167,76000,5,4,1:2:0:0:
98,190,76167,1,0,1:0:0:0:
49,256,76334,1,8,1:2:0:0:
128,279,76501,1,0,1:0:0:0:
284,229,76834,5,0,1:2:0:0:
362,257,77000,2,0,P|375:296|366:328,1,55,8|0,1:2|1:2,0:0:0:0:
301,351,77334,5,6,1:2:0:0:
201,219,77667,2,0,P|203:182|218:156,1,55,2|0,1:2|3:0,0:0:0:0:
252,95,78000,2,0,P|215:93|189:78,1,55,8|8,1:2|1:2,0:0:0:0:
125,47,78334,2,0,P|123:84|108:110,1,55,8|8,1:2|1:2,0:0:0:0:
41,152,78667,6,0,B|20:185|20:185|32:274,2,121.000003692627,6|10|2,1:2|0:0|3:2,0:0:0:0:
115,204,79500,1,4,1:3:0:0:
183,143,79667,2,0,P|212:133|246:138,1,60.5000018463135,10|0,0:0|0:0,0:0:0:0:
315,188,80000,6,0,P|364:173|345:112,1,121.000003692627,2|10,1:2|0:0,0:0:0:0:
281,57,80500,1,0,0:0:0:0:
367,28,80667,2,0,P|399:27|438:42,1,60.5000018463135,2|4,3:2|1:3,0:0:0:0:
453,121,81000,2,0,P|421:122|382:107,1,60.5000018463135,10|0,0:0|0:0,0:0:0:0:
305,137,81334,6,0,P|294:200|327:263,2,121.000003692627,2|8|0,1:2|0:0|3:2,0:0:0:0:
253,68,82167,1,4,1:3:0:0:
253,68,82334,2,0,L|194:79,1,60.5000018463135,10|0,0:2|0:0,0:0:0:0:
119,26,82667,6,0,B|90:64|90:64|112:143,1,121.000003692627,2|10,1:2|0:0,0:0:0:0:
184,186,83167,1,0,0:0:0:0:
108,235,83334,2,0,P|77:234|42:248,1,60.5000018463135,2|4,3:2|0:3,0:0:0:0:
62,333,83667,2,0,P|93:334|128:320,1,60.5000018463135,10|0,0:0|0:0,0:0:0:0:
203,288,84000,6,0,P|259:287|328:311,2,121.000003692627,6|8|0,1:2|0:0|3:2,0:0:0:0:
120,324,84834,1,4,1:3:0:0:
193,381,85001,2,0,P|228:383|271:370,1,60.5000018463135,10|0,0:0|0:3,0:0:0:0:
264,287,85334,6,0,L|273:228,1,60.5000018463135,2|0,1:2|0:0,0:0:0:0:
190,189,85667,2,0,L|181:130,1,60.5000018463135,10|0,0:0|0:0,0:0:0:0:
270,141,86000,2,0,L|279:82,1,60.5000018463135,2|4,3:2|1:3,0:0:0:0:
196,43,86333,2,0,P|165:40|132:57,1,60.5000018463135,10|0,0:0|0:0,0:0:0:0:
81,123,86668,6,0,P|85:188|146:129,1,181.500005538941,6|0,1:2|0:0,0:0:0:0:
239,119,87334,2,0,B|271:213|200:205|242:312,1,181.500005538941,10|0,3:2|0:0,0:0:0:0:
316,252,88000,6,0,B|343:290|338:333|338:333|302:378|244:371,1,181.500005538941,6|0,1:2|0:0,0:0:0:0:
171,336,88667,1,2,0:0:0:0:
85,368,88834,1,4,1:3:0:0:
98,281,89000,1,8,0:0:0:0:
98,281,89334,6,0,L|79:158,2,121.000003692627,6|10|2,1:2|0:2|3:2,0:0:0:0:
171,336,90167,1,4,1:3:0:0:
219,258,90334,1,10,0:0:0:0:
219,258,90500,6,0,P|241:242|275:237,1,60.5000018463135,2|0,0:0|1:0,0:0:0:0:
348,185,90834,2,0,L|339:117,1,60.5000018463135,2|8,0:0|0:0,0:0:0:0:
269,66,91167,2,0,L|260:134,1,60.5000018463135,2|0,0:0|3:2,0:0:0:0:
193,185,91500,2,0,B|123:199|147:142|73:160,1,121.000003692627,6|0,1:3|0:0,0:0:0:0:
7,212,92000,6,0,P|1:253|33:331,2,121.000003692627,2|10|2,1:2|0:0|3:0,0:0:0:0:
80,158,92833,1,4,1:3:0:0:
37,84,93000,1,10,0:2:0:0:
37,84,93166,2,0,P|73:48|148:51,1,121.000003692627,2|2,0:0|0:0,0:0:0:0:
207,108,93667,1,10,0:0:0:0:
207,108,94000,6,0,L|200:170,1,60.5000018463135,2|4,0:0|1:3,0:0:0:0:
254,241,94334,2,0,P|286:235|317:242,1,60.5000018463135,10|0,0:0|0:3,0:0:0:0:
399,269,94667,6,0,P|414:211|358:171,2,121.000003692627,6|8|2,1:2|0:0|3:2,0:0:0:0:
365,353,95500,1,4,1:3:0:0:
283,313,95667,2,0,P|255:326|206:319,1,60.5000018463135,8|0,0:0|0:0,0:0:0:0:
154,270,96000,6,0,B|119:250|119:250|25:274,2,121.000003692627,2|8|2,1:2|0:0|3:2,0:0:0:0:
225,326,96834,1,4,1:3:0:0:
230,235,97000,2,0,L|215:167,1,60.5000018463135,10|0,0:0|0:3,0:0:0:0:
242,87,97334,6,0,P|217:81|176:93,1,60.5000018463135,6|0,1:2|0:0,0:0:0:0:
158,177,97667,2,0,P|183:183|224:171,1,60.5000018463135,8|0,0:0|0:0,0:0:0:0:
303,148,98000,2,0,L|317:206,1,60.5000018463135,0|4,3:2|1:3,0:0:0:0:
399,245,98333,5,10,0:0:0:0:
380,334,98500,1,2,0:0:0:0:
298,292,98667,2,0,P|268:290|235:300,1,60.5000018463135,2|0,1:2|0:0,0:0:0:0:
160,343,99000,2,0,P|162:313|152:280,1,60.5000018463135,8|0,0:0|0:0,0:0:0:0:
118,199,99334,1,4,1:3:0:0:
169,124,99500,1,8,1:3:0:0:
109,55,99667,2,0,L|104:20,3,30.2500009231568,8|8|8|8,0:0|0:0|0:0|0:0,0:0:0:0:
143,0,100000,6,0,B|166:6|187:0|187:0|213:32|258:32,2,121.000003692627,4|8|0,1:2|0:0|3:2,0:0:0:0:
57,29,100833,1,4,1:3:0:0:
31,116,101000,2,0,P|26:149|35:189,1,60.5000018463135,10|0,0:0|0:0,0:0:0:0:
107,224,101334,6,0,P|112:191|103:151,1,60.5000018463135,2|0,1:2|0:0,0:0:0:0:
29,209,101667,2,0,L|24:282,1,60.5000018463135,10|0,0:0|0:0,0:0:0:0:
104,313,102000,2,0,B|137:317|160:297|160:297|178:325|222:328,1,121.000003692627,2|10,3:2|0:0,0:0:0:0:
286,275,102500,1,0,0:0:0:0:
372,304,102667,6,0,P|383:241|350:178,2,121.000003692627,2|8|0,1:2|0:0|3:2,0:0:0:0:
301,361,103500,1,4,1:3:0:0:
286,275,103667,2,0,L|275:207,1,60.5000018463135,10|0,0:2|0:0,0:0:0:0:
293,126,104000,6,0,B|278:109|255:97|255:97|236:102|223:115|223:115|202:113|176:119,1,121.000003692627,2|10,1:2|0:0,0:0:0:0:
130,187,104500,1,0,0:0:0:0:
45,153,104667,2,0,P|35:124|36:94,1,60.5000018463135,2|4,3:2|1:3,0:0:0:0:
104,34,105000,2,0,P|113:62|112:92,1,60.5000018463135,10|0,0:0|0:0,0:0:0:0:
45,153,105333,6,0,B|13:185|13:185|24:268,2,121.000003692627,6|8|0,1:2|0:0|3:2,0:0:0:0:
130,187,106167,1,4,1:3:0:0:
200,129,106334,2,0,P|229:119|278:118,1,60.5000018463135,10|0,0:0|0:3,0:0:0:0:
315,187,106667,6,0,P|344:197|393:198,1,60.5000018463135,2|0,1:2|0:0,0:0:0:0:
453,156,107000,2,0,L|445:95,1,60.5000018463135,10|0,0:0|0:0,0:0:0:0:
373,39,107334,2,0,L|363:103,1,60.5000018463135,2|4,3:2|1:3,0:0:0:0:
284,142,107667,2,0,L|276:81,1,60.5000018463135,10|0,0:0|0:0,0:0:0:0:
196,36,108001,6,0,B|130:57|77:47|77:47|109:60|130:85,1,181.500005538941,6|0,1:2|0:0,0:0:0:0:
184,150,108667,2,0,P|140:218|124:143,1,181.500005538941,10|0,3:2|0:0,0:0:0:0:
29,118,109334,6,0,B|-13:208|59:209|8:307,1,181.500005538941,6|0,1:2|0:0,0:0:0:0:
92,339,110000,1,2,3:2:0:0:
137,260,110167,1,4,1:3:0:0:
183,337,110333,1,8,0:0:0:0:
183,337,110667,6,0,P|116:339|53:367,2,121.000003692627,6|10|2,1:2|0:2|3:2,0:0:0:0:
267,369,111500,1,4,1:3:0:0:
333,306,111667,1,10,0:0:0:0:
282,230,111833,6,0,B|276:137|276:137|310:173,1,121.000003692627,2|2,0:0|0:0,0:0:0:0:
373,204,112334,2,0,P|403:207|437:196,1,60.5000018463135,10|2,0:0|0:0,0:0:0:0:
491,130,112667,2,0,P|494:99|483:65,2,60.5000018463135,2|6|8,3:2|1:3|0:0,0:0:0:0:
431,199,113167,1,0,0:0:0:0:
495,262,113333,6,0,B|508:349|508:349|470:382,2,121.000003692627,2|10|2,1:2|0:0|3:2,0:0:0:0:
431,199,114166,1,4,1:3:0:0:
355,243,114334,1,10,0:0:0:0:
355,243,114500,6,0,P|295:240|251:289,1,121.000003692627,2|2,0:0|0:0,0:0:0:0:
176,330,115000,2,0,L|169:269,1,60.5000018463135,10|2,0:0|0:0,0:0:0:0:
96,214,115334,2,0,L|102:153,2,60.5000018463135,2|4|10,3:2|1:3|0:0,0:0:0:0:
86,304,115834,1,0,0:3:0:0:
14,248,116000,6,0,L|7:187,1,60.5000018463135,6|0,1:2|0:0,0:0:0:0:
20,97,116334,2,0,P|62:81|82:82,1,60.5000018463135,10|0,0:0|0:0,0:0:0:0:
126,5,116667,2,0,P|167:23|180:38,1,60.5000018463135,2|4,3:2|1:3,0:0:0:0:
209,119,117000,1,10,0:0:0:0:
281,64,117167,6,0,B|341:42|337:96|402:71,2,121.000003692627,2|2|2,0:0|0:0|0:0,0:0:0:0:
300,152,118000,2,0,L|313:211,1,60.5000018463135,10|4,0:3|0:3,0:0:0:0:
270,290,118334,1,10,0:0:0:0:
194,237,118500,1,8,0:0:0:0:
194,237,118584,1,8,0:0:0:0:
194,237,118667,6,0,P|150:233|112:283,1,110,4|8,1:2|0:0,0:0:0:0:
152,353,119167,2,0,P|196:357|234:307,1,110,0|6,0:0|1:3,0:0:0:0:
276,238,119667,2,0,P|305:229|335:232,1,55,10|2,0:0|0:0,0:0:0:0:
391,285,120000,6,0,P|399:314|397:344,2,55,2|0|10,1:2|0:0|0:0,0:0:0:0:
443,220,120500,2,0,P|470:220|496:212,2,55,2|0|6,0:0|3:2|1:3,0:0:0:0:
380,166,121000,2,0,P|380:138|372:112,1,55,8|0,0:0|0:0,0:0:0:0:
312,54,121334,6,0,P|287:30|293:64,1,82.5,2|0,1:2|0:0,0:0:0:0:
281,103,121667,2,0,P|263:125|226:140,1,55,8|2,0:0|0:0,0:0:0:0:
157,130,122000,2,0,P|137:111|126:85,2,55,2|4|8,3:2|1:3|0:0,0:0:0:0:
192,204,122500,1,2,0:0:0:0:
192,204,122667,6,0,L|182:276,1,55,2|2,1:2|0:0,0:0:0:0:
114,302,123000,2,0,L|104:230,1,55,10|0,0:0|0:0,0:0:0:0:
47,188,123334,1,2,3:2:0:0:
84,115,123500,1,4,1:3:0:0:
14,70,123667,1,8,0:0:0:0:
86,29,123834,1,2,0:0:0:0:
156,74,124000,6,0,B|205:52|247:89|247:89|230:98,1,110,6|8,1:2|0:0,0:0:0:0:
179,249,124667,2,0,L|185:309,1,55,2|6,3:2|1:3,0:0:0:0:
254,347,125000,1,8,0:0:0:0:
254,347,125167,6,0,P|296:313|363:326,1,110,2|0,0:0|0:0,0:0:0:0:
425,349,125667,2,0,P|431:321|424:283,1,55,10|0,0:0|0:0,0:0:0:0:
456,217,126000,2,0,L|517:227,2,55,2|4|10,3:2|1:3|0:0,0:0:0:0:
391,165,126500,1,2,0:0:0:0:
318,205,126667,6,0,L|210:224,1,110,2|8,1:2|0:0,0:0:0:0:
131,220,127167,1,2,0:0:0:0:
131,220,127334,2,0,P|120:193|121:159,1,55,0|6,3:2|1:3,0:0:0:0:
185,117,127667,1,10,0:0:0:0:
185,117,127834,6,0,B|217:119|217:119|258:101|258:101|296:106,1,110,2|0,0:2|0:0,0:0:0:0:
340,171,128334,1,10,0:0:0:0:
418,147,128500,2,0,P|429:100|405:40,1,110,2|4,0:0|1:3,0:0:0:0:
329,17,129000,2,0,P|289:29|229:30,1,82.5,10|0,0:0|0:0,0:0:0:0:
209,17,129334,6,0,P|139:13|95:42,2,110,6|10|2,1:2|0:0|3:2,0:0:0:0:
248,89,130167,1,4,1:3:0:0:
169,103,130334,1,8,0:0:0:0:
169,103,130500,6,0,B|156:130|169:157|169:157|157:183|177:214,1,110,2|0,0:2|0:0,0:0:0:0:
228,270,131000,2,0,P|258:281|295:273,1,55,10|0,0:0|0:0,0:0:0:0:
326,209,131334,1,2,3:2:0:0:
403,238,131501,1,6,1:3:0:0:
460,179,131667,2,0,P|471:149|461:99,1,82.5,8|0,0:0|0:0,0:0:0:0:
444,61,132001,6,0,P|393:32|330:52,2,110,2|10|2,1:2|0:0|0:0,0:0:0:0:
382,116,132834,1,0,1:0:0:0:
370,197,133000,1,10,3:2:0:0:
370,197,133167,6,0,P|342:217|302:227,1,55,2|0,0:0|1:0,0:0:0:0:
263,166,133500,2,0,P|235:146|195:136,1,55,2|8,0:0|0:0,0:0:0:0:
165,205,133834,2,0,B|105:226|109:171|45:194,1,110,2|4,0:0|1:3,0:0:0:0:
60,272,134334,2,0,P|51:319|68:357,1,82.5,10|0,0:0|0:0,0:0:0:0:
102,363,134667,6,0,L|161:352,1,55,6|0,1:2|0:0,0:0:0:0:
210,291,135000,2,0,L|269:302,1,55,8|0,0:0|0:0,0:0:0:0:
339,337,135334,2,0,L|350:295,3,27.5,2|2|6|2,3:2|0:0|1:3|0:0,0:0:0:0:
331,271,135667,2,0,L|320:229,3,27.5,10|2|2|2,0:0|0:0|0:0|0:0,0:0:0:0:
351,213,136000,6,0,P|386:212|452:274,2,110,2|10|10,1:2|0:2|3:2,0:0:0:0:
281,167,136834,1,6,1:3:0:0:
235,98,137000,2,0,B|204:82|204:82|143:103,1,82.5,8|2,1:3|0:0,0:0:0:0:
129,126,137334,5,6,1:2:0:0:
210,269,137667,2,0,P|218:297|214:344,1,55,0|0,1:0|0:0,0:0:0:0:
294,354,138000,2,0,L|359:346,3,55,10|0|2|0,0:0|0:0|0:0|1:0,0:0:0:0:
422,308,138667,2,0,P|432:260|424:195,1,110,0|0,1:0|1:0,0:0:0:0:
312,78,139334,2,0,P|305:132|315:186,1,110,10|2,0:0|0:0,0:0:0:0:
348,347,140000,5,0,1:0:0:0:
227,234,140334,1,0,1:0:0:0:
119,359,140667,2,0,P|92:372|63:372,1,55,10|0,0:0|0:0,0:0:0:0:
9,313,141000,1,0,1:0:0:0:
58,155,141334,6,0,P|54:97|93:48,1,110,2|0,1:2|1:0,0:0:0:0:
242,92,142000,2,0,P|246:150|207:199,1,110,10|2,0:0|1:2,0:0:0:0:
305,331,142667,6,0,L|431:347,2,110,2|2|10,1:2|1:2|0:0,0:0:0:0:
139,336,143667,1,2,1:2:0:0:
218,191,144000,2,0,P|247:145|242:92,2,110,2|2|10,1:2|1:2|0:0,0:0:0:0:
61,244,145000,1,2,1:2:0:0:
222,281,145334,5,2,1:2:0:0:
63,327,145667,1,0,1:2:0:0:
121,172,146000,1,10,0:0:0:0:
276,226,146334,1,0,1:2:0:0:
241,64,146667,5,2,1:2:0:0:
241,64,147334,6,0,P|271:57|311:73,1,55,8|0,0:0|0:0,0:0:0:0:
362,108,147667,1,0,1:0:0:0:
299,159,147833,1,0,1:0:0:0:
299,159,147917,1,0,1:0:0:0:
299,159,148000,2,0,P|269:166|229:150,1,55,4|0,1:2|0:0,0:0:0:0:
167,133,148334,2,0,L|162:66,1,55,8|2,0:0|0:0,0:0:0:0:
80,74,148667,2,0,P|51:89|16:92,1,55,2|6,0:0|1:3,0:0:0:0:
7,174,149000,1,8,0:0:0:0:
67,237,149167,1,2,0:0:0:0:
67,237,149334,6,0,P|76:264|75:294,2,55,2|0|8,1:2|0:0|0:0,0:0:0:0:
7,174,149834,1,2,0:0:0:0:
80,135,150000,2,0,P|106:128|138:129,1,55,2|6,0:0|1:3,0:0:0:0:
189,190,150334,2,0,P|215:197|247:196,1,55,8|2,0:0|0:0,0:0:0:0:
300,137,150667,6,0,L|297:78,2,55,2|0|8,1:2|0:0|0:0,0:0:0:0:
337,210,151167,1,2,0:0:0:0:
278,268,151334,2,0,P|274:302|288:334,1,55,2|6,0:0|1:3,0:0:0:0:
360,340,151667,1,10,0:0:0:0:
418,281,151834,1,2,0:0:0:0:
411,199,152000,6,0,L|403:143,1,55,2|0,1:2|0:0,0:0:0:0:
474,100,152334,2,0,L|481:44,1,55,8|2,0:0|0:0,0:0:0:0:
401,23,152667,1,2,0:0:0:0:
334,72,152834,1,6,1:3:0:0:
265,25,153000,1,10,0:0:0:0:
197,72,153167,1,2,0:0:0:0:
122,36,153334,6,0,B|95:75|95:75|110:148,1,110,4|10,1:2|0:0,0:0:0:0:
158,201,153834,1,2,0:0:0:0:
231,163,154000,2,0,P|258:157|286:162,1,55,8|2,0:0|1:2,0:0:0:0:
338,224,154334,1,8,0:0:0:0:
316,303,154501,1,2,1:2:0:0:
234,293,154667,6,0,L|167:286,1,55,10|0,0:0|0:0,0:0:0:0:
112,335,155000,2,0,L|84:273,1,55,10|0,0:0|0:0,0:0:0:0:
54,209,155334,1,10,0:0:0:0:
112,149,155500,1,0,1:0:0:0:
77,74,155667,2,0,P|73:48|82:5,1,55,10|0,0:0|0:0,0:0:0:0:
156,43,156000,5,8,0:0:0:0:
216,98,156167,1,0,1:0:0:0:
201,179,156334,1,4,0:3:0:0:
256,239,156500,1,8,0:0:0:0:
169,380,156834,5,8,1:2:0:0:
111,321,157000,2,0,P|89:335|49:348,2,36.6666666666667,10|2|2,1:2|0:0|0:0,0:0:0:0:
150,282,157334,2,0,B|266:261|235:372|349:347,1,220,10|2,1:2|0:0,0:0:0:0:
208,315,168667,6,0,P|199:293|205:256,3,55,2|2|2|2,0:2|0:0|0:0|0:0,0:0:0:0:
263,205,169334,6,0,L|379:201,2,110,4|2|8,1:2|1:2|0:0,0:0:0:0:
123,293,170334,5,2,1:2:0:0:
76,231,170500,1,2,1:2:0:0:
76,231,170667,2,0,L|86:177,1,55,0|2,1:2|0:0,0:0:0:0:
158,136,171000,2,0,P|157:104|142:74,1,55,2|2,1:2|0:0,0:0:0:0:
66,69,171334,2,0,P|43:93|34:114,2,55,10|2|2,0:0|0:0|0:0,0:0:0:0:
120,6,171834,1,2,0:0:0:0:
148,83,172000,6,0,L|264:73,2,110,2|2|10,1:2|1:2|0:0,0:0:0:0:
28,197,173000,1,2,1:2:0:0:
66,275,173166,1,2,0:0:0:0:
66,275,173333,6,0,L|56:329,1,55,0|2,1:0|0:0,0:0:0:0:
130,365,173666,2,0,P|155:365|185:352,1,55,2|2,1:2|0:0,0:0:0:0:
237,291,174000,2,0,L|209:243,2,55,10|2|6,0:0|0:0|0:3,0:0:0:0:
263,369,174500,1,2,0:0:0:0:
321,310,174667,6,0,P|343:302|385:306,1,55,6|0,1:2|0:0,0:0:0:0:
456,310,175000,2,0,L|445:245,1,55,10|0,0:0|0:0,0:0:0:0:
467,175,175334,1,10,0:0:0:0:
397,130,175500,1,0,1:0:0:0:
329,177,175667,1,10,0:0:0:0:
259,132,175833,1,0,1:0:0:0:
191,179,176000,6,0,P|166:192|134:199,1,55,10|0,0:0|1:2,0:0:0:0:
60,221,176334,2,0,L|67:158,1,55,10|0,0:0|0:0,0:0:0:0:
36,89,176667,1,10,0:0:0:0:
101,39,176833,1,0,1:0:0:0:
137,112,177000,1,10,0:0:0:0:
202,62,177166,1,0,1:0:0:0:
274,102,177334,6,0,L|338:93,1,55,4|0,1:3|1:0,0:0:0:0:
401,55,177667,1,8,0:0:0:0:
398,137,177834,1,0,1:0:0:0:
483,277,178167,5,8,1:2:0:0:
483,201,178333,1,8,1:2:0:0:
481,124,178500,1,8,1:2:0:0:
398,137,178667,6,0,L|367:131,3,27.5,12|0|0|0,0:2|1:0|1:0|1:0,0:0:0:0:
342,161,179000,2,0,L|311:167,3,27.5,8|0|0|0,1:2|1:0|1:0|1:0,0:0:0:0:
279,144,179334,2,0,L|272:114,3,27.5,8|0|0|0,1:2|1:0|1:0|1:0,0:0:0:0:
252,81,179667,2,0,L|259:51,3,27.5,8|8|8|8,0:0|0:0|0:0|0:0,0:0:0:0:
290,27,180000,1,0,1:2:0:0:
192,10,180167,6,0,P|160:7|118:22,1,65.9999979858399,14|0,0:2|1:2,0:0:0:0:
69,97,180500,1,0,1:2:0:0:
69,97,180667,2,0,B|98:134|98:134|87:218,1,131.99999597168,14|0,0:2|1:2,0:2:0:0:
146,298,181167,6,0,P|177:307|210:304,1,65.9999979858399,14|0,0:2|1:2,0:0:0:0:
250,215,181500,1,0,1:2:0:0:
250,215,181667,2,0,P|218:205|185:208,1,65.9999979858399,14|8,0:2|0:2,0:0:0:0:
87,218,182000,5,2,1:2:0:0:
160,35,182334,1,10,1:2:0:0:
291,134,182667,6,0,B|403:102|329:212|561:269|517:13|397:90,1,330,6|2,0:2|0:2,0:2:0:0:
313,215,184000,6,0,L|310:242,3,27.5,14|0|0|0,1:2|1:2|1:2|1:2,0:0:0:0:
337,274,184334,2,0,L|340:301,3,27.5,14|0|0|0,1:2|1:2|1:2|1:2,0:0:0:0:
311,330,184667,2,0,L|284:327,3,27.5,14|8|8|8,1:2|1:2|1:2|1:2,0:0:0:0:
247,346,185000,1,2,3:2:0:0:
247,346,185334,6,0,P|184:335|113:383,2,131.99999597168,6|10|2,1:2|0:0|3:2,0:0:0:0:
279,252,186167,1,4,1:3:0:0:
185,219,186334,2,0,L|179:146,1,65.9999979858399,10|0,0:2|0:0,0:0:0:0:
242,76,186667,6,0,B|199:43|199:43|111:68,1,131.99999597168,2|10,1:2|0:0,0:0:0:0:
33,27,187167,1,0,0:0:0:0:
18,125,187334,2,0,P|17:156|31:191,1,65.9999979858399,2|4,1:2|0:3,0:0:0:0:
127,204,187667,2,0,P|128:173|114:138,1,65.9999979858399,10|0,0:0|0:0,0:0:0:0:
29,188,188000,6,0,P|7:250|8:317,2,131.99999597168,6|8|0,1:2|0:0|3:2,0:0:0:0:
127,204,188834,1,4,1:3:0:0:
174,291,189001,2,0,P|181:333|178:375,1,65.9999979858399,10|0,0:0|0:0,0:0:0:0:
268,308,189334,6,0,P|310:300|352:303,1,65.9999979858399,2|0,1:2|0:0,0:0:0:0:
280,216,189667,2,0,P|272:173|275:131,1,65.9999979858399,10|0,0:0|0:0,0:0:0:0:
368,127,190000,2,0,P|375:84|372:42,1,65.9999979858399,2|4,3:2|1:3,0:0:0:0:
278,35,190334,2,0,P|236:27|194:30,1,65.9999979858399,10|0,0:0|0:0,0:0:0:0:
127,79,190668,6,0,B|98:70|77:47|77:47|101:198,1,197.99999395752,6|0,1:2|0:0,0:0:0:0:
91,281,191334,2,0,P|121:334|158:247,1,197.99999395752,10|0,3:2|0:0,0:0:0:0:
198,159,192000,6,0,B|300:131|271:240|394:204,1,197.99999395752,6|0,1:2|0:0,0:0:0:0:
448,138,192667,1,2,0:0:0:0:
353,108,192834,1,4,1:3:0:0:
378,207,193000,1,8,0:0:0:0:
378,207,193334,6,0,L|355:355,2,131.99999597168,6|10|2,1:2|0:2|3:2,0:0:0:0:
353,108,194167,1,4,1:3:0:0:
448,138,194334,1,10,0:0:0:0:
448,138,194500,6,0,P|476:117|520:110,1,65.9999979858399,2|0,0:0|1:0,0:0:0:0:
425,51,194834,2,0,P|396:30|352:23,1,65.9999979858399,2|8,0:0|0:0,0:0:0:0:
281,73,195167,2,0,P|252:93|208:100,1,65.9999979858399,2|0,0:0|3:2,0:0:0:0:
141,44,195500,2,0,B|101:66|101:66|114:178,1,131.99999597168,6|0,1:3|0:0,0:0:0:0:
205,185,196000,6,0,P|223:255|196:309,2,131.99999597168,2|10|2,1:2|0:0|3:2,0:0:0:0:
111,152,196833,1,4,1:3:0:0:
23,192,196999,1,10,0:0:0:0:
23,192,197166,2,0,P|59:233|133:242,1,131.99999597168,2|2,0:0|0:0,0:0:0:0:
205,185,197667,1,10,0:0:0:0:
205,185,198000,6,0,L|218:115,1,65.9999979858399,2|4,0:0|1:3,0:0:0:0:
290,52,198334,2,0,L|302:116,1,65.9999979858399,10|0,0:0|0:0,0:0:0:0:
373,185,198667,6,0,B|402:150|402:150|382:49,2,131.99999597168,6|8|2,1:2|0:0|3:2,0:0:0:0:
302,255,199500,1,4,1:3:0:0:
364,331,199667,2,0,P|392:344|441:337,1,65.9999979858399,8|0,0:0|0:0,0:0:0:0:
494,270,200000,6,0,B|523:235|523:235|503:134,2,131.99999597168,2|8|2,1:2|0:0|3:2,0:0:0:0:
426,342,200834,1,4,1:3:0:0:
380,254,201000,2,0,P|347:252|317:265,1,65.9999979858399,10|0,0:0|0:3,0:0:0:0:
254,343,201334,6,0,L|238:278,1,65.9999979858399,6|0,1:2|0:0,0:0:0:0:
147,238,201667,2,0,L|162:173,1,65.9999979858399,8|0,0:0|0:0,0:0:0:0:
245,119,202000,2,0,L|260:183,1,65.9999979858399,0|4,3:2|1:3,0:0:0:0:
238,278,202333,5,10,0:0:0:0:
175,354,202500,1,2,0:0:0:0:
85,315,202667,2,0,P|49:312|9:324,1,65.9999979858399,2|0,1:2|0:0,0:0:0:0:
48,224,203000,2,0,P|50:188|38:148,1,65.9999979858399,8|0,0:0|0:0,0:0:0:0:
6,66,203334,1,2,3:2:0:0:
83,5,203500,1,8,1:3:0:0:
122,96,203667,2,0,L|156:99,3,32.99999899292,8|8|8|8,0:0|0:0|0:0|0:0,0:0:0:0:
198,75,204000,6,0,B|266:58|252:122|330:98,2,131.99999597168,4|8|0,1:2|0:0|3:2,0:0:0:0:
176,171,204833,1,4,1:3:0:0:
271,197,205000,2,0,P|299:188|350:195,1,65.9999979858399,10|0,0:0|0:0,0:0:0:0:
314,287,205334,6,0,P|307:315|276:356,1,65.9999979858399,2|0,1:2|0:0,0:0:0:0:
217,276,205667,2,0,P|195:256|175:208,1,65.9999979858399,10|0,0:0|0:0,0:0:0:0:
94,170,206000,2,0,B|76:326,1,131.99999597168,2|10,3:2|0:0,0:0:0:0:
160,356,206500,1,0,0:0:0:0:
217,276,206667,6,0,B|201:144,2,131.99999597168,2|8|0,1:2|0:0|3:2,0:0:0:0:
160,356,207500,1,4,1:3:0:0:
80,301,207667,2,0,L|87:233,1,65.9999979858399,10|0,0:2|0:0,0:0:0:0:
25,157,208000,6,0,B|57:121|112:133|112:133|87:93,1,131.99999597168,2|10,1:2|0:0,0:0:0:0:
145,17,208500,1,0,0:0:0:0:
207,93,208667,2,0,P|218:126|217:160,1,65.9999979858399,2|4,3:2|1:3,0:0:0:0:
303,206,209000,2,0,P|302:173|313:142,1,65.9999979858399,10|0,0:0|0:0,0:0:0:0:
371,61,209333,6,0,B|455:49|455:49|490:85,2,131.99999597168,6|8|0,1:2|0:0|3:2,0:0:0:0:
313,142,210167,1,4,1:3:0:0:
399,190,210334,2,0,P|429:200|481:191,1,65.9999979858399,10|0,0:0|0:0,0:0:0:0:
502,289,210667,6,0,P|477:310|460:359,1,65.9999979858399,2|0,1:2|0:0,0:0:0:0:
365,324,211000,2,0,P|358:292|324:252,1,65.9999979858399,10|0,0:0|0:0,0:0:0:0:
264,329,211334,2,0,L|193:318,1,65.9999979858399,2|4,3:2|1:3,0:0:0:0:
130,247,211667,2,0,L|201:236,1,65.9999979858399,10|0,0:0|0:0,0:0:0:0:
248,153,212000,6,0,B|274:142|312:157|312:157|281:133|280:102,1,131.99999597168,6|8,1:2|0:0,0:0:0:0:
376,79,212500,1,0,0:0:0:0:
294,21,212667,2,0,B|261:-12|219:11|219:11|223:82|162:122,1,197.99999395752,2|0,1:2|0:0,0:0:0:0:
84,71,213334,6,0,B|102:46|130:38|130:38|59:93|112:180,1,197.99999395752,6|0,1:2|0:0,0:0:0:0:
180,217,214000,1,2,3:2:0:0:
92,263,214167,1,4,1:3:0:0:
13,202,214333,1,8,0:0:0:0:
13,202,214667,6,0,P|-8:145|12:62,2,131.99999597168,6|10|2,1:2|0:2|3:2,0:0:0:0:
102,162,215500,1,4,1:3:0:0:
92,263,215667,1,10,0:0:0:0:
180,217,215833,6,0,B|266:247|266:247|317:220,1,131.99999597168,2|2,0:0|0:0,0:0:0:0:
373,158,216334,2,0,P|390:182|398:217,1,65.9999979858399,10|2,0:0|0:0,0:0:0:0:
358,307,216667,2,0,P|340:331|332:366,2,65.9999979858399,2|6|8,3:2|1:3|0:0,0:0:0:0:
302,227,217167,1,0,0:0:0:0:
398,217,217333,6,0,B|426:197|426:197|478:200|507:253,2,131.99999597168,2|10|2,1:2|0:0|3:2,0:0:0:0:
358,307,218166,1,4,1:3:0:0:
302,227,218334,1,10,0:0:0:0:
302,227,218500,6,0,P|279:154|316:84,1,131.99999597168,2|2,0:0|0:0,0:0:0:0:
364,30,219000,2,0,P|333:10|290:6,1,65.9999979858399,10|2,0:0|0:0,0:0:0:0:
231,72,219334,2,0,P|200:92|157:95,2,65.9999979858399,2|4|10,3:2|1:3|0:0,0:0:0:0:
167,0,219834,1,4,0:3:0:0:
81,51,220000,6,0,L|88:118,1,65.9999979858399,6|0,1:2|0:0,0:0:0:0:
167,180,220334,2,0,L|158:255,1,65.9999979858399,10|0,0:0|0:0,0:0:0:0:
185,341,220667,2,0,P|226:323|239:308,1,65.9999979858399,2|4,3:2|1:3,0:0:0:0:
324,256,221000,1,10,0:0:0:0:
301,159,221167,6,0,P|263:141|207:158,1,98.9999969787599,2|0,0:0|3:0,0:0:0:0:
167,180,221500,2,0,L|158:255,2,65.9999979858399,2|8|2,0:0|1:2|0:0,0:0:0:0:
88,116,222000,2,0,L|67:268,1,131.99999597168,2|10,3:2|0:0,0:0:0:0:
240,347,222667,6,0,P|291:301|359:319,1,131.99999597168,0|8,1:0|0:0,0:0:0:0:
434,362,223167,1,0,0:0:0:0:
484,276,223334,2,0,P|481:242|470:212,1,65.9999979858399,2|4,3:2|1:3,0:0:0:0:
379,172,223667,2,0,P|382:138|393:108,1,65.9999979858399,10|0,0:0|0:0,0:0:0:0:
409,10,224000,6,0,B|327:-4|356:56|263:31,2,131.99999597168,2|8|2,1:2|0:0|3:2,0:0:0:0:
484,74,224834,1,4,1:3:0:0:
392,108,225000,2,0,P|381:139|379:172,1,65.9999979858399,10|0,0:0|0:0,0:0:0:0:
307,241,225334,1,6,1:2:0:0:
307,241,225667,5,10,1:2:0:0:
281,145,225834,1,0,1:0:0:0:
185,119,226000,1,10,1:2:0:0:
114,188,226167,1,0,1:0:0:0:
140,284,226334,1,10,1:2:0:0:
236,310,226500,1,2,1:2:0:0:
307,241,226667,2,0,P|341:240|375:252,1,65.9999979858399,8|10,1:2|1:2,0:0:0:0:
420,335,227000,1,8,1:2:0:0:
420,335,227334,6,0,L|371:345,3,32.99999899292,8|8|8|8,1:2|0:0|0:0|0:0,0:0:0:0:
344,366,227667,2,0,L|295:356,3,32.99999899292,8|8|8|8,1:2|0:0|0:0|0:0,0:0:0:0:
278,328,228000,6,0,P|240:332|203:354,2,60.5000018463135,6|0|10,1:2|3:0|0:0,0:0:0:0:
307,241,228500,2,0,B|320:175|320:175|291:110,1,121.000003692627,2|0,3:0|0:0,0:0:0:0:
246,51,229000,1,10,0:0:0:0:
169,98,229167,1,0,3:0:0:0:
99,39,229334,6,0,B|56:64|56:64|68:140,1,121.000003692627,2|10,1:2|0:0,0:0:0:0:
67,225,229834,2,0,B|140:229|116:187|189:189,1,121.000003692627,2|0,3:0|3:0,0:0:0:0:
257,235,230334,1,10,0:0:0:0:
181,283,230500,1,0,3:0:0:0:
179,189,230667,6,0,P|181:162|198:123,2,60.5000018463135,2|0|10,1:2|3:0|0:0,0:0:0:0:
257,235,231167,2,0,B|291:255|291:255|369:221,1,121.000003692627,2|2,3:0|3:0,0:0:0:0:
454,242,231667,1,10,0:0:0:0:
392,308,231834,1,2,3:0:0:0:
365,222,232000,6,0,L|349:159,1,60.5000018463135,2|0,1:2|3:0,0:0:0:0:
270,119,232334,2,0,L|286:56,1,60.5000018463135,10|0,0:0|3:0,0:0:0:0:
368,21,232667,1,10,0:0:0:0:
368,21,232750,2,0,P|400:19|429:32,1,60.5000018463135,8|0,0:0|0:0,0:0:0:0:
460,59,233000,1,10,0:0:0:0:
416,141,233167,1,8,3:2:0:0:
416,141,233250,1,8,0:0:0:0:
416,141,233334,6,0,P|384:143|355:130,2,60.5000018463135,6|0|10,1:2|3:0|0:0,0:0:0:0:
435,229,233834,2,0,P|366:233|303:205,1,121.000003692627,2|2,3:0|3:0,0:0:0:0:
250,155,234333,1,10,0:0:0:0:
187,221,234500,1,0,3:0:0:0:
118,161,234667,6,0,P|119:125|139:94,2,60.5000018463135,2|0|8,1:2|3:0|0:0,0:0:0:0:
58,229,235167,2,0,B|34:297|81:285|61:349,1,121.000003692627,2|0,3:0|3:0,0:0:0:0:
148,376,235667,1,10,0:0:0:0:
201,303,235833,1,0,3:0:0:0:
289,322,236000,6,0,P|315:324|354:341,2,60.5000018463135,14|8|4,0:0|0:3|0:3,0:0:0:0:
201,303,236500,2,0,B|180:233|180:233|210:194,1,121.000003692627,10|10,0:0|0:3,0:0:0:0:
296,167,237000,1,6,0:3:0:0:
296,167,237167,6,0,B|298:111|176:128|258:-34|338:42|338:42|471:-3|446:254|301:85|297:200,1,514.250015693665,4|4,1:2|1:3,0:0:0:0:
